#TITLE:Happy-hopper;
#SUBTITLE:;
#ARTIST:ES44;
#TITLETRANSLIT:;
#SUBTITLETRANSLIT:;
#ARTISTTRANSLIT:;
#GENRE:;
#CREDIT:;
#BANNER:Happy-hopper.png;
#BACKGROUND:Happy-hopper-bg.png;
#LYRICSPATH:;
#CDTITLE:;
#MUSIC:Happy-hopper.ogg;
#OFFSET:0.000000;
#SAMPLESTART:22.711000;
#SAMPLELENGTH:15.000000;
#SELECTABLE:YES;
#BPMS:0.000000=190.000000
;
#STOPS:
;
#BGCHANGES:;
#KEYSOUNDS:;
#ATTACKS:;

//---------------dance-single - ----------------
#NOTES:
     dance-single:
     :
     Beginner:
     6:
     0.237230,0.342501,0.196045,0.184512,0.000000,144.000000,127.000000,17.000000,16.000000,0.000000,0.000000,0.237230,0.342501,0.196045,0.184512,0.000000,144.000000,127.000000,17.000000,16.000000,0.000000,0.000000:
0000
0000
0000
0000
,
0000
0000
0000
0000
,
0000
0000
0000
0000
,
2002
0000
0000
0000
,
3003
0000
0000
0000
,
1001
0000
0000
0000
,
0110
0000
0000
0000
,
1000
0000
0100
0000
,
1000
1000
1000
0000
,
0110
0000
0000
0000
,
1001
0000
0000
0000
,
0010
0000
0001
0000
,
0010
0010
0010
0000
,
2002
0000
3003
0000
,
0100
0000
0000
0000
,
2002
0000
3003
0000
,
0010
0000
0000
0000
,
0000
0100
0100
0100
,
0100
0000
0010
0000
,
0001
0000
0010
0000
,
0100
0000
1000
0000
,
0100
0100
0100
0000
,
0010
0000
0001
0000
,
1000
0000
0010
0000
,
0100
0000
0001
0000
,
0010
0010
0010
0000
,
0001
0001
0001
0000
,
1000
1000
1000
0000
,
0001
0000
1000
0000
,
0001
0001
0001
0000
,
1000
0000
0001
0000
,
1000
1000
1000
0000
,
0001
0000
1000
0000
,
0001
0001
0001
0000
,
1000
1000
1000
0000
,
0010
0010
0010
0000
,
0010
0010
0010
0000
,
0100
0100
0100
0000
,
0100
0100
0100
0000
,
0001
0001
0001
0000
,
1000
1000
1000
0000
,
1001
0000
0110
0000
,
1001
0000
0110
0000
,
0000
2002
0000
3003
,
0000
0220
0000
0330
,
0000
1001
0000
0110
,
0000
2002
0000
0000
,
0000
3003
0000
0000
,
0000
0001
0001
0001
,
0001
0001
0000
0010
,
0000
0001
0000
1000
,
0000
0100
0000
1000
,
0000
0010
0000
0000
,
0000
0200
0000
0300
,
0000
0020
0000
0030
,
0000
1000
0000
0010
,
0000
0100
0000
0001
,
0000
1000
1000
1000
,
0000
0001
0000
0001
,
0000
0001
0000
0001
,
0000
1000
0000
1000
,
0000
1000
0000
1000
,
0000
0010
0000
0010
,
0000
0100
0000
0100
,
0000
0220
0000
0000
,
0330
0000
0010
0010
,
0010
0000
0000
0000
;

//---------------dance-single - ----------------
#NOTES:
     dance-single:
     :
     Easy:
     8:
     0.408563,0.532780,0.438217,0.392089,0.000000,248.000000,210.000000,38.000000,34.000000,0.000000,0.000000,0.408563,0.532780,0.438217,0.392089,0.000000,248.000000,210.000000,38.000000,34.000000,0.000000,0.000000:
0000
0000
0000
0000
,
0000
0000
0000
0000
,
0000
0000
0000
0000
,
2002
0000
0000
3003
,
0000
1000
0000
1000
0000
1000
0000
1000
,
0101
0000
0000
0001
0000
0000
0000
0000
,
1100
0000
0000
1000
0000
0000
0000
0000
,
0010
0010
0100
0100
,
0010
0100
0010
0000
0100
0010
0100
0000
,
0110
0000
0000
0010
0000
0000
0000
0000
,
1001
0000
0000
1000
0000
0000
0000
0000
,
0100
0100
0010
0010
,
0100
0010
0100
0000
0010
0100
0010
0000
,
0022
0000
0000
0030
,
0200
0000
0000
0303
,
2020
0000
0000
0030
,
0200
0000
0000
3000
,
0000
0010
0010
0310
,
1001
1000
0100
1000
,
0001
0100
0010
1000
,
0010
0100
0001
1000
,
0100
0010
0010
0000
,
0110
0010
0001
0100
,
0010
1000
0010
0100
,
0001
1000
0100
0010
,
0001
0001
1000
0000
,
1000
1000
0010
0010
,
0100
0100
0001
0001
,
0100
0100
0010
0010
,
0110
0110
1010
0000
,
1000
1000
0001
0001
,
0110
0110
0011
0000
,
1000
1000
0001
0001
,
0110
0110
1100
0000
,
0110
0110
0101
0000
,
0100
0000
0100
0000
0100
0000
0100
0010
,
1000
0000
1000
0000
1000
0000
1000
0001
,
0010
0010
0010
0010
,
0100
0100
0010
0110
,
0010
0000
0010
0000
0010
0000
0001
0100
,
0010
0000
0010
0000
0010
0000
1000
0010
,
0200
0300
0202
0303
,
2200
3300
2020
0000
,
3030
2002
0000
0000
,
3003
0220
0000
0000
,
0330
2002
3003
0220
,
0330
2002
3003
0220
,
0330
2002
0000
3003
,
1001
2000
3001
1000
,
0001
1000
0100
0001
,
0010
0001
0100
1000
,
0010
0001
0010
1000
,
0100
0000
0010
0000
0001
0000
0100
0100
,
0010
2000
0000
0001
,
0001
3002
0000
0100
,
0103
0010
0100
0001
,
1000
0100
0010
0001
,
0010
0100
0100
1001
,
0000
1000
1000
0001
,
0001
0100
0100
0010
,
0010
1000
1000
0010
,
0010
0100
0100
0001
,
0001
1000
1000
0001
,
0001
0000
1000
0001
0010
0000
0001
1000
,
0010
0220
0000
0000
,
0000
0330
1010
0101
,
1001
0000
0000
0000
;

//---------------dance-single - ----------------
#NOTES:
     dance-single:
     :
     Medium:
     11:
     0.584839,0.608891,0.472813,0.345961,0.000000,355.000000,314.000000,41.000000,30.000000,0.000000,0.000000,0.584839,0.608891,0.472813,0.345961,0.000000,355.000000,314.000000,41.000000,30.000000,0.000000,0.000000:
0000
0000
0000
0000
,
0000
0000
0000
0000
,
0000
0000
0000
0000
,
0210
0010
0010
0310
,
0000
0100
0000
0100
0000
0100
0000
0100
,
1001
0000
0001
0001
0000
1000
1000
0000
,
0110
0000
1000
1000
0000
0001
0001
0000
,
1000
0010
1000
0000
0001
0100
0001
0000
,
0010
0100
0010
0100
0010
0100
0010
0000
,
0011
0000
0100
0100
0000
1000
1000
0000
,
1010
0000
0100
0100
0000
0001
0001
0000
,
1000
0100
1000
0000
0001
0010
0001
0000
,
1000
0010
0100
0001
0100
0010
1000
0000
,
2002
0000
0000
0003
,
0200
0000
0000
3300
,
2002
0000
0000
3000
,
0020
0000
0000
0003
,
0000
0100
0100
0130
,
0110
0000
0010
0001
1000
0000
0010
1000
,
0001
0000
0100
0001
1000
0000
0100
1000
,
0010
0000
0100
0001
0010
0000
0001
0010
,
0100
1001
1001
0100
,
0010
0000
1000
0001
0010
0000
0100
0010
,
0001
0000
0010
0100
1000
0000
0001
0100
,
1000
0000
1000
0100
0001
0000
0010
0100
,
1000
1100
1100
0010
,
0100
0001
0100
0001
0010
0001
0010
0000
,
0100
1000
0100
1000
0010
1000
0010
0000
,
1000
0001
1000
0001
0100
0010
0100
0000
,
1001
0011
1100
0010
,
0100
0001
0010
0000
0100
1000
0010
0000
,
1100
0101
1100
0010
,
1000
0001
0010
0000
0001
1000
0010
0000
,
1010
0101
0011
0100
,
0011
1100
0101
0100
,
0010
0100
0010
0100
0010
0100
0010
0000
,
0100
0001
0100
0001
0100
0001
0100
0000
,
0010
1000
0010
1000
0010
1000
0010
0000
,
1000
0100
1000
0100
0010
0100
0010
0000
,
0001
0010
0001
0000
0010
0100
0010
0000
,
0100
1000
0001
0000
0100
0001
1000
0000
,
2000
0010
0000
3010
0002
0010
0000
0013
,
2000
0100
0000
3100
0002
0100
0000
0103
,
0010
2002
0000
0000
,
3003
0220
0000
0000
,
0330
2002
3003
0220
,
0330
2002
3003
0220
,
0330
2002
0000
3003
,
0110
1000
1000
1000
,
1000
0000
0001
0100
1000
0100
0001
0100
,
1000
0000
0001
0010
1000
0010
0001
0010
,
1000
0000
0001
0010
1000
0010
0001
0010
,
1000
0000
0001
0100
1000
0100
0001
0100
,
1000
2002
3000
0100
,
0103
0020
0000
1000
,
0130
0000
0001
0010
0100
0010
0001
0000
,
1000
0010
0100
0000
0100
0010
1000
0000
,
0001
0010
0100
0000
1100
0000
0011
0000
,
0101
0000
0100
0010
0100
0010
1000
0010
,
1000
0000
0001
0010
0001
0010
0100
0010
,
0100
0000
0010
0001
0100
0001
0010
0001
,
1000
0000
0010
1000
0100
1000
0010
1000
,
0001
0000
1000
1000
1000
0000
0001
0001
,
0001
0000
0100
0010
1000
0000
0100
0010
,
0011
0220
0000
0000
,
0000
0330
0011
1100
,
1001
0000
0000
0000
;

//---------------dance-single - ----------------
#NOTES:
     dance-single:
     :
     Hard:
     14:
     0.682037,0.837225,0.588134,0.334429,0.121086,414.000000,363.000000,51.000000,29.000000,0.000000,0.000000,0.682037,0.837225,0.588134,0.334429,0.121086,414.000000,363.000000,51.000000,29.000000,0.000000,0.000000:
// measure 0
0000
0000
0000
0000
,  // measure 1
0000
0000
0000
0000
,  // measure 2
0000
0000
0000
0000
,  // measure 3
0120
0100
0100
0230
,  // measure 4
0000
0001
0000
0001
0000
0001
0000
0301
,  // measure 5
1001
0000
1000
0100
0000
0010
0001
0000
,  // measure 6
1001
0000
0001
0010
0000
0100
1000
0000
,  // measure 7
0001
0010
0001
0000
1000
0010
1000
0000
,  // measure 8
0001
0100
1000
0100
0001
0100
1000
0000
,  // measure 9
1001
0000
0010
0100
0000
0001
1000
0000
,  // measure 10
1001
0000
0100
0010
0000
1000
0001
0000
,  // measure 11
0100
0001
0100
0000
0010
1000
0010
0000
,  // measure 12
1000
0010
0001
0010
1000
0010
0001
0000
,  // measure 13
2200
0000
0000
0300
,  // measure 14
0002
0000
0000
3003
,  // measure 15
0022
0000
0000
0030
,  // measure 16
2000
0000
0000
3003
,  // measure 17
0000
0010
0010
0010
,  // measure 18
1001
0000
1000
0100
0010
0000
0001
0010
,  // measure 19
0100
0000
1000
0010
0100
0000
0001
1000
,  // measure 20
0010
0000
1000
0010
0100
0000
0001
0010
,  // measure 21
0100
0000
0110
0000
1001
0000
0001
1000
,  // measure 22
0100
0000
1000
0010
0100
0000
0001
0100
,  // measure 23
0010
0000
1000
0100
0001
0000
0001
0100
,  // measure 24
1000
0000
0001
0100
1000
0000
1000
0100
,  // measure 25
0001
0110
0110
0010
,  // measure 26
0100
0010
0100
0010
1000
0010
1000
0100
,  // measure 27
0001
0100
0001
1000
0100
1000
0100
0010
,  // measure 28
0001
0010
0001
1000
0010
1000
0010
1000
,  // measure 29
0101
1100
1001
0010
,  // measure 30
1000
0001
1000
0001
0100
0010
0100
0010
,  // measure 31
0110
1100
0101
0010
,  // measure 32
0100
0001
0100
0001
0010
0100
0010
0100
,  // measure 33
1100
0000
0101
0000
1010
0000
1000
0001
,  // measure 34
0011
0000
1010
0000
0110
0000
0100
0010
,  // measure 35
1000
0000
0100
0000
1000
0100
1000
0000
0001
0000
1000
0000
0100
1000
0100
0000
,  // measure 36
1000
0000
0010
0000
0100
0010
0100
0000
0001
0000
0100
0000
0010
0100
0010
0000
,  // measure 37
1000
0000
0100
0000
0010
0001
0010
0000
0100
0000
0010
0000
0001
0010
0001
0000
,  // measure 38
0010
0010
0001
0001
0100
0100
1001
0000
,  // measure 39
0001
0000
0100
0000
0001
1000
0001
0000
0010
0000
0100
0000
1000
0001
1000
0000
,  // measure 40
0010
0000
1000
0000
0100
0010
0100
0000
0010
0000
0001
0000
0100
0010
0100
0000
,  // measure 41
2010
3010
0000
0100
0102
0103
0000
0001
,  // measure 42
2001
0000
3001
0000
0000
0000
0010
0000
1200
0000
1300
0000
0100
1000
0001
0000
,  // measure 43
0001
1000
0220
0000
0000
0000
0000
0000
,  // measure 44
0330
2002
0000
0000
,  // measure 45
3003
0100
2200
0000
3300
0000
2002
0000
,  // measure 46
3003
0022
0033
0202
,  // measure 47
0000
0000
0000
0303
,  // measure 48
0110
1000
0001
1000
,  // measure 49
0001
0000
0000
0000
1000
0000
0001
0000
0100
0010
1000
0000
0001
0000
1000
0000
,  // measure 50
0100
0010
0001
0000
1000
0000
0010
0000
0100
0001
0010
0000
0100
0000
0010
0000
,  // measure 51
1001
0000
0000
0000
0001
0000
0010
0000
0001
1000
0100
0000
1000
0000
0001
0000
,  // measure 52
0100
0010
1000
0000
0010
0000
0100
0000
0001
0010
0100
0000
1000
0000
0001
0000
,  // measure 53
1001
0220
0300
1000
,  // measure 54
1000
2000
0030
0100
,  // measure 55
3100
0000
0000
0000
0010
0000
0001
0000
1000
0000
0100
0000
1000
0001
1000
0000
,  // measure 56
0010
0000
0100
0000
0001
0000
0001
0000
0100
0000
0010
0000
1000
0001
1000
0000
,  // measure 57
0100
0010
1100
0000
0101
0000
0110
0000
,  // measure 58
0100
0100
0010
1000
0100
1000
0010
1000
,  // measure 59
0001
0010
0001
1000
0001
0100
0010
1000
,  // measure 60
0100
0010
0100
0001
0100
0001
0100
1000
,  // measure 61
0100
1000
0001
0100
0010
1000
0001
1000
,  // measure 62
1001
0000
1000
0100
0011
0000
0001
0100
,  // measure 63
1010
0000
0000
0000
0001
0010
0001
0000
1100
0000
0000
0000
1000
0010
1000
0000
,  // measure 64
0101
2002
0000
0000
,  // measure 65
0000
3003
1100
0011
,  // measure 66
0110
0000
0000
0000
;
