#TITLE:Floorfiller;
#SUBTITLE:;
#ARTIST:A-Teens;
#TITLETRANSLIT:;
#SUBTITLETRANSLIT:;
#ARTISTTRANSLIT:;
#GENRE:;
#CREDIT:;
#BANNER:Floorfiller.png;
#BACKGROUND:Floorfiller-bg.png;
#LYRICSPATH:;
#CDTITLE:;
#MUSIC:Floorfiller.ogg;
#OFFSET:0.000000;
#SAMPLESTART:57.028000;
#SAMPLELENGTH:15.000000;
#SELECTABLE:YES;
#BPMS:0.000000=122.000000
;
#STOPS:112.000000=0.984000
;
#BGCHANGES:0.000=Floorfiller.mp4=1.000=0=0=0=StretchNoLoop====,
99999=-nosongbg-=1.000=0=0=0 // don't automatically add -songbackground-
;
#KEYSOUNDS:;
#ATTACKS:;

//---------------dance-single - ----------------
#NOTES:
     dance-single:
     :
     Beginner:
     2:
     0.097708,0.124469,0.010058,0.060349,0.000000,68.000000,67.000000,1.000000,6.000000,0.000000,0.000000,0.097708,0.124469,0.010058,0.060349,0.000000,68.000000,67.000000,1.000000,6.000000,0.000000,0.000000:
// measure 0
0000
0000
0000
0000
,  // measure 1
0000
0000
0000
0000
,  // measure 2
0000
0000
0000
0000
,  // measure 3
0000
0000
0000
0000
,  // measure 4
0000
0000
0000
0000
,  // measure 5
1000
0000
0001
0000
,  // measure 6
0100
0000
0000
0000
,  // measure 7
0001
0000
1000
0000
,  // measure 8
0100
0000
0000
0000
,  // measure 9
0010
0000
0100
0000
,  // measure 10
1000
0000
0000
0000
,  // measure 11
0010
0000
0100
0000
,  // measure 12
0001
0000
0000
0000
,  // measure 13
1000
0000
1000
0000
,  // measure 14
1000
0000
0000
0000
,  // measure 15
0001
0000
0001
0000
,  // measure 16
0001
0000
0000
0000
,  // measure 17
0100
0000
0010
0000
,  // measure 18
1000
0000
0000
0000
,  // measure 19
0100
0000
0010
0000
,  // measure 20
0001
0000
0000
0000
,  // measure 21
0010
0000
0010
0000
,  // measure 22
0010
0000
0000
0000
,  // measure 23
0100
0000
0100
0000
,  // measure 24
0100
0000
0000
0000
,  // measure 25
2000
0000
3000
0000
,  // measure 26
0200
0000
0300
0000
,  // measure 27
0020
0000
0030
0000
,  // measure 28
1001
0000
0010
0000
,  // measure 29
0100
0000
0010
0000
,  // measure 30
0000
0000
0100
0000
,  // measure 31
0010
0000
0100
0000
,  // measure 32
0000
0000
0001
0000
,  // measure 33
1000
0000
0100
0000
,  // measure 34
0000
0000
1000
0000
,  // measure 35
0001
0000
0010
0000
,  // measure 36
0000
0000
0001
0001
,  // measure 37
0002
0000
0003
0000
,  // measure 38
0000
0000
1000
1000
,  // measure 39
2000
0000
3000
0000
,  // measure 40
0000
0000
0010
0000
,  // measure 41
0100
0000
0010
0000
,  // measure 42
0100
0000
0001
0000
,  // measure 43
1000
0000
0001
0000
,  // measure 44
1000
0000
0010
0000
,  // measure 45
0010
0000
0010
0000
,  // measure 46
0000
0000
0100
0000
,  // measure 47
0100
0000
0100
0000
,  // measure 48
0000
0000
0020
0000
,  // measure 49
0000
0000
0030
0000
;

//---------------dance-single - ----------------
#NOTES:
     dance-single:
     :
     Easy:
     5:
     0.204036,0.248939,0.090523,0.060349,0.000000,142.000000,133.000000,9.000000,6.000000,0.000000,0.000000,0.204036,0.248939,0.090523,0.060349,0.000000,142.000000,133.000000,9.000000,6.000000,0.000000,0.000000:
0000
0000
0000
0000
,
0000
0000
0000
0000
,
0000
0000
0000
0000
,
0000
0000
0000
0000
,
0000
0000
0000
0000
,
1001
0100
0001
0100
,
0001
0000
0000
0000
,
0001
0010
1000
0010
,
1000
0000
0000
0000
,
1010
0100
0001
0100
,
0010
1000
0010
0000
,
0100
0001
0010
0100
,
1000
0100
1000
0000
,
0001
0001
1000
1000
,
0010
0000
0100
0000
,
0010
0010
1000
1000
,
0001
0000
0000
0000
,
0011
0100
1000
0100
,
0010
0100
1000
0000
,
0010
0100
0001
0100
,
0010
1000
0001
0000
,
1000
1000
0001
0001
,
0010
0000
0100
0000
,
0010
0010
0001
0001
,
1000
0000
0100
0000
,
1020
0000
0230
0000
,
0001
0001
0302
0000
,
1000
1000
1000
1003
,
2002
3003
0110
0100
,
0100
0010
0010
0000
,
1000
0000
1001
0010
,
0010
0001
0001
0000
,
0100
0000
1000
0100
,
1000
0000
0001
0100
,
0001
0000
1000
0010
,
0100
0000
0001
0010
,
0100
0000
0101
0001
,
0001
1000
1000
0000
,
0100
0000
1010
1000
,
1000
0001
0001
0000
,
0010
0000
0100
1000
,
0010
0000
0100
0001
,
0010
0000
0001
0001
,
0001
0000
1000
1000
,
1000
0000
0010
1000
,
0010
0000
0100
0001
,
0100
0000
0001
0010
,
0001
0000
1000
0100
,
1000
1000
0002
0000
,
0000
0000
0003
0000
;

//---------------dance-single - ----------------
#NOTES:
     dance-single:
     :
     Medium:
     9:
     0.357782,0.373408,0.140814,0.050291,0.000000,249.000000,235.000000,14.000000,5.000000,0.000000,0.000000,0.357782,0.373408,0.140814,0.050291,0.000000,249.000000,235.000000,14.000000,5.000000,0.000000,0.000000:
0000
0000
0000
0000
,
0000
0000
0000
0000
,
0000
0000
0000
0000
,
0000
0000
0000
0000
,
0000
0000
0000
0000
,
1001
0000
0100
0010
1000
0000
0100
0010
,
1000
0000
0001
0000
0010
0100
0000
0000
,
1001
0000
0010
0100
0001
0000
0010
0100
,
0001
0000
0100
0000
0010
1000
0001
0000
,
1001
0000
1000
0000
0100
0000
0010
0001
,
0001
0000
1000
1000
0100
0000
0000
0000
,
0001
0000
1000
0010
0100
0000
0001
0100
,
0010
0000
1000
0001
0010
0000
0100
0000
,
1100
0000
0100
1000
0010
0000
0010
1000
,
0100
0000
1000
0000
0001
0001
0000
0000
,
0011
0000
0010
0001
0100
0000
0100
0001
,
0010
0000
0001
0000
1000
1000
0000
0000
,
0110
0000
1000
0010
0100
0000
0001
0010
,
0100
0000
1000
0100
0010
0000
0001
0000
,
0110
0000
0001
0100
0010
0000
1000
0010
,
0100
0001
0010
0100
1000
0000
0001
0000
,
1001
0000
0010
1000
0100
0000
0100
1000
,
0010
0000
1000
0000
0001
0001
0000
0000
,
1001
0000
0010
0001
0100
0000
0100
0001
,
0010
0000
0001
0000
1000
1000
0000
0000
,
2010
0000
0000
0000
0010
0010
3010
0000
,
0100
0000
0200
0000
0001
0001
0301
0000
,
0010
0100
0010
0100
0010
0100
0010
0000
,
2002
0000
3003
0000
0001
0010
0001
0100
,
0001
1000
0000
0000
1000
0010
0100
0000
,
0001
0001
0000
0000
1000
0010
1000
0001
,
1000
0100
1000
0000
0001
0100
0010
0000
,
1000
1000
0000
0000
0010
1000
0010
0100
,
0010
0001
0000
0110
0000
0100
0001
0100
,
1000
0100
0010
0000
1000
1000
1000
0000
,
0001
0000
0001
0000
0010
0010
0010
0000
,
0100
0000
0100
0000
0010
0001
0100
0001
,
0010
0001
1000
0000
0010
1000
0001
0000
,
0100
0100
0000
0000
0010
1000
0100
1000
,
0010
0100
0001
0000
0100
0010
1000
0000
,
0001
0001
0000
0000
0010
0100
1000
0100
,
0001
0100
0000
1001
0000
0001
0100
1000
,
0100
0001
0010
0000
0001
0010
0001
0000
,
0100
0000
0010
0000
1000
0010
1000
0000
,
0001
0010
0110
0010
,
0100
0000
0010
1000
0100
0000
0010
0001
,
0100
0000
0000
0000
0010
0000
0100
0001
,
0010
0000
0100
1000
0010
0000
0100
0001
,
1000
0100
0020
0000
,
0000
0000
0030
0000
;

//---------------dance-single - ----------------
#NOTES:
     dance-single:
     :
     Hard:
     11:
     0.416694,0.423196,0.110639,0.130756,0.000000,290.000000,279.000000,11.000000,13.000000,0.000000,0.000000,0.416694,0.423196,0.110639,0.130756,0.000000,290.000000,279.000000,11.000000,13.000000,0.000000,0.000000:
0000
0000
0000
0000
,
0000
0000
0000
0000
,
0000
0000
0000
0000
,
0000
0000
0000
0000
,
0000
0000
0000
0000
,
1001
0000
0100
0010
1000
0000
0100
0010
,
1000
0010
1000
0001
0010
0000
0100
0000
,
1001
0000
0010
0100
0001
0000
0010
0100
,
0001
0001
0010
0010
0100
0100
1000
0000
,
1001
0000
1000
0010
0100
0000
0001
0010
,
0100
0000
1000
0010
0001
0000
0010
1000
,
0001
0000
0100
0001
1000
0000
0100
0010
,
0001
0010
0100
1000
0001
0000
1000
0010
,
0100
0000
0001
0010
0100
0000
1000
0100
,
0002
0000
0203
0000
1300
0010
0100
0001
,
0010
0000
0100
1000
0001
0000
0100
0010
,
2000
0000
3020
0000
0100
0130
0001
0000
,
1001
0000
0001
0100
0010
0000
1000
0100
,
0010
0000
0001
0100
1000
0000
0100
0001
,
0010
0000
1000
0010
0001
0000
1000
0010
,
0001
0010
0001
0010
1000
0000
0001
0010
,
0100
0000
1000
0001
0100
0000
0010
1000
,
0002
0000
0023
0000
0130
0100
1000
1000
,
0001
0000
1000
0010
0100
0000
0001
0100
,
0020
0000
2030
0000
3100
0100
0010
0001
,
1002
0000
0000
1000
1000
0010
0013
0000
,
0200
0010
0010
0000
0001
0001
0301
0000
,
1000
0010
1000
0010
0100
0001
0100
0001
,
2002
0000
3003
0000
1001
1000
0010
0100
,
0001
0001
0100
0010
1000
0000
0010
0000
,
1000
1000
0001
0000
1001
0001
0010
0100
,
0010
0001
0100
0100
0010
0000
1000
0000
,
0001
1000
0001
0000
1000
0010
0100
0010
,
0001
0010
0000
0100
0001
0100
0010
0100
,
1000
0100
0001
0010
0100
0100
1000
0000
,
0100
0100
0001
0000
0010
0010
1000
0000
,
0010
0010
0001
0000
1001
0001
0100
0010
,
1000
0010
0100
0001
0010
0010
0100
0000
,
1000
1000
0001
0000
1001
0010
1000
0001
,
0100
0100
0010
1000
0001
0010
0001
0000
,
1000
0100
1000
0000
0010
1000
0100
1000
,
0010
0100
0000
0001
0100
0010
0100
1000
,
0100
0001
0010
0100
1000
0100
1000
0000
,
0001
0100
0010
1000
0001
0010
0001
0000
,
1000
0100
0010
0001
1001
0000
1000
0010
,
0100
0000
0001
0010
1000
0000
0010
0001
,
1000
0010
0100
0001
0010
0000
0100
1000
,
0010
0000
0100
0001
1000
0000
0100
0001
,
0100
1000
0010
0100
0002
0000
0000
0000
,
0000
0000
0003
0000
;
