#TITLE:FUNKY MODELLING;
#SUBTITLE:;
#ARTIST:SPARKER;
#TITLETRANSLIT:;
#SUBTITLETRANSLIT:;
#ARTISTTRANSLIT:;
#GENRE:;
#CREDIT:;
#BANNER:FUNKY MODELLING.png;
#BACKGROUND:FUNKY MODELLING-bg.png;
#LYRICSPATH:;
#CDTITLE:;
#MUSIC:FUNKY MODELLING.ogg;
#OFFSET:0.000000;
#SAMPLESTART:29.094999;
#SAMPLELENGTH:15.000000;
#SELECTABLE:YES;
#BPMS:0.000000=140.000000
;
#STOPS:
;
#BGCHANGES:;
#KEYSOUNDS:;
#ATTACKS:;

//---------------dance-single - ----------------
#NOTES:
     dance-single:
     :
     Beginner:
     4:
     0.162600,0.227640,0.155209,0.134514,0.000000,110.000000,95.000000,15.000000,13.000000,0.000000,0.000000,0.162600,0.227640,0.155209,0.134514,0.000000,110.000000,95.000000,15.000000,13.000000,0.000000,0.000000:
0000
0000
0000
0000
,
0000
0000
0000
0000
,
0000
0000
0000
0000
,
0000
0000
0000
0000
,
0100
0100
0000
0000
,
0001
0001
0000
0000
,
1000
1000
0000
0000
,
0010
0010
0000
0000
,
1000
1000
0000
0000
,
1001
1001
0000
0000
,
0100
0100
0000
0000
,
0010
0010
0000
0000
,
0001
0001
0000
0000
,
1000
1000
0000
0000
,
0001
0001
0000
0000
,
0010
0010
0000
0000
,
0110
0000
0110
0000
,
0010
0010
0010
0000
,
0100
0100
0100
0000
,
0010
0010
0010
0000
,
0100
0100
0100
0000
,
0001
0001
0001
0000
,
1000
1000
1000
0000
,
0001
0001
0001
0000
,
1000
0000
0001
0000
,
2002
0000
3003
0000
,
0220
0000
0330
0000
,
2002
0000
3003
0000
,
0220
0000
0330
0000
,
0010
0000
0110
0000
,
0100
0000
0110
0000
,
0001
0000
1001
0000
,
1000
0000
1001
0000
,
2002
0000
0000
0000
,
0000
0000
0000
0000
,
3003
0000
0000
0000
,
0000
0100
0000
0000
,
0110
0000
0000
0000
,
0010
0000
0000
0000
,
1000
1000
0000
0000
,
0001
0001
0000
0000
,
0010
0010
0000
0000
,
0001
0001
0000
0000
,
0001
0001
0000
0000
,
0010
0010
0000
0000
,
0200
0000
0300
0000
,
1000
0000
0100
0000
,
1000
0000
0010
0000
,
0001
0000
0010
0000
,
0001
0000
0100
0000
,
0010
0000
0010
0000
,
0100
0000
0100
0000
,
0001
0000
0010
0000
,
0100
0000
1000
0000
,
2002
0000
0000
0000
,
3003
0000
0000
0000
;

//---------------dance-single - ----------------
#NOTES:
     dance-single:
     :
     Easy:
     9:
     0.357719,0.455279,0.393196,0.124167,0.031042,242.000000,204.000000,38.000000,12.000000,0.000000,0.000000,0.357719,0.455279,0.393196,0.124167,0.031042,242.000000,204.000000,38.000000,12.000000,0.000000,0.000000:
0000
0000
0000
0000
,
0000
0000
0000
0000
,
0000
0000
0000
0000
,
0000
0000
0000
0000
,
1001
0000
0100
0000
0010
0020
0000
0000
,
1030
0000
0001
0000
0010
0020
0000
0000
,
0130
0000
0010
0000
0001
0002
0000
0000
,
0013
0000
0100
0000
1000
2000
0000
0000
,
3001
0000
0000
0000
1001
0000
0000
0000
0000
0100
0000
0000
0000
0000
0000
0000
,
0110
1010
0001
0010
,
1100
0101
0100
0010
,
1001
0011
0010
0100
,
0011
1010
0001
0100
,
1100
0101
1000
0010
,
1001
0110
1000
0010
,
0110
1001
0001
0010
,
0110
0000
0210
0000
0010
0310
0000
0000
,
0001
0000
0001
0000
0100
0010
0000
0000
,
1000
0000
0000
0000
1000
0000
0000
0000
0010
0000
0100
0000
0101
0000
0000
0110
,
0000
1010
0000
0001
0010
0000
0100
0000
,
0010
0000
0001
0000
0001
1000
0000
0000
,
1000
0000
0010
0000
0100
0001
0000
0000
,
0001
0000
0000
0000
1000
0000
0000
0000
0001
0000
1000
0000
1100
0000
0000
1010
,
0000
0101
0000
0001
0010
0000
0100
0000
,
0010
0000
0010
0000
0001
1000
0001
0000
,
2000
0010
0010
0010
,
3002
0100
0100
0100
,
2003
0100
0100
0100
,
3002
0010
0010
0013
,
0010
0000
0100
0000
0010
0100
1000
0000
,
0100
0000
0010
0000
0100
0010
0001
0000
,
1000
0000
0010
0000
1000
0010
0100
0000
,
0001
0000
0100
0000
0001
0100
0010
2000
,
0000
0000
0000
0000
,
0000
0000
0000
0000
,
3000
0000
0000
0000
,
0000
0000
1001
0000
0100
0100
0000
0010
,
1001
0000
0011
0000
1100
0000
1000
0010
,
0100
0000
0000
0000
0001
0000
0000
0000
0101
0000
0000
0000
1100
0000
0000
0011
,
0000
1010
0000
0001
0100
0000
0100
0000
,
0010
0000
0100
0000
0010
1000
0000
1000
,
0001
0000
0000
0001
0000
1000
0100
0000
,
1000
0000
0000
0000
0000
0000
1000
0000
0000
0000
0010
0000
0110
0000
0000
1001
,
0000
0110
0000
0100
1000
0000
0100
0000
,
0010
0000
0001
0000
1000
0001
1000
0000
,
0002
0000
0000
0003
,
1000
0000
1000
0000
0010
0100
0000
0000
,
0001
0000
0000
0000
0001
0000
0000
0000
0100
0000
0010
0000
1010
0000
0000
0110
,
0000
0101
0000
0001
0010
0000
0100
0000
,
0010
0000
0010
0000
0001
0100
0000
0000
,
0010
0000
0010
0000
0000
1000
0100
0000
,
0000
0001
0100
0000
0000
1000
0010
0000
,
0100
0000
0100
0000
0001
0100
0000
0010
,
1000
0000
1000
0000
0001
1000
0100
0200
,
0000
0000
0000
0000
,
0300
0000
0000
0000
;

//---------------dance-single - ----------------
#NOTES:
     dance-single:
     :
     Medium:
     12:
     0.465626,0.540644,0.289723,0.237987,0.144862,315.000000,287.000000,28.000000,23.000000,0.000000,0.000000,0.465626,0.540644,0.289723,0.237987,0.144862,315.000000,287.000000,28.000000,23.000000,0.000000,0.000000:
0000
0000
0000
0000
,
0000
0000
0000
0000
,
0000
0000
0000
0000
,
0000
0000
0000
0000
,
1001
0000
0000
0000
0100
0000
0000
0000
0010
0000
0000
0010
0000
0000
0001
0000
,
1000
0000
0010
0000
0100
0000
0000
0000
0001
0000
0000
0001
0000
0000
0100
0000
,
0010
0000
1000
0000
0001
0000
0000
0000
0010
0000
0000
0010
0000
0000
0001
0000
,
0010
0000
0100
0000
1000
0000
0000
0000
0010
0000
0000
0010
0000
0000
1000
0000
,
0001
0000
0000
0000
0110
0000
0000
0000
0200
0010
0000
0010
0000
0310
0000
0000
,
1000
0100
0010
0100
1000
1000
1000
0000
,
0001
0100
0010
0100
0001
0001
0001
0000
,
0010
0001
1000
0001
0010
0010
0010
0000
,
0100
1000
0001
0010
0100
0100
0100
0000
,
1000
0010
2000
0000
0010
0010
3010
0000
,
0100
0001
0200
0000
0001
0001
0301
0000
,
0010
0100
2000
0000
0001
0001
3001
0000
,
1010
0000
0100
0000
0002
0000
0000
0000
0100
0000
0100
0000
0000
0103
0000
0000
,
0110
0000
1000
0000
0000
0000
0100
0000
0000
0010
0000
0000
0001
0000
0000
0000
,
0110
0000
0001
0000
0000
0000
0010
0000
0000
0100
0000
0000
1100
0000
0000
0011
,
0000
1010
0020
0000
0130
0001
0100
0000
,
0001
0000
1000
0000
0001
0000
0000
1000
0000
0000
0010
0000
0100
0000
0000
0000
,
0120
0000
1000
0000
0000
0000
0100
0000
0000
0100
0000
0000
1030
0000
0000
0000
,
0201
0000
0001
0000
0000
0000
0010
0000
0000
0310
0000
0000
0110
0000
0000
1001
,
0000
0011
0002
0000
1003
0001
1000
0000
,
0010
0000
0010
0000
0100
0000
0000
0000
0001
0000
0001
0000
1000
0100
0000
0100
,
2000
0000
0000
0000
3010
1000
0010
0100
,
0002
0000
0000
0000
0013
0001
0100
0010
,
2000
0000
0000
0000
3001
1000
0100
0010
,
0002
0000
0000
0000
1003
0100
0010
0001
,
0100
0010
0100
1000
0100
0001
0100
0010
,
1000
0100
0001
0100
0010
0100
1000
0010
,
0100
0001
0010
0001
1000
0010
0001
0010
,
1000
0100
0001
0100
1000
0010
0100
0001
,
2000
0000
0000
0000
,
0000
0000
0000
0000
,
0000
0000
0000
3000
,
0000
0000
0000
0000
0110
0000
0000
0000
1000
0001
0000
0001
0000
1000
0000
0000
,
1001
0000
0110
0000
1000
0010
0100
0000
,
0011
0000
0000
0000
1100
0000
0000
0000
0001
0000
0100
0000
1010
0000
0000
1001
,
0000
0011
0110
0000
0010
0100
0010
0000
,
0100
1000
0100
0000
0010
0001
0010
0000
,
2000
0000
0100
0000
0000
0000
0001
0000
0000
0010
0000
0000
3001
0000
0000
0000
,
0002
0000
0010
0000
0000
0000
1000
0000
0000
0103
0000
0000
1001
0000
0000
0101
,
0000
1100
0200
0000
0010
0010
0310
0000
,
0001
0010
1000
0010
0001
0100
0010
0010
,
2000
0000
0000
0000
,
3010
1000
0100
1000
0001
1000
0001
0000
,
0010
0000
0001
0000
1000
0000
0001
0000
0100
0000
0010
0000
1010
0000
0000
0110
,
0000
0101
0001
0000
0010
0100
0010
0000
,
0001
0010
0001
0010
0100
1000
0100
0000
,
1000
0000
1000
0000
2000
0000
0000
0001
0000
0000
0001
0000
3002
0000
0000
0010
,
0000
0000
0010
0000
0023
0000
0000
0100
0000
0000
0100
0000
0230
0000
0000
0000
,
0310
0001
0100
0010
1000
0010
0100
0001
,
1000
0100
0001
0100
0001
0100
1000
0002
,
0000
0000
0000
0000
,
0003
0000
0000
0000
;

//---------------dance-single - ----------------
#NOTES:
     dance-single:
     :
     Hard:
     14:
     0.663702,0.682919,0.165556,0.051736,1.065767,449.000000,433.000000,16.000000,5.000000,0.000000,0.000000,0.663702,0.682919,0.165556,0.051736,1.065767,449.000000,433.000000,16.000000,5.000000,0.000000,0.000000:
// measure 0
0000
0000
0000
0000
,  // measure 1
0000
0000
0000
0000
,  // measure 2
0000
0000
0000
0000
,  // measure 3
0000
0000
0000
0000
,  // measure 4
1001
0000
0001
0000
0100
0000
0000
0000
0001
0000
1000
0000
0100
0010
0000
0010
,  // measure 5
0100
0000
1000
0000
0001
0000
0000
0000
1000
0000
0010
0000
0100
0001
0000
0001
,  // measure 6
0100
0000
0010
0000
1000
0000
0000
0000
0001
0000
1000
0000
0100
0010
0000
0100
,  // measure 7
1000
0000
0010
0000
0100
0000
0000
0000
0001
0000
0100
0000
0010
1000
0000
1000
,  // measure 8
0001
0000
0010
0000
0100
0000
0000
0000
1000
0001
1000
0001
0000
0100
0000
0010
,  // measure 9
0110
0000
0000
0000
1010
0000
0000
0000
0101
0000
0001
1000
0000
1000
0001
0000
,  // measure 10
1000
0100
0000
0000
0010
0001
0000
0000
1000
0010
0000
0100
0000
0001
1000
0000
,  // measure 11
1001
0000
0000
0000
0110
0000
0000
0000
0001
1000
0000
0010
0000
0010
0100
0000
,  // measure 12
0001
0100
0000
0000
1000
0100
0000
0000
0001
0010
0000
0100
0000
0100
1000
0000
,  // measure 13
0110
0000
0000
0000
1100
0000
0000
0000
0001
0010
0000
0100
0000
0010
0001
0000
,  // measure 14
1000
0010
0000
0000
0100
0001
0000
0000
1000
0001
0000
0001
0000
0100
0010
0000
,  // measure 15
0110
0000
0000
0000
0101
0000
0000
0000
1000
0100
0000
0100
0000
0010
0100
0000
,  // measure 16
2001
0000
0001
0000
0100
0000
0000
0000
3020
0000
0100
0000
0130
0010
0000
0010
,  // measure 17
1000
0100
0000
1000
0000
1000
0001
0100
0000
0010
0000
0010
0100
0001
0000
0000
,  // measure 18
0001
0010
0000
0010
0100
0000
0100
1000
0000
0001
0000
0001
1000
0100
0000
0100
,  // measure 19
1000
0010
0000
0010
0100
0000
0001
1000
0000
1000
0000
1000
0100
0010
0000
0000
,  // measure 20
0010
0001
0000
0001
1000
0000
1000
0010
0000
0010
0000
0100
0001
0010
0000
0000
,  // measure 21
0001
0100
0000
0100
1000
0000
1000
0100
0000
0100
0000
0100
0001
0100
0000
0000
,  // measure 22
0001
0010
0000
0010
1000
0000
1000
0010
0000
0010
0000
0010
0001
0010
0000
0010
,  // measure 23
0100
1000
0000
1000
0010
0000
0010
0001
0000
0001
0000
0001
0100
1000
0000
1000
,  // measure 24
0100
0001
0000
0001
1000
0000
1000
0100
0010
0000
0010
0000
0001
1000
0010
0000
,  // measure 25
0110
0000
0100
0000
0001
0000
0000
0000
1000
0000
1000
0000
0001
0100
0000
0100
,  // measure 26
0010
0000
0010
0000
1000
0000
0000
0000
0001
0000
1000
0000
0100
0010
0000
0010
,  // measure 27
0001
0000
0001
0000
1000
0000
0000
0000
0010
0000
1000
0000
0100
0010
0000
0010
,  // measure 28
0001
0000
0001
0000
1000
0000
0000
0000
0001
0000
0100
0000
0010
1000
0000
1000
,  // measure 29
0010
0100
0001
0000
0010
0100
1000
0000
0001
0000
0001
0000
1000
0100
0000
0100
,  // measure 30
0010
0001
1000
0000
0010
1000
0001
0000
0100
0000
0100
0000
0001
1000
0000
1000
,  // measure 31
0100
0010
0001
0000
0100
0010
1000
0000
0001
0000
0001
0000
1000
0010
0000
0010
,  // measure 32
0100
0001
0010
0000
0100
1000
0010
0000
1000
0000
1000
0000
0001
0100
0010
2000
,  // measure 33
0000
0000
0000
0000
,  // measure 34
0000
0000
0000
0000
,  // measure 35
3000
0000
0000
0000
,  // measure 36
0000
0000
0000
0000
0110
0000
0000
0000
0001
0100
0001
0100
0000
0010
0000
1000
,  // measure 37
1001
0000
0000
0000
1100
0000
0000
0000
0001
0000
0001
0100
0000
0100
0010
0000
,  // measure 38
1000
0010
0000
0000
0100
0001
0000
0000
1000
0000
0100
0000
0010
0100
0000
1000
,  // measure 39
0001
0100
0000
0000
0010
0100
0000
0000
0001
0000
0001
0100
0000
0010
1000
0000
,  // measure 40
1000
0001
0000
0000
0100
0010
0000
0000
1000
0000
1000
0010
0000
0100
0001
0000
,  // measure 41
0010
0100
0000
0100
0000
1000
0010
0100
0000
0100
0000
0100
0001
1000
0000
0000
,  // measure 42
0100
0010
0000
0010
0000
0001
0010
0100
0000
0100
0000
0100
1000
0001
0000
0000
,  // measure 43
1000
0001
0000
0001
0000
0010
0100
1000
0000
1000
0000
1000
0001
0100
0000
0000
,  // measure 44
0001
1000
0000
1000
0000
1000
0100
0010
0001
0000
0001
0000
0100
0010
0100
0020
,  // measure 45
0000
0000
0000
0030
,  // measure 46
1000
0010
0000
0100
0001
0000
0010
0100
0000
0100
0000
1000
0100
1000
0000
0100
,  // measure 47
1000
0001
0000
0001
0100
0000
0100
0010
0000
0010
0000
0010
0100
0001
0000
0001
,  // measure 48
0010
1000
0000
0010
0001
0000
1000
0010
0000
0100
0000
0100
0001
1000
0000
0001
,  // measure 49
1000
0100
0000
1000
0010
0000
0100
0001
0000
0100
0000
0010
1000
0010
0000
1010
,  // measure 50
0000
1000
0100
1000
0100
0000
0000
0010
0000
0001
0100
0001
0100
0000
0000
0010
,  // measure 51
0000
1000
0100
0010
0001
0000
0000
0010
0000
0001
0010
0100
1000
0000
0001
0000
,  // measure 52
0100
0000
0100
0000
0010
1000
0000
1000
0001
0000
0001
0000
1000
0100
0000
0100
,  // measure 53
0010
0000
0010
0000
0001
1000
0000
1000
0010
0000
0100
0000
0001
0100
0010
2000
,  // measure 54
0000
0000
0000
0000
,  // measure 55
3000
0000
0000
0000
;
