#VERSION:0.83;
#TITLE:Electric Daisy Violin;
#SUBTITLE:;
#ARTIST:Lindsey Stirling;
#TITLETRANSLIT:;
#SUBTITLETRANSLIT:;
#ARTISTTRANSLIT:;
#GENRE:;
#ORIGIN:;
#CREDIT:;
#BANNER:Electric Daisy Violin.png;
#BACKGROUND:Electric Daisy Violin-bg.png;
#PREVIEWVID:;
#JACKET:Electric Daisy Violin-jacket.png;
#CDIMAGE:;
#DISCIMAGE:;
#LYRICSPATH:;
#CDTITLE:;
#MUSIC:Electric Daisy Violin.ogg;
#OFFSET:-0.172000;
#SAMPLESTART:33.910000;
#SAMPLELENGTH:15.000000;
#SELECTABLE:YES;
#BPMS:0.000=128.000;
#STOPS:;
#DELAYS:;
#WARPS:;
#TIMESIGNATURES:0.000=4=4;
#TICKCOUNTS:0.000=4;
#COMBOS:0.000=1;
#SPEEDS:0.000=1.000=0.000=0;
#SCROLLS:0.000=1.000;
#FAKES:;
#LABELS:0.000=Song Start;
#BGCHANGES:;
#KEYSOUNDS:;
#ATTACKS:
;

//---------------dance-single - ----------------
#NOTEDATA:;
#CHARTNAME:;
#STEPSTYPE:dance-single;
#DESCRIPTION:;
#CHARTSTYLE:;
#DIFFICULTY:Beginner;
#METER:3;
#RADARVALUES:0.114241,0.153273,0.007405,0.148090,0.000000,108.000000,107.000000,1.000000,20.000000,0.000000,0.000000,0.000000,0.000000,0.000000,0.114241,0.153273,0.007405,0.148090,0.000000,108.000000,107.000000,1.000000,20.000000,0.000000,0.000000,0.000000,0.000000,0.000000;
#CREDIT:;
#NOTES:
0000
0000
0000
0000
,
0000
0000
0000
0000
,
0100
0000
0000
0000
,
0100
0000
0010
0000
,
0100
0000
0000
0000
,
0001
0000
0010
0000
,
0001
0000
0000
0000
,
0100
0000
0010
0000
,
1000
0000
0000
0000
,
0001
0000
1000
0000
,
0000
0001
0001
0000
,
0000
1000
1000
0000
,
0100
0000
1000
0000
,
0100
0000
0010
0000
,
0000
0001
0001
0000
,
0000
1000
1000
0000
,
0020
0000
0030
0000
,
0100
0000
0100
0000
,
0020
0030
0020
0000
,
0030
0010
0010
0000
,
0100
0000
0001
0000
,
1000
0000
0010
0000
,
0000
0100
0200
0000
,
0300
0100
0200
0300
,
0000
1000
0000
0001
,
0000
0100
0000
0010
,
0010
0000
0000
0000
,
1000
0000
0001
0000
,
0100
0000
0010
0000
,
0100
0000
0010
0000
,
0000
1000
2000
3000
,
0000
0001
0002
0003
,
0001
0000
0010
0000
,
0100
0000
1000
0000
,
0010
0000
0000
0000
,
0100
0000
0000
0000
,
0001
0000
0000
0000
,
1000
0000
0000
0000
,
0200
0000
0300
0000
,
2000
0000
3000
0000
,
0002
0000
0003
0000
,
0020
0000
0030
0000
,
0100
0000
0000
0000
,
0000
0000
0000
0000
,
0000
0000
0000
0000
,
0000
0000
0000
0000
,
0000
0010
0000
0010
,
0000
0001
0000
0001
,
0000
0100
0000
0100
,
0000
1000
0000
1000
,
2000
0000
0000
0000
,
3000
0000
0000
0000
,
0000
0001
0002
0000
,
0003
0001
0002
0003
,
0001
0000
0010
0000
,
0001
0000
0100
0000
,
0000
1000
2000
0000
,
3000
1000
2000
3000
,
1000
0000
0010
0000
,
0100
0000
0001
0000
,
0010
0000
0000
0000
,
0100
0000
0000
0000
,
1000
0000
0100
0000
,
0010
0000
0001
0000
,
0000
0100
0200
0000
,
0300
0010
0020
0030
,
0010
0000
1000
0000
,
0001
0000
0100
0000
,
0220
0000
0000
0000
,
0330
0000
0000
0000
;

//---------------dance-single - ----------------
#NOTEDATA:;
#CHARTNAME:;
#STEPSTYPE:dance-single;
#DESCRIPTION:;
#CHARTSTYLE:;
#DIFFICULTY:Easy;
#METER:5;
#RADARVALUES:0.192517,0.255455,0.014809,0.222135,0.000000,182.000000,180.000000,2.000000,30.000000,0.000000,0.000000,0.000000,0.000000,0.000000,0.192517,0.255455,0.014809,0.222135,0.000000,182.000000,180.000000,2.000000,30.000000,0.000000,0.000000,0.000000,0.000000,0.000000;
#CREDIT:;
#NOTES:
0000
0000
0000
0000
,
0000
0000
0000
0000
,
0000
1000
0100
1000
,
0000
0100
1000
0010
,
0000
0010
1000
0001
,
0020
0000
0032
0000
,
0003
0001
0010
0010
,
0000
1000
0100
0100
,
1000
0000
0010
0100
,
0010
1000
0001
0001
,
0000
0010
0001
0010
,
0000
0100
1000
0100
,
1000
1000
0010
0010
,
0100
0100
0001
0001
,
0000
0100
0001
0100
,
0000
0010
1000
0010
,
1000
0000
0001
0000
,
0010
0001
0100
0010
,
2000
3000
2000
3000
,
0100
0010
2000
3000
,
0001
0010
0001
0010
,
0100
1000
0100
0010
,
0002
0003
0002
0003
,
0100
0010
0002
0003
,
1000
1000
0001
0001
,
0100
0010
1000
0000
,
1002
0000
0010
0000
,
0100
0100
0103
0000
,
1000
0010
0100
0001
,
0100
0010
1000
0001
,
0200
0300
0200
0300
,
1000
0001
0200
0300
,
0010
1000
0001
0010
,
0001
0100
0010
0000
,
2000
0000
0100
0000
,
3002
0000
0100
0000
,
2003
0000
0010
0000
,
3002
0000
0010
0000
,
0203
0000
0010
0000
,
0302
0000
1000
0000
,
0023
0000
0100
0000
,
2030
0000
0010
0000
,
3001
0000
0000
0000
,
0000
0000
0000
0000
,
0000
0000
0000
0000
,
0000
0000
0000
0000
,
0000
1000
0000
1000
,
0000
0001
0000
0001
,
0000
0100
0010
0100
,
0020
0000
0000
0000
,
0030
0000
0000
0000
,
0000
0000
0000
0000
,
0000
0001
1000
2000
,
3000
0001
1000
2000
,
3010
1000
1000
0010
,
0010
0100
0001
0010
,
0100
0010
0001
0002
,
0003
0010
0001
0002
,
0103
0001
1000
0010
,
1000
0001
0010
0001
,
2100
0000
0010
0000
,
0001
0001
0001
0000
,
3002
0000
0010
0000
,
0100
0100
0010
0013
,
0000
1000
0010
0200
,
0000
0301
0010
0200
,
0310
0001
1000
0100
,
1000
0010
0100
0001
,
2000
0000
0000
0000
,
3000
0000
0000
0000
;

//---------------dance-single - ----------------
#NOTEDATA:;
#CHARTNAME:;
#STEPSTYPE:dance-single;
#DESCRIPTION:;
#CHARTSTYLE:;
#DIFFICULTY:Medium;
#METER:10;
#RADARVALUES:0.349069,0.408728,0.148090,0.214731,0.003702,330.000000,310.000000,20.000000,29.000000,0.000000,0.000000,0.000000,0.000000,0.000000,0.349069,0.408728,0.148090,0.214731,0.003702,330.000000,310.000000,20.000000,29.000000,0.000000,0.000000,0.000000,0.000000,0.000000;
#CREDIT:;
#NOTES:
0000
0000
0000
0000
,
0000
0000
0000
0000
,
0000
1000
0000
1000
0000
1000
0010
1000
,
0000
0001
0000
0001
0000
0001
0100
0001
,
0000
0100
0010
0100
0000
0010
0000
0010
,
2000
0000
0001
3001
,
0000
0010
0001
0010
0000
0001
0000
0001
,
0000
1000
0100
1000
0000
0010
1000
0001
,
0100
0000
0100
0000
0100
0001
0000
0001
,
0010
0100
1000
1000
,
0000
0001
0001
0000
0010
0001
0100
0000
,
0000
0001
0001
0000
0100
0010
1000
0000
,
0100
1000
0100
0000
1000
0001
1000
0000
,
0001
0100
0001
1000
0010
0000
0100
0100
,
0000
0010
0010
0000
1000
0010
0100
0000
,
0000
0100
0100
0000
0001
0010
0100
0010
,
0001
0000
0000
0001
0100
0001
0100
0000
,
0010
1000
0001
0010
0001
1000
0010
0000
,
0200
0000
0301
1000
0100
0000
1000
0002
,
0000
0000
0103
0001
0200
0000
0010
0310
,
1000
0000
0100
0000
0000
0100
0000
0000
0010
0000
0001
0000
0100
0000
0010
0000
,
0000
0010
0000
1000
0001
0010
0001
1000
,
0010
0000
0100
0001
0200
0000
0001
0301
,
1000
0001
0010
0100
2000
0000
0010
3000
,
0100
0100
0001
0001
0010
0100
1000
1000
,
0000
0011
0000
0100
0000
1010
0000
0000
,
1002
0100
0100
0013
,
0001
1000
0001
1000
0010
0100
0001
0000
,
1000
0010
0100
0010
0100
0001
0000
0100
,
0010
1000
0000
0001
0010
0001
0010
0100
,
1000
0000
0001
1000
0001
0000
0110
0000
,
0001
0010
0100
1000
0020
0000
0130
0000
,
0001
0100
0010
0100
0010
1000
0001
0010
,
0000
1100
0000
0011
0000
0110
0000
0000
,
2000
0000
0000
0001
3002
0000
0000
0100
,
0203
0000
0010
0310
,
2000
3010
0200
0301
,
0020
0130
0020
0031
,
1000
0000
0000
0001
0001
0000
0000
0100
,
0100
0000
0000
0010
0010
0000
1000
0000
,
0002
0023
0230
2300
,
3020
0000
0000
0000
,
0130
0000
0000
0000
,
0000
0000
0000
0000
,
0000
0000
0000
0000
,
0000
0000
0000
0000
,
0000
0011
0001
0011
,
0000
1100
1000
1100
,
1000
0010
0100
0001
,
0020
0000
0000
0000
,
0130
0000
0000
0000
,
0000
0000
0000
0000
,
0010
0000
0100
0001
0020
0000
0100
0130
,
0000
0000
0100
1000
0020
0000
0100
0130
,
0001
0010
0001
0000
1000
0100
0000
1000
,
0000
0010
0000
0100
0001
0100
0010
1000
,
0001
0000
0010
0001
0200
0000
0310
0000
,
1000
0001
0010
0001
0200
0000
0310
0000
,
0100
0010
1000
0010
1000
0001
0010
0100
,
0000
0011
0000
0100
0000
1010
0000
0000
,
1002
0000
1000
1003
,
1000
0010
1000
0001
0010
0001
0100
0010
,
0000
0100
0001
0100
0000
0001
1000
0100
,
0000
1001
0000
1000
0100
0010
0001
0010
,
0100
0000
1000
0010
1000
0000
0110
0000
,
0001
0100
0010
1000
0002
0000
0013
0000
,
0100
1000
0010
0100
0001
0010
0100
1000
,
0000
0101
0000
1100
0000
0110
0000
0000
,
2002
0000
0000
0000
,
3003
0000
0000
0000
;

//---------------dance-single - ----------------
#NOTEDATA:;
#CHARTNAME:;
#STEPSTYPE:dance-single;
#DESCRIPTION:;
#CHARTSTYLE:;
#DIFFICULTY:Hard;
#METER:13;
#RADARVALUES:0.447443,0.536456,0.118472,0.333203,0.162899,423.000000,407.000000,16.000000,45.000000,0.000000,0.000000,0.000000,0.000000,0.000000,0.447443,0.536456,0.118472,0.333203,0.162899,423.000000,407.000000,16.000000,45.000000,0.000000,0.000000,0.000000,0.000000,0.000000;
#CREDIT:;
#NOTES:
// measure 0
0000
0000
0000
0000
,  // measure 1
0000
0000
0000
0000
,  // measure 2
0000
0100
1000
0100
0010
0100
0010
0010
,  // measure 3
0000
0010
0001
0100
0000
0100
0010
1000
,  // measure 4
0000
1000
0100
0001
0000
0001
0100
1000
,  // measure 5
0002
0000
0000
0100
0103
0000
0010
0000
,  // measure 6
1000
0010
1000
0010
0100
0001
0010
0100
,  // measure 7
0000
1000
0001
0100
0000
0001
0100
0010
,  // measure 8
2000
0000
0000
0000
3010
0010
0100
0100
,  // measure 9
0001
0101
1000
1100
,  // measure 10
0000
0000
1000
0100
1000
0000
0000
0100
1000
0010
0100
0000
0001
0000
0000
0000
,  // measure 11
0000
0000
0001
0010
0001
0000
0000
0010
0001
0010
0100
0000
1000
0000
0001
0000
,  // measure 12
0000
0000
0100
0010
0100
0000
0100
0000
0001
0000
0001
0000
1000
0000
1000
0000
,  // measure 13
0010
1000
0001
0010
0100
0000
0010
0010
,  // measure 14
0000
0000
0100
1000
0100
0000
0000
1000
0010
0100
0001
0000
1000
0000
0000
0000
,  // measure 15
0000
0000
0010
0100
0010
0000
0000
0100
0001
0010
0100
0000
1000
0000
0001
0000
,  // measure 16
2000
0000
3000
1000
0100
1000
0100
0000
,  // measure 17
0010
0010
0001
0001
0100
0100
0010
1000
,  // measure 18
0020
0000
0130
0001
0020
0000
0130
1000
,  // measure 19
0001
1000
0001
0100
0020
0000
1030
0001
,  // measure 20
1000
0010
1000
0000
0010
0100
0000
0100
0001
0000
0100
0000
0010
0000
2000
0000
,  // measure 21
0000
3100
0010
0001
1000
1000
0001
0001
,  // measure 22
0100
0000
0001
0100
0020
0000
1030
0010
,  // measure 23
1000
0100
1000
0000
0001
0000
0100
0000
0020
0000
0000
0000
1030
0000
0001
0000
,  // measure 24
0010
0001
0010
0000
0100
0010
0000
0010
0001
0000
1000
0000
0100
0000
1000
0000
,  // measure 25
0000
0010
0100
0001
0000
0110
0000
0000
,  // measure 26
1002
0000
0010
0000
0100
0000
0010
0013
,  // measure 27
0100
1000
0100
0000
1000
0010
1000
0000
0010
0100
0010
0000
0100
0001
0100
0000
,  // measure 28
0001
0010
0001
0001
1000
0010
1000
1000
,  // measure 29
0010
0100
0001
0100
0010
1000
0100
0010
,  // measure 30
0001
0000
1000
0010
0200
0000
0001
0301
,  // measure 31
0010
0001
0010
0000
0100
0000
1000
0000
0002
0000
0000
0000
0100
0000
0103
0000
,  // measure 32
0001
0000
0001
0000
1000
0000
1000
0000
0010
0100
0010
0000
1000
0000
0001
0000
,  // measure 33
0000
0101
0000
1100
0000
0110
0000
0000
,  // measure 34
2000
0000
0000
0000
0010
0000
3010
1000
0020
0000
0000
0000
0000
0000
0130
0001
,  // measure 35
0200
0000
0000
0000
0001
0000
0301
1000
0002
0000
0000
0000
0010
0000
0013
0001
,  // measure 36
0020
0230
2300
3002
,  // measure 37
0203
0000
0020
0330
,  // measure 38
0200
0000
0000
0000
0000
0000
0301
0010
0002
0000
0000
0000
0000
0000
1003
0100
,  // measure 39
2000
0000
0020
3030
,  // measure 40
0200
0302
2003
3200
,  // measure 41
0320
0000
0002
0030
,  // measure 42
2000
0000
0000
0000
,  // measure 43
0000
0000
0000
0000
,  // measure 44
3003
0000
0000
0000
,  // measure 45
0000
0000
0000
0000
,  // measure 46
1000
0000
0110
0001
0010
0000
0001
0010
,  // measure 47
0100
1000
0100
0010
0011
0000
0001
1000
,  // measure 48
0010
1000
0010
0100
0001
0010
0100
2000
,  // measure 49
0001
0001
0001
0001
0001
0001
0001
0002
,  // measure 50
3003
0000
0000
0000
,  // measure 51
0000
0000
0000
0000
,  // measure 52
1001
0000
0100
0001
0020
0000
0130
1000
,  // measure 53
0001
1000
0001
0100
0020
0000
1030
0010
,  // measure 54
0100
0001
0100
0000
0010
1000
0000
1000
0100
0000
0010
0000
0001
0000
1000
0000
,  // measure 55
0000
0000
0001
0000
1000
0000
0010
0000
0100
0010
0100
0000
0001
0000
0100
0000
,  // measure 56
0020
0000
1030
0001
0020
0000
0130
0010
,  // measure 57
0001
0010
0001
0000
1000
0000
0001
0000
0020
0000
0000
0000
0100
0000
0130
0000
,  // measure 58
1000
0010
1000
0000
0001
0100
0001
0000
1000
0000
0010
0000
0100
0000
0001
0000
,  // measure 59
0000
1100
0000
0010
0000
0101
0000
0000
,  // measure 60
2001
0000
0010
0000
0100
0000
0001
3001
,  // measure 61
0100
0001
0100
0000
0010
1000
0010
0000
1000
0100
1000
0000
0001
0010
0001
0000
,  // measure 62
1000
0010
0100
0100
0001
0100
0010
0010
,  // measure 63
1000
0100
1000
0001
0010
0001
0100
0010
,  // measure 64
1000
0000
0001
0010
0200
0000
1000
1300
,  // measure 65
0010
1000
0010
0000
0100
0000
0001
0000
0200
0000
0000
0000
0010
0000
0310
0000
,  // measure 66
1000
0001
0010
0100
0010
0001
1000
0010
,  // measure 67
0000
0101
0000
0010
0000
1100
0000
0000
,  // measure 68
2002
0000
0000
0000
,  // measure 69
3003
0000
0000
0000
;
