#TITLE:EAT YOU UP (Phat K Mix);
#SUBTITLE:;
#ARTIST:Angie Gold;
#TITLETRANSLIT:;
#SUBTITLETRANSLIT:;
#ARTISTTRANSLIT:;
#GENRE:;
#CREDIT:;
#BANNER:EAT YOU UP (PHAT K MIX).png;
#BACKGROUND:EAT YOU UP (PHAT K MIX)-bg.png;
#LYRICSPATH:;
#CDTITLE:;
#MUSIC:EAT YOU UP (PHAT K MIX).ogg;
#OFFSET:0.000000;
#SAMPLESTART:42.754002;
#SAMPLELENGTH:15.000000;
#SELECTABLE:YES;
#BPMS:0.000000=155.000000
;
#STOPS:
;
#BGCHANGES:;
#KEYSOUNDS:;
#ATTACKS:;

//---------------dance-single - ----------------
#NOTES:
     dance-single:
     :
     Beginner:
     5:
     0.191328,0.313222,0.162012,0.000000,0.000000,124.000000,109.000000,15.000000,0.000000,0.000000,0.000000,0.191328,0.313222,0.162012,0.000000,0.000000,124.000000,109.000000,15.000000,0.000000,0.000000,0.000000:
0000
0000
0000
0000
,
0000
0000
0000
0000
,
0000
0000
0000
0000
,
0010
0010
0000
0000
,
0100
0100
0000
0000
,
0010
0000
0100
0000
,
0010
0000
1000
0000
,
0001
0001
0000
0000
,
1000
1000
0000
0000
,
0001
0000
1000
0000
,
0001
0000
0100
0000
,
0010
0010
0000
0000
,
1000
1000
0000
0000
,
1000
0000
0000
0000
,
0001
0000
1000
0000
,
0100
0100
0000
0000
,
0010
0010
0000
0000
,
0001
0000
1000
0000
,
0001
0000
0000
0000
,
0010
0010
0000
0000
,
0100
0100
0000
0000
,
0010
0000
1000
0000
,
0001
0000
0100
0000
,
0001
0001
0000
0000
,
1000
1000
0000
0000
,
0001
0000
0010
0000
,
1000
0000
0010
0000
,
0001
0000
1001
0000
,
1000
1000
1000
0000
,
0001
0001
0001
0000
,
1000
0000
0100
0000
,
0010
0000
0001
0000
,
0010
0010
0010
0000
,
0100
0100
0100
0000
,
1000
0000
0001
0000
,
0100
0000
0010
0000
,
1001
0000
0000
0000
,
0110
0000
0000
0000
,
1001
0000
0000
0000
,
0110
0000
1001
0000
,
1001
1001
0000
0000
,
0110
0110
0000
0000
,
1001
0000
0110
0000
,
0110
0000
1001
0000
,
1000
1000
0000
0000
,
0001
0001
0000
0000
,
1000
0000
0010
0000
,
0100
0000
0001
0000
,
0010
0010
0000
0000
,
0100
0100
0000
0000
,
0010
0000
0100
0000
,
0001
0000
1000
0000
,
0001
0001
0000
0000
,
1000
1000
0000
0000
,
0001
0000
0010
0000
,
0100
0000
1000
0000
,
0100
0000
0010
0000
,
0001
0000
0000
0000
,
1001
0000
0000
0000
;

//---------------dance-single - ----------------
#NOTES:
     dance-single:
     :
     Easy:
     8:
     0.398086,0.532478,0.464433,0.000000,0.000000,258.000000,215.000000,43.000000,0.000000,0.000000,0.000000,0.398086,0.532478,0.464433,0.000000,0.000000,258.000000,215.000000,43.000000,0.000000,0.000000,0.000000:
0000
0000
0000
0000
,
0000
0000
0000
0000
,
0000
0000
0000
0000
,
0010
0010
0010
0100
,
0001
0001
0001
0100
,
0001
0001
1000
1000
,
0001
0010
0100
1000
,
1000
1000
1000
0001
,
0010
0010
0010
0001
,
0100
0100
0010
0010
,
1000
0010
0100
0001
,
1001
0000
1000
1000
,
0010
0000
0010
0010
,
0100
0001
1000
0001
,
1001
1001
0110
1100
,
0011
0000
0010
0001
,
0010
0000
0010
0001
,
1000
1000
0001
0001
,
0010
0001
1000
0100
,
0110
0000
0100
1000
,
0010
0000
0100
0001
,
0010
0010
0001
1000
,
0110
0110
0101
1010
,
1100
0000
1000
1000
,
0001
0000
0001
0001
,
1000
0010
0100
0001
,
0001
0100
0010
1000
,
0100
0010
1001
0000
,
0010
0000
0010
0000
0010
0000
0010
1000
,
0100
0000
0100
0000
0100
0000
0100
1000
,
0001
0001
1000
1000
,
1001
0110
1100
0011
,
0110
0000
0010
0000
0010
0000
0010
0001
,
1000
0000
0010
0000
0010
0000
0010
0100
,
0001
0001
1000
1000
,
0100
0000
0010
0000
0000
0010
0010
0000
,
0110
0100
0100
0100
,
1100
1000
1000
1000
,
1001
0001
0001
0001
,
1000
0010
0100
0010
,
1001
0000
0100
0001
,
0010
0000
0100
1000
,
0010
0000
1000
0010
,
0100
0100
0001
1000
,
0011
0011
1100
0011
,
1000
0100
1000
0000
0001
0000
0001
0000
,
1000
1000
0001
0001
,
0110
0101
1010
0101
,
1100
1100
0011
1100
,
0001
0010
0001
0000
1000
0000
0100
0000
,
0010
0010
0001
1000
,
0001
0100
0010
1000
,
1001
1001
0110
0110
,
1000
0000
0001
0000
0100
0010
0100
0000
,
0010
1000
0001
0100
,
0011
1100
0011
1100
,
0001
0001
0001
0000
1000
1000
1000
0000
,
1001
0000
0000
0000
,
0100
0000
0000
0000
;

//---------------dance-single - ----------------
#NOTES:
     dance-single:
     :
     Medium:
     11:
     0.523066,0.567445,0.356425,0.000000,0.005400,339.000000,306.000000,33.000000,0.000000,0.000000,0.000000,0.523066,0.567445,0.356425,0.000000,0.005400,339.000000,306.000000,33.000000,0.000000,0.000000,0.000000:
0000
0000
0000
0000
,
0000
0000
0000
0000
,
0000
0000
0000
0000
,
1000
0000
1000
0000
0100
0010
0001
0000
,
0001
0000
0001
0000
0100
0010
1000
0000
,
0010
1000
0010
0000
0100
0001
0100
0000
,
0001
0010
0100
1000
0100
0010
0001
0000
,
1000
0100
1000
0000
0001
0000
0100
0000
,
0010
0100
0010
0000
0100
0000
0100
0000
,
0001
0010
0001
0000
1000
0010
1000
0000
,
0010
0100
0001
1000
0100
0010
0001
1000
,
0010
0000
0000
0010
1000
0000
1000
0000
,
0001
0000
0000
0001
0100
0000
0001
0000
,
0010
0001
0010
0000
0100
1000
0100
0000
,
1001
1001
1100
0011
,
0110
0000
0000
0100
0010
0000
0100
0000
,
1000
0000
0000
0001
0100
0000
0010
0000
,
0100
0100
0100
0000
0001
0001
0001
0000
,
1000
0001
1001
0110
,
0010
1000
0010
0100
0001
0000
0000
0000
,
0010
0001
0010
0100
1000
0000
0000
0000
,
0001
0001
0001
0000
1000
1000
1000
0000
,
0110
0110
1010
0101
,
1001
0000
0000
0001
0001
0000
1000
0000
,
0100
0000
0000
1000
1000
0000
0010
0000
,
0100
0010
0100
0000
0001
0100
0001
0000
,
1000
0010
1000
0001
0010
0001
0010
0000
,
0100
0000
0000
0010
0000
0000
1001
0000
0000
0000
0010
0000
0010
0000
0000
0000
,
1000
0010
0100
0010
1000
0010
0100
0000
,
0001
0010
0100
0010
0001
0010
0100
0000
,
1000
0100
1000
1000
0001
0100
0001
0000
,
0110
1001
1100
0011
,
1000
0010
0001
0010
1000
0010
0001
0000
,
0001
0100
1000
0100
0001
0100
1000
0000
,
0100
0001
0010
0000
0100
1000
0010
0000
,
0110
0000
0010
0000
0100
0001
0010
0100
,
1000
0000
1000
0000
0000
1000
0010
0100
,
0001
0000
0001
0000
0000
0001
1000
0100
,
0010
0000
0010
0000
0000
0010
0001
1000
,
0100
0100
0100
0000
1000
1000
0001
0100
,
1001
0000
0001
0000
0000
0001
1000
0100
,
0001
0000
0001
0000
0000
1000
0001
0100
,
1000
0000
1000
0000
0000
1000
0100
0001
,
0010
0000
0010
0000
0100
0010
0100
0000
,
0110
0110
1100
0011
,
1000
0010
0100
0000
0001
0010
0100
0000
,
1000
1000
1000
0000
0001
0001
0001
0000
,
1001
1001
0110
1001
,
0010
1000
0010
0100
0001
0000
1000
0000
,
0001
0100
0010
1000
0010
0000
1000
0000
,
0001
0010
0001
0000
1000
0100
1000
0000
,
0100
0010
1000
0001
0010
0100
1000
0001
,
1000
0010
0100
0010
1000
0010
0100
0000
,
0001
0100
0010
0100
0001
0100
0010
0000
,
1000
1000
1000
0000
0001
0001
0001
0000
,
1001
0110
1100
0011
,
0010
0100
1000
0001
0100
0010
1000
0001
,
1001
0000
0000
0000
0010
0000
0000
0110
,
0000
0100
0001
1000
0000
0000
0000
0000
;

//---------------dance-single - ----------------
#NOTES:
     dance-single:
     :
     Hard:
     14:
     0.756054,0.693544,0.399628,0.000000,0.388828,490.000000,453.000000,37.000000,0.000000,0.000000,0.000000,0.756054,0.693544,0.399628,0.000000,0.388828,490.000000,453.000000,37.000000,0.000000,0.000000,0.000000:
// measure 0
0000
0000
0000
0000
,  // measure 1
0000
0000
0000
0000
,  // measure 2
0000
0000
0000
0000
,  // measure 3
1000
0000
0100
0000
1000
0001
0000
0001
0000
0100
0000
0010
0000
0010
1000
0000
,  // measure 4
0001
0000
0010
0000
0001
1000
0000
1000
0100
0010
0000
0010
0001
0000
0100
0000
,  // measure 5
0010
0000
0010
0000
1000
0100
0000
0000
0010
0000
0010
0000
0001
0100
0000
0100
,  // measure 6
0010
1000
0000
1000
0001
0010
0000
0010
0100
1000
0000
1000
0001
0000
0100
0000
,  // measure 7
0001
0000
1000
0000
0010
0100
0000
0001
0000
0001
0000
1000
0000
0100
0010
0000
,  // measure 8
0001
0000
0010
0000
0100
1000
0000
1000
0010
0100
0000
0100
0001
0000
1000
0000
,  // measure 9
0001
0000
0001
0000
1000
0100
0000
0000
1000
0000
1000
0000
0001
0010
0000
0010
,  // measure 10
0001
0100
0000
0010
1000
0100
0000
1000
0010
0100
0000
0001
0010
0100
1000
0000
,  // measure 11
0010
1000
0010
0100
0001
1000
0100
0010
,  // measure 12
0100
1000
0001
0100
0001
0001
1000
0000
,  // measure 13
0100
1000
0001
0100
0010
1000
0001
0010
,  // measure 14
1100
0101
0110
1001
,  // measure 15
1010
0100
0001
0010
0001
1000
0100
0010
,  // measure 16
0001
1000
0100
1000
0001
0100
0010
1000
,  // measure 17
0001
0010
0001
0010
0100
1000
0100
1000
,  // measure 18
0001
1000
0010
0100
0110
0000
1001
0000
,  // measure 19
0110
0010
1000
0001
0010
0001
1000
0100
,  // measure 20
0010
0100
0010
0100
1000
0100
0010
0001
,  // measure 21
1000
0001
0100
0010
1000
0010
0100
0001
,  // measure 22
0011
0101
1010
1100
,  // measure 23
0101
0001
1000
0100
0010
0001
1000
0010
,  // measure 24
1000
0001
0100
0010
0100
0001
0010
0100
,  // measure 25
1000
0100
1000
0100
0010
0001
0010
0001
,  // measure 26
1000
0000
0001
0000
0100
0000
0010
0000
1000
0000
0100
0000
0010
0001
0010
0000
,  // measure 27
0001
1000
0000
0100
0010
0000
1001
0000
0000
0000
0100
0000
0100
0000
0100
0000
,  // measure 28
0010
0000
1000
0000
0010
0000
0100
0000
0010
0000
1000
0000
0010
0000
0100
0001
,  // measure 29
0010
0000
0001
0000
0100
0000
0010
0000
0100
0000
0001
0000
0010
0000
0001
1000
,  // measure 30
0100
1000
0100
0010
0001
0010
0001
1000
,  // measure 31
0101
0000
1010
0000
0101
0000
1010
0010
,  // measure 32
0100
0000
0001
0000
0100
0000
1000
0000
0100
0000
0001
0000
0100
0000
1000
0100
,  // measure 33
0001
0000
0010
0000
1000
0000
0010
0000
0001
0000
0010
0000
1000
0000
0010
0001
,  // measure 34
1000
0010
0100
0001
0100
0010
1000
0001
,  // measure 35
0110
0000
0110
0000
1001
0010
0100
0001
,  // measure 36
0010
0000
0001
0000
0010
0000
0001
0000
0010
0000
0001
0000
0100
0000
0010
1000
,  // measure 37
0100
0000
1000
0000
0100
0000
1000
0000
0100
0000
1000
0000
0010
0000
0100
0001
,  // measure 38
0010
0001
0010
0001
0010
1000
0010
0001
,  // measure 39
1000
1000
0001
0001
0100
0100
0010
0010
,  // measure 40
0110
0000
0010
0000
1000
0000
0010
0000
0001
0000
0010
0000
1000
0000
0010
0100
,  // measure 41
0001
0000
0100
0000
1000
0000
0100
0000
0001
0000
0100
0000
1000
0000
0100
0001
,  // measure 42
0010
1000
0010
0001
0010
1000
0010
0001
,  // measure 43
0100
0010
0100
0010
1000
0010
0100
0001
,  // measure 44
1001
0000
0001
0000
1000
0100
0000
0010
0000
0001
0000
0100
0000
0100
0010
0000
,  // measure 45
1000
0000
0100
0000
1000
0001
0000
0001
0100
0010
0000
0010
1000
0000
0001
0000
,  // measure 46
0010
0001
0010
0001
1000
0010
1000
0010
,  // measure 47
0101
0000
1010
0000
0011
0000
1100
0100
,  // measure 48
1001
0000
0100
0000
0010
1000
0000
0100
0000
0010
0000
0001
0000
0001
1000
0000
,  // measure 49
0001
0000
0100
0000
0010
1000
0000
0001
0010
0100
0000
0010
0001
0000
0100
0000
,  // measure 50
0010
0100
0010
0100
0001
1000
0001
1000
,  // measure 51
1001
0000
0110
0000
1010
0100
0001
0010
,  // measure 52
0110
0000
0001
0000
0100
0000
1000
0000
0100
0000
0001
0000
0010
0001
0010
0000
,  // measure 53
0100
0000
1000
0000
0010
0000
0001
0000
0010
0000
1000
0000
0100
1000
0100
0000
,  // measure 54
1000
0010
1000
0010
0100
0001
0100
0001
,  // measure 55
1001
1100
0101
0110
,  // measure 56
1000
0010
0100
0000
0001
0010
0100
0000
1000
0100
0010
0000
0001
0100
0010
0000
,  // measure 57
1000
0001
1000
0001
0100
0010
0000
0110
,  // measure 58
0000
0010
1000
0001
0000
0000
0000
0000
;
