#TITLE:Don't Be Afraid;
#SUBTITLE:;
#ARTIST:MK;
#TITLETRANSLIT:;
#SUBTITLETRANSLIT:;
#ARTISTTRANSLIT:;
#GENRE:;
#CREDIT:;
#BANNER:Don't Be Afraid.png;
#BACKGROUND:Don't Be Afraid-bg.png;
#LYRICSPATH:;
#CDTITLE:;
#MUSIC:Don't Be Afraid.ogg;
#OFFSET:-0.000000;
#SAMPLESTART:29.500000;
#SAMPLELENGTH:15.000000;
#SELECTABLE:YES;
#BPMS:0.000000=127.987000
;
#STOPS:
;
#BGCHANGES:;
#KEYSOUNDS:;
#ATTACKS:;

//---------------dance-single - ----------------
#NOTES:
     dance-single:
     :
     Beginner:
     3:
     0.121950,0.153033,0.031231,0.114514,0.000000,82.000000,79.000000,3.000000,11.000000,0.000000,0.000000,0.121950,0.153033,0.031231,0.114514,0.000000,82.000000,79.000000,3.000000,11.000000,0.000000,0.000000:
0000
0000
0000
0000
,
0000
0000
0000
0000
,
0000
0000
0000
0000
,
0000
0000
0000
0000
,
0000
0000
0000
0000
,
2000
0000
3000
0000
,
0200
0000
0300
0000
,
0020
0000
0030
0000
,
0002
0000
0003
0000
,
1000
0000
0010
0000
,
1000
0000
0010
0000
,
0100
0000
0010
0000
,
0100
0000
0000
0000
,
0001
0000
0100
0000
,
0001
0000
0100
0000
,
0010
0000
0100
0000
,
0020
0000
0000
0030
,
0110
0000
0100
0000
,
0100
0000
1000
0000
,
0001
0000
0100
0000
,
0001
0000
0000
0000
,
0110
0000
0010
0000
,
0010
0000
0001
0000
,
1000
0000
0010
0000
,
2000
3000
0002
0000
,
0003
0001
0001
0000
,
0010
0000
0001
0000
,
0010
0000
0100
0000
,
2000
0000
3000
0000
,
1000
0000
1000
0000
,
0100
0000
1000
0000
,
0100
0000
0010
0000
,
0002
0000
0000
0003
,
1001
0000
0100
0000
,
0100
0000
0100
0000
,
0010
0000
0010
0000
,
0010
0000
0010
0000
,
1000
0000
0010
0000
,
1000
0000
0010
0000
,
0001
0000
0100
0000
,
0002
0000
0003
0000
,
1000
0000
1000
0000
,
1000
0000
1000
0000
,
0001
0000
0001
0000
,
0001
0000
0001
0000
,
0010
0000
0010
0000
,
0010
0000
0010
0000
,
0100
0000
0100
0000
,
0100
0000
0100
0200
,
0300
0000
0000
0000
;

//---------------dance-single - ----------------
#NOTES:
     dance-single:
     :
     Easy:
     6:
     0.252823,0.280560,0.072873,0.124925,0.000000,170.000000,163.000000,7.000000,12.000000,0.000000,0.000000,0.252823,0.280560,0.072873,0.124925,0.000000,170.000000,163.000000,7.000000,12.000000,0.000000,0.000000:
0000
0000
0000
0000
,
0000
0000
0000
0000
,
0000
0000
0000
0000
,
0000
0000
0000
0000
,
0000
0000
0000
0000
,
0200
0000
0000
0000
,
0320
0000
0000
0000
,
2030
0000
0000
0000
,
3002
0000
0000
0000
,
0103
0100
0010
1000
,
0010
1000
0100
0010
,
0001
0010
0001
1000
,
0100
0010
0001
0000
,
0010
0001
0100
0010
,
0100
0001
0100
0010
,
1000
0001
0100
0010
,
1000
0001
1001
1001
,
1000
0100
1000
0010
,
0100
0001
0100
0001
,
0010
0001
0010
0100
,
1000
0100
2000
0000
,
3010
1000
0010
0100
,
0001
0100
0010
1000
,
0001
0010
0100
0010
,
0001
0000
1000
0000
0010
0100
0010
0200
,
0000
0300
0110
0000
0001
0000
0100
0000
,
0010
1000
0010
1000
,
0100
0010
0001
1000
,
0001
0010
0200
0000
,
1300
0100
1000
0010
,
0100
0001
0010
0001
,
1000
0010
1000
0001
,
0010
0000
0001
0000
1000
0100
1000
0000
,
0020
0001
0001
0001
,
0032
0100
0100
0100
,
0203
0010
0010
0010
,
0320
1000
1000
1030
,
1000
1000
0001
0001
,
0010
0010
0100
0100
,
0010
0001
0010
0100
,
1000
0000
0100
0000
1000
0001
1000
0000
,
0101
0100
0010
0100
,
0001
0100
0010
0000
,
1100
0100
0010
0100
,
1000
0010
0100
0000
,
0011
0100
1000
0100
,
0010
0001
1000
0000
,
1010
0100
0001
0100
,
0010
0000
1000
0000
0001
0001
1000
2000
,
3000
0000
0000
0000
;

//---------------dance-single - ----------------
#NOTES:
     dance-single:
     :
     Medium:
     11:
     0.389646,0.433592,0.176976,0.083283,0.130130,262.000000,245.000000,17.000000,8.000000,0.000000,0.000000,0.389646,0.433592,0.176976,0.083283,0.130130,262.000000,245.000000,17.000000,8.000000,0.000000,0.000000:
0000
0000
0000
0000
,
0000
0000
0000
0000
,
0000
0000
0000
0000
,
0000
0000
0000
0000
,
0000
0000
0000
0000
,
0002
0000
0100
0000
,
2003
0000
0010
0000
,
3020
0000
1000
0000
,
0230
0000
0001
0000
,
0310
0000
0000
0000
0010
0000
0000
1000
0000
0000
1000
0000
0100
0000
0010
0000
,
0001
0000
0000
0000
0001
0000
0000
1000
0000
0000
1000
0000
0010
0000
0100
0000
,
0001
0000
0000
0000
0100
0000
0000
0010
0000
0000
0010
0000
1000
0000
0001
0000
,
0010
0000
0000
0000
0100
0000
0000
0010
0000
0000
0010
0000
0001
0000
0000
0000
,
1000
0000
0000
0000
1000
0000
0000
0001
0000
0000
0001
0000
0010
0000
0100
0000
,
1000
0000
0000
0000
0001
0000
0000
0001
0000
0000
0100
0000
0010
0000
1000
0000
,
0100
0000
0000
0000
0010
0000
0000
0010
0000
0000
0001
0000
0010
0000
0001
0000
,
0000
1000
0010
0100
0001
0100
0110
0000
,
1001
0000
0000
0000
1010
0000
0000
0101
0000
0000
0010
0000
0100
0000
1000
0000
,
0001
0000
0000
0000
0100
0000
0000
1010
0000
0000
0010
0000
1000
0000
0100
0000
,
0010
0000
0000
0000
0001
0000
0000
1000
0000
0000
1000
0000
0010
0000
0100
0000
,
0001
0000
0000
0000
0100
0000
0000
0010
0000
0000
0010
0000
2000
0000
0000
0000
,
3001
0000
0000
0000
0010
0000
0000
0110
0000
0000
0100
0000
1000
0000
0010
0000
,
0100
0000
0000
0000
0001
0000
0000
1010
0000
0000
0100
0000
0001
0000
1000
0000
,
0010
0000
0000
0000
1000
0000
0000
0001
0000
0000
0001
0000
0010
0000
0100
0000
,
0000
1000
0100
0001
0100
1000
0010
0002
,
0000
0000
0000
0000
0013
0000
0000
0110
0000
0000
0010
0000
1000
0000
0100
0000
,
0010
0000
0000
0000
0001
0000
0000
0011
0000
0000
0100
0000
0010
0000
0001
0000
,
0100
0000
0000
0000
0010
0000
0000
1000
0000
0000
0001
0000
0100
0000
0010
0000
,
1000
0000
0000
0000
0001
0000
0000
1000
0000
0000
1000
0000
0001
0000
0100
0000
,
0110
0000
0000
0000
0010
0000
0000
1010
0000
0000
1000
0000
0010
0000
0100
0000
,
0001
0000
0000
0000
1000
0000
0000
1001
0000
0000
0100
0000
1000
0000
0010
0000
,
0100
0000
0000
0000
0010
0000
0000
0010
0000
0000
0100
0000
0001
0000
1000
0000
,
0100
0000
0000
0000
0010
0000
0000
0001
0000
0000
1000
0000
0010
0000
0100
0000
,
0001
0010
0001
0000
0100
0000
0001
0000
,
1000
0100
1000
0000
0010
0000
1000
0000
,
0010
0100
0010
0000
1000
0000
0010
0000
,
0100
0001
0100
0000
0010
0000
0100
0000
,
0001
0010
0001
0000
0100
0010
0100
0000
,
0010
1000
0010
0000
1000
0100
1000
0000
,
0001
0010
0001
0010
0100
1000
0001
0200
,
0000
0010
0010
0310
1000
0001
1001
0000
,
1100
0000
0000
0000
0100
0000
0010
0000
0001
0000
0100
0000
0000
0010
0000
0000
,
0010
1000
1000
0000
0100
0001
0001
0000
,
0101
0000
0000
0000
1000
0000
0001
0000
0010
0000
0100
0000
0000
0100
0000
0000
,
1000
0100
0100
0000
0001
0010
0010
0000
,
0110
0000
0000
0000
0100
0000
1000
0000
0001
0000
0010
0000
0000
0010
0000
0000
,
0001
0001
0001
0000
1000
1000
1000
0000
,
0110
0000
1000
0001
0010
0100
1000
0010
,
0000
0100
0100
0100
0010
1000
0002
0000
,
0003
0000
0000
0000
;

//---------------dance-single - ----------------
#NOTES:
     dance-single:
     :
     Hard:
     13:
     0.496724,0.535614,0.135335,0.083283,0.504903,334.000000,321.000000,13.000000,8.000000,0.000000,0.000000,0.496724,0.535614,0.135335,0.083283,0.504903,334.000000,321.000000,13.000000,8.000000,0.000000,0.000000:
// measure 0
0000
0000
0000
0000
,  // measure 1
0000
0000
0000
0000
,  // measure 2
0000
0000
0000
0000
,  // measure 3
0000
0000
0000
0000
,  // measure 4
0000
0000
0000
0000
,  // measure 5
2000
0000
0010
0000
,  // measure 6
3002
0000
0010
0000
,  // measure 7
2003
0000
0100
0000
,  // measure 8
3002
0000
0100
0000
,  // measure 9
1003
0000
0000
0000
0001
0000
0001
1000
0000
1000
0000
0000
0100
0000
1000
0000
,  // measure 10
0010
0000
0000
0000
0100
0000
0100
0010
0000
0010
0000
0000
1000
0000
0001
0000
,  // measure 11
0010
0000
0000
0000
0100
0000
0100
1000
0000
1000
0000
0000
0100
0000
1000
0000
,  // measure 12
0001
0000
0000
0000
0010
0000
0010
0100
0000
0100
0000
0100
0010
0000
0000
0000
,  // measure 13
0001
0000
0000
0000
0100
0000
0100
0010
0000
0010
0000
0000
1000
0000
0001
0000
,  // measure 14
0010
0000
0000
0000
0100
0000
0010
0001
0000
0001
0000
0000
0010
0000
0100
0000
,  // measure 15
1000
0000
0000
0000
0001
0000
0100
0010
0000
0010
0000
0010
1000
0000
0001
0000
,  // measure 16
0000
0010
0100
1000
0001
0100
1010
0000
,  // measure 17
0101
0000
0000
0000
1001
0000
0100
0010
0000
0010
0000
0000
0001
0000
0100
0000
,  // measure 18
0010
0000
0000
0000
1000
0000
0001
0010
0000
0010
0000
0000
0100
0000
1000
0000
,  // measure 19
0001
0000
0000
0000
0100
0000
0010
1000
0000
1000
0000
0000
0010
0000
0100
0000
,  // measure 20
0001
0000
0000
0000
1000
0000
0001
0010
0000
0010
0000
0000
0100
1000
0001
0000
,  // measure 21
1001
0000
0000
0000
0100
0000
0010
0001
0000
0001
0000
0000
1000
0000
0010
0000
,  // measure 22
0100
0000
0000
0000
0001
0000
1000
0010
0000
0010
0000
0000
0100
0000
0010
0000
,  // measure 23
1000
0000
0000
0000
0001
0000
1000
0100
0000
0010
0000
0010
0001
0000
0011
0000
,  // measure 24
0000
0000
0001
0000
1000
0000
0010
0000
0100
0000
0001
0000
1000
0100
0020
0002
,  // measure 25
0033
0000
0000
0000
1001
0000
0001
0100
0000
0010
0000
0000
1000
0000
0100
0000
,  // measure 26
1000
0000
0000
0000
0010
0000
0100
0001
0000
1000
0000
0000
1000
0000
0001
0000
,  // measure 27
0010
0000
0000
0000
0100
0000
0010
0001
0000
0001
0000
0000
0010
0000
0100
1000
,  // measure 28
0010
0000
0000
0000
0100
0000
0001
1000
0000
1000
0000
0000
0010
0100
0010
0000
,  // measure 29
1001
0000
0000
0000
0100
0000
0010
1000
0000
1000
0000
0000
0100
0000
1000
0000
,  // measure 30
0001
0000
0000
0000
0100
0000
0010
1000
0000
1000
0000
0000
0001
0000
1000
0000
,  // measure 31
0010
0000
0000
0000
1000
0000
0001
0010
0000
0010
0000
0000
0100
1000
0100
1000
,  // measure 32
0100
0000
0000
0000
1000
0000
0001
0100
0000
0100
0000
0000
0010
1000
0100
0010
,  // measure 33
0001
0000
1000
0000
0100
0000
0000
0000
1000
0000
0100
0000
0010
0001
0000
0001
,  // measure 34
0010
0000
0001
0000
0100
0010
0000
0000
0010
0000
1000
0000
0010
1000
0001
1000
,  // measure 35
0100
0000
1000
0000
0001
0100
0000
0000
0100
0000
0010
0000
0100
0001
0000
0001
,  // measure 36
0100
0000
0010
0000
1000
0001
0000
0000
1000
0000
1000
0000
0001
0100
0001
0000
,  // measure 37
1000
0000
0100
0000
1000
0010
0000
0000
0100
0000
0010
0000
0100
0001
0000
0001
,  // measure 38
0010
0000
0100
0000
1000
0100
0000
0000
0100
0000
0100
0000
0010
0001
0010
0001
,  // measure 39
1000
0000
0001
0000
1000
0010
0000
0000
0100
0000
0001
0000
0100
0010
0100
0020
,  // measure 40
0000
1000
1000
1000
0100
0031
1001
0000
,  // measure 41
0011
0000
0000
0100
1000
0100
0000
0000
1000
0000
0010
0100
0000
0001
0000
0000
,  // measure 42
1000
0000
0100
0010
0000
0001
0000
0000
1000
0000
1000
0000
0110
0000
1000
0000
,  // measure 43
0001
0000
0000
0010
0100
0010
0000
0000
0001
0000
1000
0100
0000
1000
0000
0000
,  // measure 44
0001
0000
0100
0001
0000
1000
0000
0000
0001
0000
0001
0000
0110
0000
0001
0000
,  // measure 45
1000
0000
0000
0010
0100
0010
0000
0000
1000
0000
0100
0010
0000
0100
0000
0000
,  // measure 46
1000
0000
0001
0100
0000
0010
0000
0000
1000
0000
1000
0000
0011
0000
1000
0000
,  // measure 47
0001
0000
0000
1000
0010
1000
0000
0000
0010
0100
0000
0100
0001
0000
1001
0000
,  // measure 48
1000
0010
0100
0001
0010
1000
0010
0002
,  // measure 49
0003
0000
0000
0000
;
