#TITLE:DON'T YOU JUST KNOW IT;
#SUBTITLE:;
#ARTIST:CAPTAIN JACK;
#TITLETRANSLIT:;
#SUBTITLETRANSLIT:;
#ARTISTTRANSLIT:;
#GENRE:;
#CREDIT:;
#BANNER:Don't You Just Know It.png;
#BACKGROUND:Don't You Just Know It-bg.png;
#LYRICSPATH:;
#CDTITLE:Dancemania EX4.png;
#MUSIC:Don't You Just Know It.ogg;
#OFFSET:0.000000;
#SAMPLESTART:27.040001;
#SAMPLELENGTH:15.005000;
#SELECTABLE:YES;
#BPMS:0.000000=170.688004
;
#STOPS:
;
#BGCHANGES:;
#KEYSOUNDS:;
#ATTACKS:;

//---------------dance-single - ----------------
#NOTES:
     dance-single:
     :
     Beginner:
     4:
     0.197019,0.237636,0.084870,0.063652,0.000000,130.000000,122.000000,8.000000,6.000000,0.000000,0.000000,0.197019,0.237636,0.084870,0.063652,0.000000,130.000000,122.000000,8.000000,6.000000,0.000000,0.000000:
0000
0000
0000
0000
,
0000
0000
0000
0000
,
0000
0000
0000
0000
,
0000
0000
0000
0000
,
0000
0000
0000
0000
,
0000
0001
0000
0001
,
0000
1000
1000
1000
,
1000
0000
0100
0000
,
0000
0010
0010
0010
,
0010
0000
0001
0000
,
0000
0100
0000
0010
,
0010
0000
0000
0000
,
2002
0000
0000
0000
,
3003
0000
0000
0000
,
0001
0001
0001
0000
,
1000
0000
0100
0000
,
1000
1000
1000
0000
,
0010
0000
0100
0000
,
0001
0001
0001
0000
,
0000
1000
1000
0000
,
1001
0000
1000
0000
,
0000
0001
0000
0001
,
0001
0000
1000
0000
,
0000
0010
0010
0010
,
0010
0010
0000
0000
,
0000
0100
0100
0100
,
0100
0000
0100
0000
,
0000
0010
0010
0010
,
0010
0000
0010
0000
,
0100
0000
0010
0000
,
0110
0000
0000
0000
,
1001
0000
0000
0000
,
0220
0000
0000
0000
,
0330
0000
0000
0000
,
0010
0010
0010
0000
,
1000
0000
0100
0000
,
1000
1000
1000
0000
,
0010
0000
0100
0000
,
0001
0001
0001
0000
,
0000
1000
1000
0000
,
1001
0000
1000
0000
,
0000
0001
0000
0001
,
0001
0000
0100
0000
,
0000
0010
0010
0010
,
0010
0010
0000
0000
,
0000
0100
0100
0100
,
0100
0000
0100
0000
,
0000
0100
0100
0100
,
0100
0000
0100
0000
,
0000
0010
0000
0010
,
0010
0000
1000
0000
,
0000
0001
0001
0000
,
1001
0000
0100
0000
,
0000
0010
0000
1000
,
1000
0000
0001
0000
,
0000
0100
0100
0100
,
0100
0100
0000
0000
,
0000
0010
0010
0010
,
0010
0000
0010
0000
,
0000
0100
0100
0000
,
1000
1000
1000
0000
,
0001
0000
0000
0000
,
2002
0000
0000
0000
,
0000
0000
0000
0000
,
3003
0000
0000
0000
;

//---------------dance-single - ----------------
#NOTES:
     dance-single:
     :
     Easy:
     8:
     0.372821,0.509219,0.615306,0.063652,0.000000,246.000000,188.000000,58.000000,6.000000,0.000000,0.000000,0.372821,0.509219,0.615306,0.063652,0.000000,246.000000,188.000000,58.000000,6.000000,0.000000,0.000000:
0000
0000
0000
0000
,
0000
0000
0000
0000
,
0000
0000
0000
0000
,
0000
0000
0000
0000
,
0000
0000
0000
0000
,
0000
1000
0000
1000
,
0000
0100
0100
0100
,
0010
0001
0010
0000
,
0000
0001
0001
0001
,
0010
0100
0010
0000
,
0000
1000
0000
0001
,
0100
0100
0010
0000
,
2002
0000
0000
0000
,
3003
0000
0000
0000
,
1000
1000
0001
0001
,
0010
0100
0010
0000
,
0001
0001
1000
1000
,
0100
0010
0100
0000
,
1000
1000
0010
0010
,
0000
0100
0100
0100
,
1001
0001
0001
0001
,
1000
1000
1000
1000
,
0010
0010
0010
0010
,
0100
0110
0110
0110
,
1001
1001
1001
0000
,
0001
0011
0011
0011
,
1100
1100
1100
0000
,
0001
1010
1010
1010
,
0101
0101
0101
0000
,
0100
0010
0010
1000
,
0001
0010
0010
0010
,
0100
0100
1000
0000
,
0220
0000
0000
0000
,
0330
0000
0000
0000
,
0100
0100
0001
0001
,
1000
0100
1000
0000
,
0010
0010
1000
1000
,
0001
0010
0001
0000
,
0100
0100
0001
0001
,
0000
1000
1000
1000
,
0110
0010
0010
0010
,
0100
0100
0100
0100
,
0001
0001
0001
0001
,
1000
1100
1100
1100
,
0101
0101
0101
0000
,
0001
0011
0011
0011
,
1010
1010
1010
0000
,
0010
0110
0110
0110
,
1100
1100
1100
0000
,
0100
0010
0010
0010
,
0001
0001
0100
0100
,
0010
0010
1000
1000
,
0101
0100
0100
0100
,
0010
0010
0010
0010
,
1000
1000
1000
0000
,
0001
1001
1001
1001
,
0101
0101
0101
0000
,
0010
0010
0010
1001
,
1001
1010
1010
1010
,
0000
0100
0100
0010
,
1001
0110
1001
0000
,
0100
0011
0000
1100
,
2002
0000
0000
0000
,
0000
0000
0000
0000
,
3003
0000
0000
0000
;

//---------------dance-single - ----------------
#NOTES:
     dance-single:
     :
     Medium:
     11:
     0.498610,0.577115,0.742611,0.074261,0.000000,329.000000,259.000000,70.000000,7.000000,0.000000,0.000000,0.498610,0.577115,0.742611,0.074261,0.000000,329.000000,259.000000,70.000000,7.000000,0.000000,0.000000:
0000
0000
0000
0000
,
0000
0000
0000
0000
,
0000
0000
0000
0000
,
0000
0000
0000
0000
,
0000
0000
0000
0000
,
0000
0100
0000
0100
,
0000
0001
0001
0001
,
1000
0010
1000
0000
,
0100
0010
0010
0010
,
0001
1000
0001
0000
,
1000
0010
0010
0100
,
0010
1000
1000
0001
,
0220
0000
0000
0000
,
0330
0000
0000
0000
,
1000
0100
1000
0000
0100
0000
0100
0000
,
0010
0001
0010
0000
0001
0000
0001
0000
,
1000
0000
1000
0000
0010
1000
0010
0000
,
0100
0000
0100
0000
0001
0100
0000
0010
,
0000
1000
0100
0000
1000
0000
1000
0000
,
0010
1001
1001
1001
,
0110
0000
0100
0010
0100
0000
0101
0000
,
0101
0000
0001
1000
0001
0000
0010
0000
,
0010
0000
0100
1000
0100
0000
1000
0000
,
1000
0000
0010
0100
0010
0100
0010
0100
,
0001
0000
0011
0000
0011
0000
0001
1000
,
0100
1100
1010
1001
,
0011
0000
0110
0000
1001
0000
0100
0100
,
0010
1010
0101
0011
,
1100
0000
1000
0100
0010
0000
0001
0100
,
0010
1001
0110
1100
,
0011
0000
1000
0010
1000
0010
0100
0000
,
1000
0000
0001
0010
0001
0010
0100
0000
,
2002
0000
0000
3000
,
0203
0000
0000
0300
,
0010
0100
0010
0000
1000
0000
1000
0000
,
0001
0010
0001
0000
0100
0000
0100
0000
,
0001
1000
0001
0000
0010
0000
0010
0000
,
0100
1000
0100
0000
0010
0001
0000
0100
,
0000
0001
1000
0000
0010
0010
0010
0000
,
1000
1100
1100
1010
,
1010
0000
0001
0100
0001
0000
0011
0000
,
0011
0000
0001
1000
0100
0000
1010
0000
,
0101
0000
1000
0001
0100
0000
0110
0000
,
1001
0000
0100
0001
0100
0001
0100
0001
,
0010
0000
0110
0000
1100
0000
0100
1000
,
0010
0101
1001
0011
,
0101
0000
0001
0100
0010
0000
1000
0010
,
0100
1100
1001
1100
,
1010
0000
0010
0100
0010
0000
0110
0000
,
0110
0000
0100
0001
0100
0001
0010
0000
,
0001
0000
0010
0100
1000
0100
1000
0000
,
0001
1001
1001
1001
,
1100
1010
1100
1100
,
0011
0000
0001
1000
0001
0000
0101
0000
,
0101
0000
0100
0010
0100
0000
1010
0000
,
1010
0000
0010
1000
0001
0100
0001
0100
,
0010
0000
0010
0000
1000
0100
0010
0001
,
0100
0101
1001
1100
,
0110
0000
1000
0000
0001
0100
0010
0000
,
1000
0011
0011
0011
,
1100
1100
1100
1000
,
0110
0000
0001
0100
0010
1000
0001
0000
,
0220
0000
0000
0000
,
0000
0000
0000
0000
,
0330
0000
0000
0000
;

//---------------dance-single - ----------------
#NOTES:
     dance-single:
     :
     Hard:
     13:
     0.584996,0.645011,0.816872,0.084870,0.000000,386.000000,309.000000,77.000000,8.000000,0.000000,0.000000,0.584996,0.645011,0.816872,0.084870,0.000000,386.000000,309.000000,77.000000,8.000000,0.000000,0.000000:
// measure 0
0000
0000
0000
0000
,  // measure 1
0000
0000
0000
0000
,  // measure 2
0000
0000
0000
0000
,  // measure 3
0000
0000
0000
0000
,  // measure 4
0000
0000
0000
0000
,  // measure 5
0000
0001
0000
0001
,  // measure 6
0000
0000
1000
0100
1000
0100
0010
0000
,  // measure 7
0000
0000
0001
0100
0001
0100
0010
0000
,  // measure 8
0000
0000
1000
0001
1000
0001
0100
0000
,  // measure 9
0000
0000
0001
1000
0001
1000
0110
0000
,  // measure 10
0000
1100
0011
0110
,  // measure 11
1001
0000
1000
0000
1000
0001
1000
0000
,  // measure 12
0220
0000
0000
0030
,  // measure 13
0002
0000
0000
0303
,  // measure 14
1000
0100
0010
0000
1000
0100
0010
0000
,  // measure 15
0001
0100
0010
0000
0001
0100
0010
0010
,  // measure 16
1000
0001
0010
0000
0001
1000
0100
0100
,  // measure 17
0010
0001
0010
0000
0100
1000
0000
1100
,  // measure 18
0000
1000
0001
0000
0100
0100
0010
0000
,  // measure 19
1001
0110
0110
0110
,  // measure 20
1100
0000
1100
0010
0001
0010
0001
0000
,  // measure 21
1001
0000
1001
0010
1000
0010
1000
0000
,  // measure 22
0110
0000
0110
1000
0100
1000
0100
0000
,  // measure 23
0110
0000
0001
0001
0100
0100
0010
0010
,  // measure 24
1000
0000
1001
1000
0100
0100
0010
0010
,  // measure 25
0001
1010
0101
1100
,  // measure 26
0011
0000
0011
0001
0100
0010
1000
0000
,  // measure 27
1001
0000
1001
1000
0100
0010
0001
0000
,  // measure 28
0110
0000
0101
0001
1000
0100
0010
0000
,  // measure 29
1001
0000
0101
0001
0010
0001
0100
0010
,  // measure 30
1000
0000
0010
1000
0010
1000
0100
0010
,  // measure 31
0001
0000
1000
0001
0100
0010
1000
0000
,  // measure 32
2002
0000
0000
0003
,  // measure 33
0020
0000
0000
3030
,  // measure 34
0100
0001
0010
0000
0100
0010
0001
0000
,  // measure 35
0100
0010
1000
0000
0100
1000
0010
0010
,  // measure 36
1000
0001
0100
0000
0010
1000
0001
0010
,  // measure 37
0100
0100
1000
0000
0001
0100
0000
0101
,  // measure 38
0000
0100
0010
0000
1000
1000
0001
0000
,  // measure 39
0110
1001
1001
1001
,  // measure 40
0110
0000
0110
1000
0100
1000
0100
0000
,  // measure 41
1001
0000
0110
0001
0010
0001
0010
0000
,  // measure 42
0110
0000
0101
1000
0100
1000
0100
0000
,  // measure 43
0110
0000
0001
0001
0100
0100
0010
0010
,  // measure 44
1000
0000
1001
1000
0100
0100
0010
0010
,  // measure 45
0001
0011
0011
0011
,  // measure 46
1100
0000
1100
1000
0010
1000
0010
0000
,  // measure 47
0110
0000
0110
0001
0100
0001
0100
0000
,  // measure 48
1001
0000
1001
1000
0100
1000
0100
0000
,  // measure 49
0110
0000
0001
0010
0001
0010
0001
0000
,  // measure 50
0110
0000
1000
0100
1000
0100
1000
0000
,  // measure 51
0110
1001
1001
1100
,  // measure 52
0011
0000
0101
0001
0100
0001
1000
0000
,  // measure 53
0110
0000
1001
1000
0100
1000
0001
0000
,  // measure 54
1010
0000
0101
0001
0010
0100
0010
0000
,  // measure 55
0011
0000
1010
1000
0100
0100
0010
0010
,  // measure 56
0001
0000
0101
0001
0100
0100
0010
0010
,  // measure 57
1000
0000
0010
1000
0100
1000
0001
0000
,  // measure 58
1000
0000
0010
0100
0001
0100
0010
0000
,  // measure 59
1000
1000
1100
0000
0011
0000
0101
0000
,  // measure 60
1010
0000
0110
0000
1001
0000
1100
1000
,  // measure 61
0101
0000
0001
0100
0010
1000
0001
0000
,  // measure 62
0220
0000
0000
0000
,  // measure 63
0000
0000
0000
0000
,  // measure 64
0330
0000
0000
0000
;
