#VERSION:0.83;
#TITLE:DANCING QUEEN;
#SUBTITLE:;
#ARTIST:E-ROTIC;
#TITLETRANSLIT:;
#SUBTITLETRANSLIT:;
#ARTISTTRANSLIT:;
#GENRE:;
#ORIGIN:;
#CREDIT:;
#BANNER:Dancing Queen.png;
#BACKGROUND:Dancing Queen-bg.png;
#PREVIEWVID:;
#JACKET:Dancing Queen-jacket.png;
#CDIMAGE:;
#DISCIMAGE:Dancemania.png;
#LYRICSPATH:;
#CDTITLE:;
#MUSIC:Dancing Queen.ogg;
#OFFSET:1.666000;
#SAMPLESTART:78.656998;
#SAMPLELENGTH:15.000000;
#SELECTABLE:YES;
#BPMS:0.000=109.010;
#STOPS:;
#DELAYS:;
#WARPS:;
#TIMESIGNATURES:0.000=4=4;
#TICKCOUNTS:0.000=4;
#COMBOS:0.000=1;
#SPEEDS:0.000=1.000=0.000=0;
#SCROLLS:0.000=1.000;
#FAKES:;
#LABELS:0.000=Song Start;
#BGCHANGES:;
#KEYSOUNDS:;
#ATTACKS:
;

//---------------dance-single - ----------------
#NOTEDATA:;
#CHARTNAME:;
#STEPSTYPE:dance-single;
#DESCRIPTION:;
#CHARTSTYLE:;
#DIFFICULTY:Beginner;
#METER:3;
#RADARVALUES:0.088550,0.134170,0.031385,0.000000,0.000000,79.000000,75.000000,4.000000,0.000000,0.000000,0.000000,0.000000,0.000000,0.000000,0.088550,0.134170,0.031385,0.000000,0.000000,79.000000,75.000000,4.000000,0.000000,0.000000,0.000000,0.000000,0.000000,0.000000;
#CREDIT:;
#NOTES:
0000
0000
0000
0000
,
0000
0000
0000
0000
,
0000
0000
0000
0000
,
0000
0000
0000
0000
,
0000
0000
0000
0000
,
0001
0000
0000
0000
,
0010
0000
0000
0000
,
0100
0000
0000
0000
,
1000
0000
0000
0000
,
0010
0010
0000
0000
,
0100
0100
0000
0000
,
0001
0000
1000
0000
,
0001
0000
0010
0000
,
0100
0000
0000
0000
,
1000
0000
0000
0000
,
1001
0000
0000
0000
,
0100
0000
0000
0000
,
0010
0000
0000
0000
,
0001
0000
0000
0000
,
0010
0000
1000
0000
,
0100
0000
0000
0000
,
0010
0000
0001
0000
,
0100
0000
0000
0000
,
1000
1000
0000
0000
,
0001
0001
0000
0000
,
0010
0000
0010
0000
,
0100
0000
0100
0000
,
1000
0000
0010
0000
,
0100
0000
0000
0000
,
0001
0000
0100
0000
,
0010
0000
0000
0000
,
1000
1000
0000
0000
,
0001
0001
0000
0000
,
0010
0000
0000
0000
,
0100
0000
0000
0000
,
1000
0000
0100
0000
,
0010
0000
0001
0000
,
1001
0000
0000
0000
,
0100
0000
0010
0000
,
0001
0000
0000
0000
,
0000
0000
0000
0000
,
1001
0000
0000
0000
,
0010
0000
0100
0000
,
1000
0000
0000
0000
,
0001
0000
0000
0000
,
0001
0001
0000
0000
,
1000
1000
0000
0000
,
0100
0000
0010
0000
,
0100
0000
0000
0000
,
0001
0001
0000
0000
,
1000
1000
0000
0000
,
1001
0000
0000
0000
,
0100
0000
0000
0000
,
0010
0000
0000
0000
,
1000
0000
0000
0000
,
0001
0000
0000
0000
,
1000
0000
0000
0000
,
0100
0000
0000
0000
;

//---------------dance-single - ----------------
#NOTEDATA:;
#CHARTNAME:;
#STEPSTYPE:dance-single;
#DESCRIPTION:;
#CHARTSTYLE:;
#DIFFICULTY:Easy;
#METER:5;
#RADARVALUES:0.164770,0.201255,0.047077,0.000000,0.019616,147.000000,141.000000,6.000000,0.000000,0.000000,0.000000,0.000000,0.000000,0.000000,0.164770,0.201255,0.047077,0.000000,0.019616,147.000000,141.000000,6.000000,0.000000,0.000000,0.000000,0.000000,0.000000,0.000000;
#CREDIT:;
#NOTES:
0000
0000
0000
0000
,
0000
0000
0000
0000
,
0000
0000
0000
0000
,
0000
0000
0000
0000
,
0000
0000
0000
0000
,
0001
0000
0001
1000
,
1000
0000
1000
0010
,
0010
0000
0010
0100
,
0100
0000
0000
0000
,
1001
0001
0001
0000
,
1001
1000
1000
0000
,
1000
0010
0001
0100
,
1000
0000
0100
0001
,
0010
0010
0000
0000
,
0100
0100
0000
0000
,
1001
0000
0000
1000
,
1000
0000
0000
0001
,
0001
0000
0000
0010
,
0100
0000
0000
0100
,
0010
1000
0010
0100
,
0001
0000
1000
0000
,
0010
0001
0010
0100
,
1000
0000
0001
0000
,
0100
0100
0100
0000
,
0010
0010
0010
0000
,
1000
0000
0000
1000
0000
0000
1000
0000
0000
0000
0000
0000
0000
0000
0000
0000
,
0001
0000
0000
0001
0000
0000
0001
0000
0000
0000
0000
0000
0000
0000
0000
0000
,
0010
0100
1000
0100
,
0010
0000
0000
0000
,
0100
0001
0010
0001
,
0100
0000
0000
0000
,
1000
1000
1000
0000
,
0001
0001
0001
0000
,
0010
0000
0000
0010
0000
0000
0010
0000
0000
0000
0000
0000
0000
0000
0000
0000
,
0100
0000
0000
0100
0000
0000
0100
0000
0000
0000
0000
0000
0000
0000
0000
0000
,
1000
0000
0000
0001
0000
0000
1000
0000
0000
0000
0000
0000
0000
0000
0000
0000
,
0001
0000
0100
0010
,
1000
0100
1000
0000
,
0001
0010
0001
0000
,
1000
0010
1000
0000
,
0010
0000
0100
0000
,
0001
0010
0100
0000
,
1000
0010
0100
0000
,
0001
0100
0010
0000
,
1000
0100
0010
0000
,
1001
0100
1000
0000
,
1001
0010
0001
0000
,
1000
0010
0001
0100
,
1000
0100
0001
0010
,
1000
1000
0000
0000
,
0001
0001
0000
0000
,
0110
0000
0000
0100
,
0100
0000
0000
0001
,
0001
0000
0000
1000
,
1000
0000
0000
0010
,
0010
0000
0000
0100
,
0001
0000
0000
0010
,
0100
0000
0000
0000
;

//---------------dance-single - ----------------
#NOTEDATA:;
#CHARTNAME:;
#STEPSTYPE:dance-single;
#DESCRIPTION:;
#CHARTSTYLE:;
#DIFFICULTY:Medium;
#METER:9;
#RADARVALUES:0.292552,0.335426,0.133386,0.000000,0.098078,261.000000,244.000000,17.000000,0.000000,0.000000,0.000000,0.000000,0.000000,0.000000,0.292552,0.335426,0.133386,0.000000,0.098078,261.000000,244.000000,17.000000,0.000000,0.000000,0.000000,0.000000,0.000000,0.000000;
#CREDIT:;
#NOTES:
0000
0000
0000
0000
,
0000
0000
0000
0000
,
0000
0000
0000
0000
,
0000
0000
0000
0000
,
0000
0000
0000
0000
,
0100
0000
0100
0010
,
0010
0000
0010
1000
,
1000
0000
1000
0001
,
0001
0010
0001
0000
0000
0000
0100
0000
,
1001
0000
1000
0010
0000
0000
0000
0000
,
1001
0000
0001
0100
0000
0001
0000
0000
,
1000
0000
0000
0100
0000
0000
0010
0000
0001
0000
0000
0100
0000
0000
0010
0000
,
1000
0010
1000
0000
0001
0100
0001
0010
,
0100
0000
0000
1000
0000
0000
0010
0000
0000
0000
0000
0000
0010
0000
0000
0000
,
0100
0000
0000
0001
0000
0000
0010
0000
0000
0000
0000
0000
0001
0000
0010
0000
,
1001
1000
0100
1000
,
0010
0100
0010
1000
,
0001
0010
0001
0100
,
0010
1000
0010
0000
0100
0001
0100
0000
,
0001
1000
0010
0000
0100
0100
0100
0000
,
0010
1000
0010
0100
0001
0100
0010
0000
,
1000
0001
0010
0000
0100
0100
0100
0000
,
0010
0100
1000
0010
0100
0001
0010
0000
,
0100
1000
0100
1000
0001
0001
0000
0000
,
0010
0001
1000
1000
1000
0000
0000
0000
,
0001
0000
0000
0010
0000
0000
1100
0000
0000
0000
0000
0000
0000
0000
0000
0000
,
1000
0000
0000
0100
0000
0000
0011
0000
0000
0000
0000
0000
0000
0000
0000
0000
,
0010
0001
0100
0001
1000
0010
1000
0000
,
0001
0100
0010
1000
,
0100
1000
0010
0100
0001
0001
0000
0000
,
0101
0100
0000
0100
,
0010
1000
0100
1000
1000
1000
0000
0000
,
0100
0010
0001
0001
0001
0000
0000
0000
,
0100
0000
0000
0001
0000
0000
0011
0000
0000
0000
0000
0000
0000
0000
0000
0000
,
0100
0000
0000
1000
0000
0000
1010
0000
0001
0000
0000
0100
0000
0000
1000
0000
,
1000
0000
0000
0100
0000
0000
0101
0000
0000
0000
0000
0000
0010
0000
0000
0000
,
0010
0000
0000
0000
0100
0000
0000
0000
1000
0000
0000
0001
0000
0000
0100
0000
,
0100
0000
0000
0010
0000
0000
1010
0000
0000
0000
0000
0000
0001
0000
0000
0000
,
1000
0000
0000
1000
0000
0000
0011
0000
0000
0000
1000
0000
0000
0000
0010
0000
,
0100
0000
0000
0001
0000
0000
0101
0000
0000
0000
0000
0001
0100
0000
0000
0010
,
1000
0000
0000
0001
0010
0000
0000
0000
0000
0000
0100
0000
1000
0000
0000
0000
,
0010
0000
0000
0100
0000
0000
0101
0000
0000
0000
0000
0000
1000
0000
0000
0000
,
0001
0000
0000
0001
0000
0000
1100
0000
0000
0000
0001
0000
0000
0000
0010
0000
,
0100
0000
0000
1000
0000
0000
1010
0000
0000
0000
0000
0000
0001
0000
0000
0000
,
1000
0100
0010
0000
0001
0100
0010
0000
,
1001
0000
0010
0001
0000
0000
0000
0000
,
1001
0000
0100
1000
0000
0001
0000
0000
,
0010
0000
0000
0001
0000
0000
1000
0000
0010
0000
0000
0100
0000
0000
0100
0000
,
0001
0010
0001
0000
1000
0100
1000
0000
,
0010
0000
0000
1000
0000
0000
0100
0000
0000
1000
0000
0000
1000
0000
0000
0000
,
0010
0000
0000
0001
0000
0000
0100
0000
0000
0000
0000
0000
0001
0000
0100
0000
,
0001
0100
0001
0100
,
0010
1000
0010
1000
,
0100
0010
0100
0010
,
0001
1000
0001
1000
,
0010
0000
0010
0100
,
0100
0000
0000
0000
0100
0000
0001
1000
,
1000
0000
0000
0000
;

//---------------dance-single - ----------------
#NOTEDATA:;
#CHARTNAME:;
#STEPSTYPE:dance-single;
#DESCRIPTION:;
#CHARTSTYLE:;
#DIFFICULTY:Hard;
#METER:12;
#RADARVALUES:0.386706,0.402511,0.172617,0.000000,0.290310,345.000000,323.000000,22.000000,0.000000,0.000000,0.000000,0.000000,0.000000,0.000000,0.386706,0.402511,0.172617,0.000000,0.290310,345.000000,323.000000,22.000000,0.000000,0.000000,0.000000,0.000000,0.000000,0.000000;
#CREDIT:;
#NOTES:
// measure 0
0000
0000
0000
0000
,  // measure 1
0000
0000
0000
0000
,  // measure 2
0000
0000
0000
0000
,  // measure 3
0000
0000
0000
0000
,  // measure 4
0000
0000
0000
0000
,  // measure 5
1000
0000
0100
1000
,  // measure 6
0001
0000
0000
0000
0000
0000
0000
0000
0100
0000
0000
0000
0001
0100
0000
0100
,  // measure 7
0010
0000
1000
0000
0000
1000
0001
0000
,  // measure 8
1000
0010
0100
0001
0000
0001
0000
0000
,  // measure 9
1001
0100
1000
0010
1000
0000
0000
0000
,  // measure 10
1001
0100
0001
0010
0001
0001
0010
0000
,  // measure 11
0001
0100
0000
0100
0000
0000
0001
0000
1000
0010
0000
0010
0000
0000
1000
0000
,  // measure 12
0001
0010
1000
0000
0001
0100
1000
0100
,  // measure 13
0010
0000
0000
1000
0000
0000
0100
0000
0000
0100
0000
0000
1000
0000
0000
0000
,  // measure 14
0010
0000
0000
0001
0000
0000
0100
0000
0000
0000
0100
0000
0001
0100
0000
0100
,  // measure 15
1000
0000
0100
0000
1000
1000
0100
0000
,  // measure 16
0001
0000
0010
0000
0001
0001
0010
0000
,  // measure 17
1000
0000
0010
0000
1000
1000
0010
0000
,  // measure 18
0100
0010
0100
0010
0100
0100
0010
0000
,  // measure 19
1001
0000
1000
0010
0000
0010
0000
0100
0001
0000
1000
0000
0100
0000
0000
0000
,  // measure 20
0010
0001
0100
1000
0100
0001
0010
0000
,  // measure 21
0001
0000
1000
0100
0000
0100
0000
0010
0001
0000
1000
0000
0010
0000
0000
0000
,  // measure 22
0100
0001
0010
1000
0010
0001
1000
0000
,  // measure 23
0100
0000
1000
0001
0000
0001
0100
0000
1010
0000
1010
0000
0000
0000
0000
0000
,  // measure 24
0010
0000
1000
0100
0000
0010
0001
0000
0000
0000
0000
0000
0001
0100
0000
0100
,  // measure 25
1000
0000
0000
0100
0000
0000
0101
0000
0000
0000
0000
0000
0100
0000
0000
0000
,  // measure 26
0001
0000
0000
0100
0000
0000
1100
0000
0000
0000
0000
0000
0001
0000
0000
0000
,  // measure 27
1010
0000
0100
0001
0000
0001
1000
0000
0100
0000
0010
0000
0010
0000
0000
0000
,  // measure 28
0001
0010
0001
1000
0010
1000
0100
0000
,  // measure 29
1000
0000
0010
1000
0000
1000
0000
1000
0100
0000
0010
0000
0001
0000
0000
0000
,  // measure 30
1001
0100
0100
0001
,  // measure 31
0001
0010
0000
0100
0000
0010
0001
0000
1000
0000
1000
0000
0100
0000
0000
0000
,  // measure 32
1000
0010
0000
0100
0000
0010
1000
0000
0000
0000
0000
0000
0001
0100
0000
0100
,  // measure 33
0010
0000
0000
1000
0000
0000
1100
0000
0000
1000
0000
0000
0001
0000
0000
0000
,  // measure 34
0010
0000
0000
0001
0000
0000
0101
0000
0001
0000
0000
1000
0000
0000
1010
0000
,  // measure 35
0100
0000
0000
0001
0000
0000
1001
0000
0000
0000
0000
0000
0100
0000
0000
0000
,  // measure 36
0010
0000
0010
0000
1000
0010
0100
0001
,  // measure 37
1001
0000
0000
1000
0000
0000
0100
0000
1000
0000
0000
0010
1000
0000
0000
0000
,  // measure 38
0001
0000
0000
0001
0100
0000
0001
0000
0010
0000
0001
0000
0100
0000
0010
0000
,  // measure 39
1000
0000
0000
1000
0000
0000
0110
0000
1000
0000
0000
1000
0100
0000
0000
0010
,  // measure 40
0001
0000
0000
1000
0010
0000
0000
0100
0001
0000
1000
0000
1000
0000
0000
0000
,  // measure 41
1001
0000
0000
0001
0000
0000
0010
0000
0001
0000
0000
0001
0010
0000
0000
0000
,  // measure 42
1000
0000
0000
0100
1000
0000
0100
0000
1000
0000
0010
0000
0100
0000
0001
0000
,  // measure 43
0010
0000
0000
0100
0000
0000
0110
0000
0010
0000
0000
0010
0001
0000
0000
0001
,  // measure 44
1000
0010
1000
0000
0001
0100
0001
0000
,  // measure 45
1010
0100
0001
0010
0100
0000
0010
0000
,  // measure 46
0011
0100
1000
0001
0100
0100
0010
0000
,  // measure 47
1000
0100
0000
1000
0000
0000
1000
0000
0001
0100
0000
0001
0000
0000
0001
0000
,  // measure 48
0010
0100
1000
0000
0100
0010
0001
1000
,  // measure 49
0011
0000
0000
0001
0000
0000
0100
0000
0000
0010
0000
0000
1000
0000
0000
0000
,  // measure 50
1100
0000
0000
1000
0000
0000
0010
0000
0000
0000
0000
0000
0100
0001
0000
0001
,  // measure 51
0010
0001
0010
0100
,  // measure 52
1000
0000
0000
0000
0100
0000
0000
0000
1000
0000
0000
0000
0100
1000
0000
1000
,  // measure 53
0001
0000
0000
0000
0100
0000
0000
0000
0001
0000
0000
0001
0100
0000
0000
0100
,  // measure 54
0010
0000
0000
0010
1000
0000
0000
1000
0001
0000
1000
0000
0001
0000
0000
0000
,  // measure 55
1010
1000
1000
0100
,  // measure 56
0010
0000
0000
0000
0010
0000
0000
0000
0010
0000
0000
0000
0001
0010
0000
0010
,  // measure 57
0100
0000
0000
0000
;
