#VERSION:0.83;
#TITLE:Chu☆Chu☆Tonight;
#SUBTITLE:;
#ARTIST:VENUS;
#TITLETRANSLIT:;
#SUBTITLETRANSLIT:;
#ARTISTTRANSLIT:;
#GENRE:;
#ORIGIN:;
#CREDIT:;
#BANNER:Chu Chu Tonight.png;
#BACKGROUND:Chu Chu Tonight-bg.png;
#PREVIEWVID:;
#JACKET:Chu Chu Tonight-jacket.png;
#CDIMAGE:;
#DISCIMAGE:Chu Chu Tonight v2.png;
#LYRICSPATH:;
#CDTITLE:;
#MUSIC:Chu Chu Tonight.ogg;
#OFFSET:0.841000;
#SAMPLESTART:61.144001;
#SAMPLELENGTH:15.000000;
#SELECTABLE:YES;
#BPMS:0.000=165.000;
#STOPS:;
#DELAYS:;
#WARPS:;
#TIMESIGNATURES:0.000=4=4;
#TICKCOUNTS:0.000=4;
#COMBOS:0.000=1;
#SPEEDS:0.000=1.000=0.000=0;
#SCROLLS:0.000=1.000;
#FAKES:;
#LABELS:0.000=Song Start;
#BGCHANGES:;
#KEYSOUNDS:;
#ATTACKS:
;

//---------------dance-single - ----------------
#NOTEDATA:;
#CHARTNAME:;
#STEPSTYPE:dance-single;
#DESCRIPTION:;
#CHARTSTYLE:;
#DIFFICULTY:Beginner;
#METER:4;
#RADARVALUES:0.156517,0.230460,0.029023,0.094325,0.000000,151.000000,147.000000,4.000000,13.000000,0.000000,0.000000,0.000000,0.000000,0.000000,0.156517,0.230460,0.029023,0.094325,0.000000,151.000000,147.000000,4.000000,13.000000,0.000000,0.000000,0.000000,0.000000,0.000000;
#CREDIT:;
#NOTES:
0000
0000
0000
0000
,
0000
0000
0000
0000
,
0000
0000
0000
0000
,
0000
0000
0000
0000
,
0000
0000
0000
0000
,
0001
0000
0100
0000
,
0001
0000
0100
0000
,
0010
0000
1000
0000
,
0010
0000
0000
0000
,
0000
1000
1000
0000
,
1000
0000
1000
0000
,
0000
0001
0001
0000
,
0001
0000
0001
0000
,
0000
0010
0010
0000
,
0010
0000
0010
0000
,
0000
0100
0100
0000
,
0100
0000
0100
0000
,
0000
0010
0010
0000
,
1000
1000
1000
0000
,
0000
0100
0100
0000
,
0001
0001
0001
0000
,
0010
0010
0000
0000
,
0100
0100
0000
0000
,
0001
0000
1000
0000
,
0001
0001
0001
0000
,
0000
0100
0100
0000
,
0010
0000
0010
0000
,
0000
1000
1000
0000
,
0001
0000
0010
0000
,
0001
0001
0000
0000
,
1000
0000
0100
0000
,
2000
0000
3000
0000
,
0020
0000
0030
0000
,
0001
0000
0001
0000
,
1000
0000
1000
0000
,
0010
0000
0100
0000
,
0010
0000
0100
0000
,
0001
0000
0010
0000
,
0100
0000
0010
0000
,
0001
0001
0000
0000
,
1000
1000
0000
0000
,
0020
0000
0030
0000
,
0200
0000
0300
0000
,
0000
1001
0000
0000
,
0100
0000
0010
0000
,
1000
0000
0100
0000
,
0001
0000
0100
0000
,
1000
1000
0000
0000
,
0001
0001
0000
0000
,
1000
0000
0001
0000
,
0100
0000
0010
0000
,
0001
0001
0000
0000
,
0100
0000
0000
0000
,
0010
0000
1000
0000
,
0010
0000
0000
0000
,
1000
1000
0000
0000
,
0100
0000
0000
0000
,
0010
0000
0001
0000
,
0010
0000
0000
0000
,
0002
0000
0000
0003
,
0001
0000
0000
0000
,
2000
0000
0000
3000
,
1000
0000
0000
0000
,
0020
0000
0000
0030
,
0010
0000
0000
0000
,
0200
0000
0000
0300
,
0100
0000
0000
0000
,
0000
0100
0000
0010
,
0000
0010
0000
0100
,
0000
0001
0000
1000
,
0000
1000
0000
0001
,
0001
0000
0010
0000
,
0100
0000
0000
0000
,
1000
0000
0010
0000
,
0100
0000
0000
0000
,
2002
0000
3003
0000
,
1000
2000
3000
0000
,
0020
0000
0030
0000
,
0200
0000
0300
0000
,
0001
0000
0100
0000
,
0010
0000
0000
0000
,
1000
0000
0100
0000
,
0010
0000
0000
0000
,
0001
0000
0000
0000
,
0001
0000
0001
0000
,
1000
0000
0000
0000
,
1000
0000
1000
0000
,
0100
0000
0000
0000
,
0100
0000
0100
0000
,
0010
0000
0000
0000
,
0010
0000
0110
0110
;

//---------------dance-single - ----------------
#NOTEDATA:;
#CHARTNAME:;
#STEPSTYPE:dance-single;
#DESCRIPTION:;
#CHARTSTYLE:;
#DIFFICULTY:Easy;
#METER:6;
#RADARVALUES:0.245658,0.329229,0.130603,0.159626,0.000000,237.000000,219.000000,18.000000,22.000000,0.000000,0.000000,0.000000,0.000000,0.000000,0.245658,0.329229,0.130603,0.159626,0.000000,237.000000,219.000000,18.000000,22.000000,0.000000,0.000000,0.000000,0.000000,0.000000;
#CREDIT:;
#NOTES:
// measure 0
0000
0000
0000
0000
,  // measure 1
0000
0000
0000
0000
,  // measure 2
0000
0000
0000
0000
,  // measure 3
0000
0000
0000
0000
,  // measure 4
0000
0000
0000
0000
,  // measure 5
0001
0001
0100
0000
,  // measure 6
0001
0001
0010
0000
,  // measure 7
1000
0010
0100
0001
,  // measure 8
2002
0000
0000
3003
,  // measure 9
0000
1000
1000
0000
,  // measure 10
1000
0100
0010
0001
,  // measure 11
0000
0001
0001
0000
,  // measure 12
0001
0010
0100
1000
,  // measure 13
0000
1000
1000
0000
,  // measure 14
0010
1000
0001
0100
,  // measure 15
0000
0001
0001
0000
,  // measure 16
0100
0001
1000
0010
,  // measure 17
0000
0110
0110
0000
,  // measure 18
0010
1000
0100
0010
,  // measure 19
0000
1001
1001
0000
,  // measure 20
0100
0001
0010
0100
,  // measure 21
1000
2000
0000
3010
,  // measure 22
0100
0001
0010
0100
,  // measure 23
0010
0010
0001
0001
,  // measure 24
1000
1000
0010
0000
,  // measure 25
0000
1001
0110
0000
,  // measure 26
0100
1000
0001
0100
,  // measure 27
0000
0110
1001
0000
,  // measure 28
0010
1000
0001
0010
,  // measure 29
0100
0200
0000
0000
,  // measure 30
1300
0100
0010
0001
,  // measure 31
2000
0000
0000
0000
,  // measure 32
3002
0000
0010
0000
,  // measure 33
0203
0000
0010
0000
,  // measure 34
0320
0000
1000
0000
,  // measure 35
2030
0000
0100
0000
,  // measure 36
3200
0000
0001
0000
,  // measure 37
0301
0100
1000
0100
,  // measure 38
1000
0001
0100
0010
,  // measure 39
1000
0010
0010
0000
,  // measure 40
0001
0100
0100
0010
,  // measure 41
2002
0000
0000
3003
,  // measure 42
0010
0010
0100
0000
,  // measure 43
0001
1000
1100
0000
,  // measure 44
1000
0000
0100
0000
,  // measure 45
1000
0010
0100
0001
,  // measure 46
0010
0001
0001
1000
,  // measure 47
0001
0010
0100
0000
,  // measure 48
1000
0010
0100
0000
,  // measure 49
0010
0000
0100
0000
,  // measure 50
0010
0010
1000
0001
,  // measure 51
2002
0000
0000
0000
,  // measure 52
3003
0000
0000
0000
,  // measure 53
0100
0000
0100
0000
,  // measure 54
0010
0010
1000
0001
,  // measure 55
2000
0000
0000
0000
,  // measure 56
3002
0000
0000
0000
,  // measure 57
0013
0000
0100
0000
,  // measure 58
0010
0010
0010
0000
,  // measure 59
0002
0000
0000
0000
,  // measure 60
0010
0000
0000
0000
,  // measure 61
0023
0000
0000
0000
,  // measure 62
0100
0000
0000
0000
,  // measure 63
0230
0000
0000
0000
,  // measure 64
1000
0000
0000
0000
,  // measure 65
2300
0000
0000
0000
,  // measure 66
0001
0000
0000
0000
,  // measure 67
3001
0010
0000
0010
,  // measure 68
0001
0010
0000
0010
,  // measure 69
0100
1000
0000
1000
,  // measure 70
0001
0000
1000
0000
,  // measure 71
0001
0000
0200
0000
,  // measure 72
0010
0010
0310
0000
,  // measure 73
1000
0000
0020
0000
,  // measure 74
0100
0100
0130
0000
,  // measure 75
0110
0000
0000
0000
,  // measure 76
1001
1001
0000
0000
,  // measure 77
0100
0000
0000
0000
,  // measure 78
0010
0000
1000
0000
,  // measure 79
0001
0100
0010
0000
,  // measure 80
1000
0100
0010
0000
,  // measure 81
0001
0000
1000
0000
,  // measure 82
0010
0010
0110
0110
,  // measure 83
0000
0001
0001
0000
,  // measure 84
0001
0010
0001
0010
,  // measure 85
0000
1000
1000
0000
,  // measure 86
1000
0100
1000
0100
,  // measure 87
0000
0010
0010
0000
,  // measure 88
0010
0001
0010
0100
,  // measure 89
0000
0100
0100
0000
,  // measure 90
1000
0100
0010
1001
;

//---------------dance-single - ----------------
#NOTEDATA:;
#CHARTNAME:;
#STEPSTYPE:dance-single;
#DESCRIPTION:;
#CHARTSTYLE:;
#DIFFICULTY:Medium;
#METER:10;
#RADARVALUES:0.381444,0.526766,0.275718,0.217672,0.000000,368.000000,330.000000,38.000000,30.000000,0.000000,0.000000,0.000000,0.000000,0.000000,0.381444,0.526766,0.275718,0.217672,0.000000,368.000000,330.000000,38.000000,30.000000,0.000000,0.000000,0.000000,0.000000,0.000000;
#CREDIT:;
#NOTES:
// measure 0
0000
0000
0000
0000
,  // measure 1
0000
0000
0000
0000
,  // measure 2
0000
0000
0000
0000
,  // measure 3
0000
0000
0000
0000
,  // measure 4
0000
0000
0000
0000
,  // measure 5
1000
0100
0001
0100
,  // measure 6
0001
0100
1000
0001
,  // measure 7
0100
0100
0010
0010
,  // measure 8
2002
0000
0000
0000
,  // measure 9
3003
0000
0001
0000
0001
0000
0001
0100
,  // measure 10
0000
0100
0000
0100
0001
0000
1001
0000
,  // measure 11
0000
0000
1000
0000
1000
0000
1000
0100
,  // measure 12
0000
0100
0000
0100
1000
0000
1001
0000
,  // measure 13
0000
0000
0001
0000
0001
0000
0001
0010
,  // measure 14
0000
0010
0000
0010
0001
0000
1001
0000
,  // measure 15
0000
0000
1000
0000
1000
0000
1000
0010
,  // measure 16
0000
0010
1000
0010
1000
0000
1001
0000
,  // measure 17
0000
0000
0110
0000
1001
0000
0000
0100
,  // measure 18
0001
0010
0001
0100
0010
0100
0001
0001
,  // measure 19
0000
0000
1001
0000
0110
0000
0000
0001
,  // measure 20
0010
0001
0100
0010
1000
0100
0010
0100
,  // measure 21
1000
0100
2000
0000
0000
0000
3000
0001
,  // measure 22
1000
0001
0100
0000
0010
0000
0110
0000
,  // measure 23
0001
0100
0010
1000
0001
0000
0010
0000
,  // measure 24
0100
0100
0010
0000
0001
0000
1001
0000
,  // measure 25
0000
0000
1100
0000
0011
0000
0000
0001
,  // measure 26
0010
0001
0100
0010
1000
0100
1000
1000
,  // measure 27
0000
0000
1100
0000
0101
0000
0000
1000
,  // measure 28
0010
0100
0001
0100
0010
1000
0001
0010
,  // measure 29
0100
0000
0110
0000
0000
0010
0010
0000
,  // measure 30
0001
0010
0100
1000
0000
1000
0001
2000
,  // measure 31
0000
0000
0000
0000
,  // measure 32
0010
0000
0100
0100
0000
0000
3010
0000
,  // measure 33
1002
0000
0000
0100
0100
0000
0010
0000
,  // measure 34
2003
0000
0000
0100
0100
0000
0010
0000
,  // measure 35
3002
0000
0000
0010
0010
0000
0100
0000
,  // measure 36
2003
0000
0000
0010
0010
0000
3100
0000
,  // measure 37
1000
0100
0010
0100
,  // measure 38
0010
0001
0100
0010
,  // measure 39
1000
0010
1000
0000
0001
0000
0001
0000
,  // measure 40
0100
0001
0100
0010
0000
1000
0000
2002
,  // measure 41
0000
0000
0000
0000
0000
0000
3003
1001
,  // measure 42
0000
0110
0000
2002
0000
0000
3003
0010
,  // measure 43
0000
1000
0200
0000
0010
0000
0310
0000
,  // measure 44
0001
0010
0001
1000
0000
0010
0000
1000
,  // measure 45
0000
1000
0100
0000
0010
0000
0001
0000
,  // measure 46
0010
0001
0010
0100
0000
0010
0000
1001
,  // measure 47
0000
0010
0001
1000
0000
0000
1001
0000
,  // measure 48
1000
0010
0100
0001
0000
0000
0100
0000
,  // measure 49
0010
1000
0010
0100
0000
0001
0000
1000
,  // measure 50
0000
0100
0100
0100
0010
0000
2002
0000
,  // measure 51
0000
0000
0000
0000
,  // measure 52
3003
0000
0000
0000
,  // measure 53
1000
0000
0001
0001
,  // measure 54
0000
1000
0001
1000
0100
0000
0020
0000
,  // measure 55
0000
0000
0000
0000
,  // measure 56
0030
0000
0000
0000
,  // measure 57
0100
0000
0001
0000
,  // measure 58
1000
0010
0100
0001
,  // measure 59
0020
0000
0000
0001
0000
0000
0001
0000
,  // measure 60
0002
0000
0000
0033
,  // measure 61
0200
0000
0000
0010
0000
0000
0010
0000
,  // measure 62
0020
0000
0000
0330
,  // measure 63
2000
0000
0000
0100
0000
0000
0100
0000
,  // measure 64
0200
0000
0000
3300
,  // measure 65
0200
0000
0000
1000
0000
0000
1000
0000
,  // measure 66
2000
0000
0000
3300
,  // measure 67
0100
1001
0010
1001
,  // measure 68
0010
1100
1000
0101
,  // measure 69
0100
1010
1000
0011
,  // measure 70
0001
1000
0100
0000
0010
0010
0000
0001
,  // measure 71
0000
0001
1000
0000
0020
0000
0000
0000
,  // measure 72
0100
0000
0100
0000
0130
0010
1000
0100
,  // measure 73
0000
0100
1000
0000
0002
0000
0000
0010
,  // measure 74
0000
0010
0000
0100
0000
0013
0000
1001
,  // measure 75
0000
0000
0000
0000
0000
0000
0000
1010
,  // measure 76
0000
0101
0000
0000
0000
0000
0000
0220
,  // measure 77
0000
0000
0000
0000
0000
0330
0000
2001
,  // measure 78
0000
0010
0000
0010
0000
0100
0000
3010
,  // measure 79
0000
0010
0100
0001
0000
0000
1001
0000
,  // measure 80
0001
0010
0100
1000
0000
0000
0001
0000
,  // measure 81
1000
0100
1000
0001
0000
0001
0000
0200
,  // measure 82
0000
0010
0010
0310
0100
0000
1001
0000
,  // measure 83
0000
0000
0100
0000
1000
0100
0000
0010
,  // measure 84
0000
0100
0000
0100
1000
0000
1000
0000
,  // measure 85
0000
0000
1000
0000
0001
0010
0000
0100
,  // measure 86
0000
0010
0000
0010
0001
0000
0001
0000
,  // measure 87
0000
0000
0100
0000
0010
1000
0000
0100
,  // measure 88
0000
1000
0000
1000
0010
0000
0010
0000
,  // measure 89
0000
0000
0100
0000
0100
0001
0000
0010
,  // measure 90
0000
0010
0001
0001
0100
0000
1001
0000
;

//---------------dance-single - ----------------
#NOTEDATA:;
#CHARTNAME:;
#STEPSTYPE:dance-single;
#DESCRIPTION:;
#CHARTSTYLE:;
#DIFFICULTY:Hard;
#METER:12;
#RADARVALUES:0.487171,0.559689,0.341020,0.311997,0.000000,470.000000,423.000000,47.000000,43.000000,0.000000,0.000000,0.000000,0.000000,0.000000,0.487171,0.559689,0.341020,0.311997,0.000000,470.000000,423.000000,47.000000,43.000000,0.000000,0.000000,0.000000,0.000000,0.000000;
#CREDIT:;
#NOTES:
// measure 0
0000
0000
0000
0000
,  // measure 1
0000
0000
0000
0000
,  // measure 2
0000
0000
0000
0000
,  // measure 3
0000
0000
0000
0000
,  // measure 4
0000
0000
0000
0000
,  // measure 5
0100
0010
0001
0010
0100
0000
0010
0000
,  // measure 6
0100
1000
0010
0100
0010
0000
0100
0000
,  // measure 7
0010
1000
0001
0000
0010
0001
1000
0200
,  // measure 8
0020
0000
0330
0110
,  // measure 9
1000
0000
1100
0000
1100
0000
1000
0100
,  // measure 10
0000
0100
0001
0100
1000
0100
1000
0000
,  // measure 11
0001
0000
0011
0000
0011
0000
0001
0010
,  // measure 12
0000
0010
1000
0010
0001
0010
0001
0000
,  // measure 13
0100
0000
0101
0000
0101
0000
0100
0010
,  // measure 14
0000
0010
0001
0010
1000
0010
1000
0000
,  // measure 15
0010
0000
1010
0000
1010
0000
0010
0100
,  // measure 16
0000
0100
1000
0100
0001
0100
0001
0100
,  // measure 17
0010
0000
1001
0000
0110
0000
1000
0100
,  // measure 18
1000
0010
0100
0010
0100
0001
0010
0010
,  // measure 19
0000
0000
0110
0000
1001
0000
0001
0100
,  // measure 20
0010
1000
0100
0010
0001
0010
0100
1000
,  // measure 21
0001
0000
0011
0000
0001
0010
0001
0000
,  // measure 22
1000
0010
1000
0000
0010
0100
0010
0000
,  // measure 23
2000
3020
0230
0302
0023
0230
2300
3002
,  // measure 24
0103
0010
0100
0010
1000
0100
1000
1000
,  // measure 25
0000
0000
1010
0000
0110
0000
0001
0100
,  // measure 26
0010
0100
0001
0010
0100
0010
0001
0001
,  // measure 27
0000
0000
0101
0000
0110
0000
1000
0100
,  // measure 28
0010
0100
1000
0001
0100
0010
1000
0001
,  // measure 29
1000
0100
2000
0000
0100
0100
3100
0000
,  // measure 30
1000
0010
0100
0001
0000
0001
0010
0220
,  // measure 31
0000
0000
0000
0330
,  // measure 32
0001
0000
0001
0010
0000
0010
0001
0100
,  // measure 33
0020
0000
0000
1000
1030
0000
1000
0100
,  // measure 34
0020
0000
0000
0001
0031
0000
0001
1000
,  // measure 35
0020
0000
0000
0100
0130
0000
0100
0001
,  // measure 36
0020
0000
0000
0001
0031
0000
0001
0010
,  // measure 37
0100
0000
1000
0010
0100
0000
0001
1000
,  // measure 38
0100
0000
1000
0001
0100
0000
0001
0100
,  // measure 39
0010
1000
0010
1000
0100
1000
0100
0010
,  // measure 40
0001
0010
0001
1000
0001
1000
0000
2002
,  // measure 41
0000
0000
0000
0000
0000
0000
3003
1010
,  // measure 42
0000
1100
0000
0101
0000
0011
0000
0110
,  // measure 43
0000
1000
0200
0000
0010
0010
0310
0000
,  // measure 44
0010
0001
0010
0001
0000
0100
0010
1000
,  // measure 45
0000
0010
0100
0001
0010
0001
1000
0010
,  // measure 46
1000
0100
0010
0001
0000
1001
0000
0011
,  // measure 47
0000
0001
0010
0100
0000
1000
0001
0000
,  // measure 48
1000
0010
0100
0001
0000
0001
0010
0000
,  // measure 49
0001
0100
0001
0000
1000
0100
1000
1000
,  // measure 50
0000
0010
0010
0010
0100
0000
0210
0000
,  // measure 51
0000
0000
0000
0000
,  // measure 52
1000
0000
0001
0300
,  // measure 53
0010
0010
1000
1000
,  // measure 54
0100
0100
0100
0100
0010
0000
2002
0000
,  // measure 55
3000
0000
0000
0000
,  // measure 56
0010
0000
0100
0003
,  // measure 57
0001
0010
0001
0000
1000
0100
1000
0010
,  // measure 58
0100
0000
0000
0000
0000
0010
0010
0100
,  // measure 59
2010
0000
0000
0100
0000
0000
0001
0000
,  // measure 60
0002
0000
0000
3003
,  // measure 61
0012
0000
0000
1000
0000
0000
0100
0000
,  // measure 62
0200
0000
0000
0303
,  // measure 63
0210
0000
0000
0010
0000
0000
0001
0000
,  // measure 64
0002
0000
0000
0303
,  // measure 65
0102
0000
0000
0010
0000
0000
1000
0000
,  // measure 66
2000
0000
3003
1001
,  // measure 67
1000
0100
0010
0000
0100
0010
0001
0000
,  // measure 68
0010
0001
0100
0000
0001
0100
0010
0000
,  // measure 69
0100
0010
1000
0000
0010
1000
0001
0000
,  // measure 70
1000
0001
0100
0000
0001
0010
0100
1000
,  // measure 71
0000
1000
0100
0000
2100
0000
0000
0000
,  // measure 72
0001
0000
0001
0000
3001
1000
0010
0100
,  // measure 73
0000
0100
0010
0000
0012
0000
1000
1000
,  // measure 74
0000
0010
0000
0100
0000
0013
0010
0220
,  // measure 75
0000
0000
0330
0000
0000
0000
0000
1010
,  // measure 76
0000
2002
0000
0000
3003
0000
0000
0220
,  // measure 77
0000
0000
0000
0000
0330
0000
0000
1001
,  // measure 78
0000
0100
1000
0010
0000
0010
0000
1000
,  // measure 79
0010
0100
0001
0100
0001
0010
0100
0000
,  // measure 80
0001
0100
0010
1000
0010
1000
0100
0000
,  // measure 81
1000
0010
1000
0000
0001
0100
0001
0000
,  // measure 82
0010
0010
0010
0010
0100
0000
0110
0000
,  // measure 83
0012
0000
1000
0000
0100
0100
0000
0100
,  // measure 84
0000
1000
0000
1000
1003
0001
1000
0000
,  // measure 85
2010
0000
0001
0000
0100
0100
0000
0010
,  // measure 86
0000
0010
0000
0001
3001
1000
0001
0000
,  // measure 87
0201
0000
0010
0000
0001
0001
0000
1000
,  // measure 88
0000
0001
0000
0010
0310
0100
0010
0000
,  // measure 89
1020
0000
0100
0000
1000
1000
0000
0001
,  // measure 90
0000
1030
0010
0100
0001
0001
1001
0000
;
