#TITLE:Choopeta (Mamae eu quero);
#SUBTITLE:;
#ARTIST:T-Rio;
#TITLETRANSLIT:;
#SUBTITLETRANSLIT:;
#ARTISTTRANSLIT:;
#GENRE:;
#CREDIT:;
#BANNER:Choopeta (Mamae eu quero).png;
#BACKGROUND:Choopeta (Mamae eu quero)-bg.png;
#LYRICSPATH:;
#CDTITLE:;
#MUSIC:Choopeta (Mamae eu quero).ogg;
#OFFSET:-0.015000;
#SAMPLESTART:37.369003;
#SAMPLELENGTH:15.000000;
#SELECTABLE:YES;
#BPMS:0.000000=155.035995
;
#STOPS:
;
#BGCHANGES:;
#KEYSOUNDS:;
#ATTACKS:;

//---------------dance-single - ----------------
#NOTES:
     dance-single:
     :
     Beginner:
     3:
     0.142791,0.192046,0.022462,0.044923,0.000000,89.000000,87.000000,2.000000,4.000000,0.000000,0.000000,0.142791,0.192046,0.022462,0.044923,0.000000,89.000000,87.000000,2.000000,4.000000,0.000000,0.000000:
0000
0000
0000
0000
,
0000
0000
0000
0000
,
0000
0000
0000
0000
,
0000
0000
0000
0000
,
0000
0000
0000
0000
,
0000
0000
0000
0000
,
0000
0000
0000
0000
,
2002
0000
0000
0000
,
3003
0000
0000
0000
,
0100
0100
0000
0000
,
0010
0010
0000
0000
,
1000
0000
0001
0000
,
1000
0000
0000
0000
,
0100
0100
0000
0000
,
0010
0010
0000
0000
,
0001
0000
0010
0000
,
0100
0000
0000
0000
,
1000
0000
0001
0000
,
1000
0000
0000
0000
,
0001
0000
0100
0000
,
0001
0000
0000
0000
,
1000
0000
0010
0000
,
1000
0000
0000
0000
,
0001
0000
0010
0000
,
0001
0000
0000
0000
,
0100
0100
0000
0000
,
0010
0010
0000
0000
,
1000
0000
0010
0000
,
0100
0000
0001
0000
,
0010
0010
0000
0000
,
0100
0100
0000
0000
,
1000
0000
0001
0000
,
0010
0000
0000
0000
,
0001
0001
0000
0000
,
1000
1000
0000
0000
,
0100
0000
1000
0000
,
0001
0000
0100
0000
,
0010
0010
0000
0000
,
0100
0100
0000
0000
,
0001
0000
1000
0000
,
0010
0000
0000
0000
,
0100
0100
0000
0000
,
0010
0010
0000
0000
,
0001
0000
1000
0000
,
0100
0000
0010
0000
,
0001
0001
0000
0000
,
1000
1000
0000
0000
,
0010
0000
0100
0000
,
0010
0000
0000
0000
,
0100
0100
0000
0000
,
0010
0010
0000
0000
,
1000
0000
0001
0000
,
0100
0000
0010
0000
,
1000
1000
0000
0000
,
0001
0001
0000
0000
,
0100
0000
0010
0000
,
2002
0000
0000
0000
,
3003
0000
0000
0000
;

//---------------dance-single - ----------------
#NOTES:
     dance-single:
     :
     Easy:
     6:
     0.259912,0.288070,0.022462,0.056154,0.000000,162.000000,160.000000,2.000000,5.000000,0.000000,0.000000,0.259912,0.288070,0.022462,0.056154,0.000000,162.000000,160.000000,2.000000,5.000000,0.000000,0.000000:
0000
0000
0000
0000
,
0000
0000
0000
0000
,
0000
0000
0000
0000
,
0000
0000
0000
0000
,
0000
0000
0000
0000
,
0000
0000
0000
0000
,
0000
0000
0000
0000
,
2002
0000
0000
0000
,
3003
0010
0010
0010
,
0100
0100
0000
0010
,
0100
0100
0000
0010
,
0100
0100
0001
0001
,
1000
0000
0100
0010
,
0001
0001
0000
0010
,
0001
0001
0000
0010
,
0001
0010
0100
1000
,
0020
0000
0000
0030
,
0100
0100
0001
0001
,
1000
0000
0010
1000
,
0100
0000
0010
0001
,
0100
0000
1000
0100
,
0010
0000
0100
0010
,
0001
0000
0010
0001
,
0010
1000
0100
0010
,
0001
0001
0001
0100
,
0001
0001
0000
1000
,
0001
0001
0000
0010
,
0001
0010
0100
1000
,
0010
0000
0100
0010
,
1000
1000
0000
0010
,
1000
1000
0000
0010
,
1000
0010
0100
0001
,
0010
0100
0100
0100
,
1000
1000
0000
0100
,
1000
1000
0000
0100
,
1000
0010
1000
0001
,
0010
0000
0100
0010
,
0010
0010
0000
0100
,
0010
0010
0000
0100
,
0010
0001
0010
0100
,
1000
0001
0001
0001
,
0100
0010
0000
0001
,
0100
0010
0000
0001
,
1000
0010
0100
0001
,
0010
0000
0100
1000
,
1000
1000
0000
0010
,
0100
0100
0000
0001
,
0100
0100
0010
0010
,
1000
0001
0001
0001
,
0010
0010
0000
0001
,
0010
0010
0100
0000
,
0100
1000
0010
1000
,
0001
0000
1000
0001
,
0100
0100
0000
1000
,
0100
0100
0000
1000
,
0001
0100
0010
1000
,
0220
0000
0000
0000
,
0330
0000
0000
0000
;

//---------------dance-single - ----------------
#NOTES:
     dance-single:
     :
     Medium:
     9:
     0.394682,0.448108,0.033692,0.123539,0.000000,246.000000,243.000000,3.000000,11.000000,0.000000,0.000000,0.394682,0.448108,0.033692,0.123539,0.000000,246.000000,243.000000,3.000000,11.000000,0.000000,0.000000:
0000
0000
0000
0000
,
0000
0000
0000
0000
,
0000
0000
0000
0000
,
0000
0000
0000
0000
,
0000
0000
0000
0000
,
0000
0000
0000
0000
,
0000
0000
0000
0000
,
2002
0000
0000
0000
,
3003
0001
0000
0001
0000
0001
0000
0001
,
1000
0100
0000
1000
0000
1000
0000
1000
,
0001
0100
0000
0001
0001
0000
0100
0000
,
0010
0000
1000
0100
0000
0010
0001
0200
,
0000
0000
0000
0310
0000
1000
0000
1000
,
0010
0100
0000
0001
0000
0001
0000
0001
,
0010
0100
0000
0010
0000
0010
0000
0001
,
1000
0100
1000
0000
0001
0010
0001
0000
,
0220
0000
0000
0330
,
0100
0000
0100
0000
1000
0010
0100
0001
,
0010
0000
0000
0000
0001
0010
0001
1000
,
0010
0000
0000
0000
1000
0100
1000
0001
,
0100
0000
0000
0000
0010
0100
0001
0100
,
0010
0000
0000
0000
1000
0100
0010
0100
,
1000
0000
0000
0000
0001
0010
0100
1000
,
0010
1000
0010
0100
0001
0100
0001
0000
,
0100
0010
0000
0010
0000
0010
0000
0010
,
1000
0100
0000
1000
0000
1000
0000
1000
,
0001
0100
0000
0001
0001
0000
0100
0000
,
0010
0000
1000
0010
0000
0100
0001
0020
,
0000
0000
0000
0130
0000
0010
0000
0010
,
0001
1000
0000
0010
0000
0010
0000
0010
,
1000
0001
0000
0100
0100
0000
0001
0000
,
1000
0100
0010
0001
0100
0010
1000
0100
,
0010
0001
0000
1000
0000
0001
0000
1000
,
1000
1000
0000
0001
0000
1000
0000
0001
,
0001
0001
0000
0100
0100
0000
0010
0000
,
1000
0000
0001
0010
0000
0100
1000
0002
,
0000
0000
0000
1003
0000
0010
0000
0010
,
0100
0001
0000
0100
0000
0100
0000
0100
,
0010
1000
0000
0010
0000
0010
0000
1000
,
0001
0100
1000
0000
1000
0100
0001
0000
,
0010
0100
0000
0010
0000
0100
0000
0010
,
0001
0001
0000
0010
0000
0100
0000
1000
,
1000
0100
0000
1000
1000
0000
0001
0000
,
0100
0000
0010
1000
0000
0001
0010
0200
,
0000
0000
0000
0310
0000
0001
0000
0001
,
0010
0100
0000
1000
0000
1000
0000
1000
,
0010
0100
0000
0010
0010
0000
1000
0000
,
0001
0010
1000
0000
1000
0010
0001
0000
,
0100
0010
0000
1000
0000
1000
0000
1000
,
0001
0001
0000
0010
0000
0010
0000
0001
,
0010
1000
0000
1000
0010
0000
0001
0000
,
0100
0000
0001
1000
0000
1000
0001
0200
,
0000
0000
0000
0310
0000
0010
0000
0010
,
1000
0100
0000
0010
0000
0010
0000
0010
,
0001
0100
0000
0001
0001
0000
1000
0000
,
0001
0100
0010
1000
0100
0010
0001
0000
,
2002
0000
0000
0000
,
3003
0000
0000
0000
;

//---------------dance-single - ----------------
#NOTES:
     dance-single:
     :
     Hard:
     12:
     0.534264,0.576139,0.235846,0.067385,0.000000,333.000000,312.000000,21.000000,6.000000,0.000000,0.000000,0.534264,0.576139,0.235846,0.067385,0.000000,333.000000,312.000000,21.000000,6.000000,0.000000,0.000000:
// measure 0
0000
0000
0000
0000
,  // measure 1
0000
0000
0000
0000
,  // measure 2
0000
0000
0000
0000
,  // measure 3
0000
0000
0000
0000
,  // measure 4
0000
0000
0000
0000
,  // measure 5
0000
0000
0000
0000
,  // measure 6
0000
0000
0000
0000
,  // measure 7
2002
0000
0000
0000
,  // measure 8
3003
0100
0100
0100
0100
0100
0100
0100
,  // measure 9
1001
1000
0000
0001
0000
0100
0100
0100
,  // measure 10
1001
1000
0000
0001
0001
0000
0010
0100
,  // measure 11
1000
0000
0010
0100
0001
0000
0100
0010
,  // measure 12
1000
0000
0001
0000
1000
0100
0010
0001
,  // measure 13
0001
0001
0000
0000
0100
0010
1000
0001
,  // measure 14
0001
0001
0000
0000
0010
0100
1000
0001
,  // measure 15
0001
0100
0010
1000
0100
0010
0001
1000
,  // measure 16
0220
0000
0330
0000
1000
0100
0010
0100
,  // measure 17
1000
0000
0001
0000
1000
0100
0001
0100
,  // measure 18
1000
0000
0000
0000
0001
0100
0010
0100
,  // measure 19
0001
0000
1000
0000
0001
0010
1000
0010
,  // measure 20
0001
0000
0001
0000
0010
0100
1000
0100
,  // measure 21
0010
0000
0010
0000
0100
0010
0001
0010
,  // measure 22
0100
0000
0100
0000
1000
0001
0100
0010
,  // measure 23
1000
0010
0100
0100
0001
0010
0100
0100
,  // measure 24
1000
0001
0001
0001
0001
0001
0001
0001
,  // measure 25
1001
0010
0000
0100
0000
0001
0001
0001
,  // measure 26
1001
0100
0000
0010
1000
0000
0001
0001
,  // measure 27
1000
0000
0100
0010
0001
0000
0010
0100
,  // measure 28
1000
0000
0001
0000
0100
0100
0100
0010
,  // measure 29
1001
0100
0000
0010
0000
0100
0100
0010
,  // measure 30
1001
0100
0000
0010
0000
1000
0010
0100
,  // measure 31
0001
0001
0100
0100
0010
0010
1000
1000
,  // measure 32
0001
1000
1000
1000
1000
1000
1000
1000
,  // measure 33
1001
0100
0000
0010
0000
1000
1000
1000
,  // measure 34
1001
0100
0010
0010
0000
1000
1000
0000
,  // measure 35
0001
0000
0010
0100
1000
0000
0100
0010
,  // measure 36
0001
0000
0100
0010
1000
0010
0010
0010
,  // measure 37
1001
0100
0000
0001
0000
0010
0010
0010
,  // measure 38
1001
0100
0000
1000
0000
0001
0010
0100
,  // measure 39
1000
1000
0010
0010
0100
0100
0001
0001
,  // measure 40
0010
0100
0100
0100
0010
0010
0010
0010
,  // measure 41
1001
1000
0000
0010
0000
0100
0100
0010
,  // measure 42
1001
0100
0010
0010
0000
1000
1000
0000
,  // measure 43
0001
0000
1000
0010
0100
0000
0001
0010
,  // measure 44
0100
0000
1000
0100
0010
0001
0001
0001
,  // measure 45
1001
0010
0000
0001
0000
1000
1000
1000
,  // measure 46
1001
0100
0000
0010
0010
0000
1000
1000
,  // measure 47
0001
0100
0010
1000
0010
0100
0001
0010
,  // measure 48
0100
1000
1000
1000
0001
0001
0001
0001
,  // measure 49
0110
0010
0000
1000
0000
0001
0001
1000
,  // measure 50
1001
0100
0010
0000
1000
0001
0010
0000
,  // measure 51
0100
0000
0010
0001
0100
0000
0010
1000
,  // measure 52
0001
0000
1000
0010
0100
0001
0001
1000
,  // measure 53
1001
0100
0000
0010
0000
1000
1000
0001
,  // measure 54
1001
0100
0000
0010
0000
1000
0100
0010
,  // measure 55
0001
0100
1000
0100
0001
0010
0100
1000
,  // measure 56
0220
0000
0000
0000
,  // measure 57
0330
0000
0000
0000
;
