#TITLE:Catch My Breath;
#SUBTITLE:;
#ARTIST:Kelly Clarkson;
#TITLETRANSLIT:;
#SUBTITLETRANSLIT:;
#ARTISTTRANSLIT:;
#GENRE:;
#CREDIT:;
#BANNER:Catch My Breath.png;
#BACKGROUND:Catch My Breath-bg (widescreen) v2.png;
#LYRICSPATH:;
#CDTITLE:;
#MUSIC:Catch My Breath.ogg;
#OFFSET:0.000000;
#SAMPLESTART:47.362000;
#SAMPLELENGTH:15.000000;
#SELECTABLE:YES;
#BPMS:0.000000=124.000000
;
#STOPS:
;
#BGCHANGES:0.000=Catch My Breath.mp4=1.000=0=0=0=StretchNoLoop====,
99999=-nosongbg-=1.000=0=0=0 // don't automatically add -songbackground-
;
#KEYSOUNDS:;
#ATTACKS:;

//---------------dance-single - ----------------
#NOTES:
     dance-single:
     :
     Beginner:
     2:
     0.113404,0.170107,0.113404,0.145806,0.000000,98.000000,84.000000,14.000000,18.000000,0.000000,0.000000,0.113404,0.170107,0.113404,0.145806,0.000000,98.000000,84.000000,14.000000,18.000000,0.000000,0.000000:
// measure 0
0000
0000
0000
0000
,  // measure 1
0000
0000
0000
0000
,  // measure 2
0000
0000
0000
0000
,  // measure 3
0000
0000
0000
0000
,  // measure 4
0000
0000
0000
0000
,  // measure 5
2000
0000
3000
0000
,  // measure 6
0200
0000
0300
0000
,  // measure 7
0020
0000
0030
0000
,  // measure 8
0002
0000
0003
0000
,  // measure 9
1000
0000
0010
0000
,  // measure 10
1000
0000
0000
0000
,  // measure 11
0001
0000
0100
0000
,  // measure 12
0001
0000
0000
0000
,  // measure 13
0100
0000
0010
0000
,  // measure 14
1000
0000
0000
0000
,  // measure 15
0010
0000
0100
0000
,  // measure 16
0001
0000
0000
0000
,  // measure 17
1000
1000
1000
0000
,  // measure 18
0100
0000
0000
0000
,  // measure 19
0001
0001
0001
0000
,  // measure 20
0010
0000
0000
0000
,  // measure 21
0100
0100
0100
0000
,  // measure 22
0001
0000
0000
0000
,  // measure 23
0010
0010
0010
0000
,  // measure 24
1000
0000
0001
0000
,  // measure 25
1001
0000
0000
0000
,  // measure 26
0110
0000
0000
0000
,  // measure 27
0010
0000
0100
0000
,  // measure 28
1000
0000
0000
0000
,  // measure 29
0110
0000
0000
0000
,  // measure 30
1001
0000
0000
0000
,  // measure 31
0010
0000
0100
0000
,  // measure 32
0001
0000
0000
0000
,  // measure 33
2002
0000
3003
0000
,  // measure 34
0010
0010
0010
0000
,  // measure 35
0100
0100
0100
0000
,  // measure 36
0001
0000
0000
0000
,  // measure 37
0220
0000
0330
0000
,  // measure 38
0010
0010
0010
0000
,  // measure 39
1000
1000
1000
0000
,  // measure 40
0100
0000
0010
0000
,  // measure 41
0110
0000
0000
0000
,  // measure 42
1001
0000
0000
0000
,  // measure 43
0001
0000
1000
0000
,  // measure 44
0100
0000
0000
0000
,  // measure 45
1001
0000
0000
0000
,  // measure 46
0110
0000
0000
0000
,  // measure 47
0010
0000
1000
0000
,  // measure 48
0001
0001
0001
0000
,  // measure 49
2002
0000
3003
0000
,  // measure 50
0220
0000
0330
0000
,  // measure 51
0010
0000
1000
0000
,  // measure 52
0100
0000
0000
0000
,  // measure 53
2002
0000
3003
0000
,  // measure 54
0220
0000
0330
0000
,  // measure 55
0010
0000
0001
0000
,  // measure 56
1000
0000
0000
0000
,  // measure 57
0020
0000
0000
0000
,  // measure 58
0030
0000
0000
0000
,  // measure 59
0200
0000
0000
0000
,  // measure 60
0300
0000
0000
0000
;

//---------------dance-single - ----------------
#NOTES:
     dance-single:
     :
     Easy:
     5:
     0.208294,0.247060,0.105304,0.275411,0.000000,180.000000,167.000000,13.000000,34.000000,0.000000,0.000000,0.208294,0.247060,0.105304,0.275411,0.000000,180.000000,167.000000,13.000000,34.000000,0.000000,0.000000:
0000
0000
0000
0000
,
0000
0000
0000
0000
,
0000
0000
0000
0000
,
0000
0000
0000
0000
,
0000
0000
0000
0000
,
2000
0000
0000
0000
,
3020
0000
0000
0000
,
0230
0000
0000
0000
,
0302
0000
2003
0000
,
3001
0010
0001
0000
,
0100
0001
0100
0000
,
0010
0100
0010
0000
,
1000
0010
1000
0000
,
0001
0010
0100
0000
,
1000
0010
0100
0000
,
0001
0100
0010
1000
,
0001
0000
1000
0001
,
1000
0010
0100
0010
,
0001
0010
0001
0000
,
0001
0100
0010
0100
,
1000
0100
1000
0000
,
0001
0001
0010
0000
,
1000
1000
0010
0000
,
1000
0010
0100
0001
,
0010
0000
0100
0010
,
2002
3003
0010
0100
,
0220
0330
0100
0001
,
1000
1000
0010
0100
,
0001
0000
0001
0010
,
1100
0000
1000
0100
,
0011
0000
0100
0010
,
1000
1000
0001
0001
,
0010
0010
0010
0010
,
2200
3000
0020
0030
,
1000
1000
1300
0000
,
0001
0001
1000
1000
,
0010
0010
0100
0100
,
0022
0003
0200
0300
,
0001
0001
0031
0000
,
0010
0100
0001
0010
,
0001
1000
0100
1000
,
0202
0303
0010
1000
,
2200
3300
1000
0100
,
0010
0001
0010
0100
,
1000
0000
0100
1000
,
0022
0033
0100
0010
,
2020
3030
0010
1000
,
0001
0100
0010
1000
,
0100
0100
0100
0100
,
0202
0300
0020
0030
,
1000
1000
1003
0000
,
0010
1000
0001
0100
,
0001
0010
0100
1000
,
2200
0300
0020
0030
,
0001
0001
3001
0000
,
1000
1000
0001
0001
,
0010
0100
0010
0100
,
0202
0000
0000
0003
,
0020
0000
0300
0000
,
2030
0000
0000
0000
,
0002
0000
0000
0000
,
3003
0000
0000
0000
;

//---------------dance-single - ----------------
#NOTES:
     dance-single:
     :
     Medium:
     8:
     0.326327,0.420001,0.186307,0.332113,0.000000,282.000000,259.000000,23.000000,41.000000,0.000000,0.000000,0.326327,0.420001,0.186307,0.332113,0.000000,282.000000,259.000000,23.000000,41.000000,0.000000,0.000000:
0000
0000
0000
0000
,
0000
0000
0000
0000
,
0000
0000
0000
0000
,
0000
0000
0000
0000
,
0000
0000
0000
0000
,
0020
0000
0000
0000
,
0230
0000
0000
2300
0000
0000
0000
0000
,
3002
0000
0000
0000
,
0203
0000
0320
0000
,
1030
0010
1000
0000
0001
0000
0001
0000
,
0010
0001
0010
0100
1000
0000
0000
0000
,
0100
0010
0100
0000
1000
0000
1000
0000
,
0001
0100
0010
1000
0001
0000
0000
0000
,
0010
0001
0010
0000
0100
0000
0100
0000
,
1000
0010
0000
1010
0000
0010
1000
0000
,
0001
1000
0000
0100
0000
0010
0000
0011
,
0000
0010
0100
0000
1000
0001
1000
0000
,
0001
0100
0001
0000
0100
0010
0100
0000
,
0010
1000
0010
0100
0001
0000
0000
0000
,
1000
0100
1000
0000
0001
0100
0001
0000
,
1000
0010
0100
0001
0010
0000
0000
0000
,
0100
1000
0010
0000
0010
0000
0100
0000
,
0010
1000
0000
0101
0000
1000
0100
0000
,
0010
0001
0010
0001
0000
0101
0000
0220
,
0000
0000
0030
0000
0010
0010
0310
0000
,
2002
0000
3003
0000
0100
1000
0010
0000
,
0220
0000
0330
0000
0100
0001
0010
0000
,
1001
0000
0001
0010
0100
1000
0001
0000
,
2002
0000
3003
0000
1000
0010
0100
0000
,
0022
0000
0033
0000
0001
0100
0010
0000
,
2200
0000
3300
0000
0100
1000
0010
0000
,
0110
0000
0100
0001
0010
0100
2000
0000
,
0001
0001
0001
3002
1000
1000
1000
1003
,
1001
0000
1000
0100
0000
0100
0001
0000
,
0010
0000
0001
0000
0010
0100
0010
0000
,
0100
0000
1000
0000
0010
0100
0020
0000
,
0100
0100
0100
0230
0010
0010
0310
0000
,
0110
0000
0001
0010
0000
0010
1000
0000
,
0001
0000
1000
0000
0001
0100
0010
0000
,
1000
0000
0010
0000
1000
0010
0100
0000
,
0001
1000
0001
1000
0100
0010
0100
0000
,
2020
0000
3030
0000
1000
0010
0100
0000
,
0022
0000
0033
0000
0001
0010
0100
0000
,
1001
0000
0100
0001
0010
0100
1000
0000
,
0202
0000
0303
0000
1000
0001
0010
0000
,
0220
0000
0330
0000
0100
1000
0001
0000
,
2002
0000
3003
0000
1000
0010
0100
0000
,
0011
0000
0001
0100
0010
1000
0020
0000
,
1000
1000
1000
2030
0100
0100
0100
3100
,
0110
0000
0100
1000
0000
0001
0010
0000
,
0001
0000
0100
0000
0010
1000
0010
0000
,
1000
0000
0010
0000
0100
0001
0020
0000
,
0001
0001
0001
0032
0100
0100
0103
0000
,
1001
0000
0100
0010
0000
1000
0001
0000
,
1000
0000
0010
0000
0100
0001
0010
0000
,
0001
0000
0010
0000
0100
1000
0010
0000
,
1000
0001
0100
0000
0001
1000
0100
0000
,
2000
0000
0000
0000
,
3020
0000
0000
0230
0000
0000
0000
0000
,
0302
0000
0000
0000
,
2000
0000
0000
0000
,
3003
0000
0000
0000
;

//---------------dance-single - ----------------
#NOTES:
     dance-single:
     :
     Hard:
     11:
     0.425845,0.444707,0.202508,0.234909,0.000000,368.000000,343.000000,25.000000,29.000000,0.000000,0.000000,0.425845,0.444707,0.202508,0.234909,0.000000,368.000000,343.000000,25.000000,29.000000,0.000000,0.000000:
0000
0000
0000
0000
,
0000
0000
0000
0000
,
0000
0000
0000
0000
,
0000
0000
0000
0000
,
0000
0000
0000
0000
,
0200
0000
0000
0000
,
0320
0000
0000
2030
0000
0000
0000
0000
,
3002
0000
0000
0000
,
0023
0000
0200
0330
,
0010
0001
0010
0000
0100
1000
0100
0000
,
1000
0010
0100
0001
0100
0010
1000
0000
,
0001
1000
0001
0000
0010
0100
0010
0000
,
0100
1000
0010
0100
0001
0010
0100
0000
,
0010
0001
1000
0000
0001
1000
0100
0000
,
1000
0010
0100
0001
0000
0100
0010
0010
,
1000
0001
0010
0100
0000
1100
0000
0101
,
0000
0001
1000
0010
1000
0100
1000
0001
,
0010
0100
0010
0000
0100
1000
0100
0000
,
1000
0100
0001
0100
0001
0100
1000
0000
,
0100
1000
0010
0000
0100
0001
1000
0000
,
0001
0010
1000
0010
1000
0010
0001
0000
,
1000
0010
0100
0000
0001
0100
0010
0000
,
1000
0001
1000
0010
0000
0100
0001
0001
,
0010
0100
0100
1000
0000
0011
0000
1010
,
0000
0001
0100
0010
1000
0100
0010
0100
,
1100
1000
0010
0000
0100
0001
1000
0001
,
0011
0001
1000
0000
0010
0100
0001
0010
,
1000
0000
0010
0001
1000
0010
0100
0001
,
0100
0010
1000
0000
0001
0100
0010
1000
,
0101
1000
0100
0000
1000
0010
0100
0001
,
1010
0001
0010
0000
0100
1000
0010
0100
,
0001
0010
0001
0010
0100
1000
0100
2000
,
0001
0001
0001
0001
0001
0001
0001
3001
,
1002
0103
0000
2010
3001
0000
0210
1300
,
0000
0010
1000
0001
0010
0001
0100
0100
,
0000
0010
1000
0001
0100
0001
0010
0200
,
1000
1000
1000
1000
1000
1000
1000
1300
,
2100
3001
0000
0012
0103
0000
2010
3001
,
0000
0100
0010
1000
0001
0010
0100
1000
,
0000
0010
0100
0001
1000
0100
0010
0001
,
0100
0100
0100
0100
0010
0010
0010
0010
,
1010
0100
0001
0000
0010
0001
0100
0010
,
1010
0001
0010
0000
0100
1000
0001
0100
,
1000
0000
0100
0001
1000
0100
0001
0100
,
0010
0001
0010
0000
0100
1000
0100
0010
,
0011
0001
1000
0000
0010
1000
0001
0100
,
0011
0010
0100
0000
1000
0010
0100
0001
,
0100
0010
0100
0010
1000
0001
0010
0200
,
0010
0010
0010
0010
0010
0010
0010
0310
,
0012
0103
0000
1002
0013
0000
0102
1003
,
0000
0001
0100
1000
0100
1000
0100
0001
,
0000
1000
0010
0001
0010
0001
0010
2000
,
0001
0001
0001
3002
1000
1000
1000
1003
,
2100
3001
0000
2010
3100
0000
2001
3010
,
0000
0001
0010
1000
0010
0001
0100
0010
,
0000
1000
0010
0001
0010
1000
0100
0010
,
0001
0001
0100
0100
0010
0010
1000
1000
,
2002
0000
0000
3000
,
0203
0000
0000
0320
0000
0000
0000
0000
,
2030
0000
0000
0000
,
0002
0000
0000
0000
,
3003
0000
0000
0000
;
