#VERSION:0.83;
#TITLE:COW GIRL (KCP Re-Edit);
#SUBTITLE:;
#ARTIST:BAMBEE;
#TITLETRANSLIT:;
#SUBTITLETRANSLIT:;
#ARTISTTRANSLIT:;
#GENRE:;
#ORIGIN:;
#CREDIT:;
#BANNER:COW GIRL (KCP Re-Edit).png;
#BACKGROUND:COW GIRL (KCP Re-Edit)-bg.png;
#PREVIEWVID:;
#JACKET:COW GIRL (KCP Re-Edit)-jacket.png;
#CDIMAGE:;
#DISCIMAGE:;
#LYRICSPATH:;
#CDTITLE:Dancemania.png;
#MUSIC:COW GIRL (KCP Re-Edit).ogg;
#OFFSET:-0.000000;
#SAMPLESTART:60.741001;
#SAMPLELENGTH:15.000000;
#SELECTABLE:YES;
#BPMS:0.000=150.085;
#STOPS:;
#DELAYS:;
#WARPS:;
#TIMESIGNATURES:0.000=4=4;
#TICKCOUNTS:0.000=4;
#COMBOS:0.000=1;
#SPEEDS:0.000=1.000=0.000=0;
#SCROLLS:0.000=1.000;
#FAKES:;
#LABELS:0.000=Song Start;
#BGCHANGES:;
#KEYSOUNDS:;
#ATTACKS:
;

//---------------dance-single - ----------------
#NOTEDATA:;
#CHARTNAME:;
#STEPSTYPE:dance-single;
#DESCRIPTION:;
#CHARTSTYLE:;
#DIFFICULTY:Beginner;
#METER:3;
#RADARVALUES:0.159104,0.184106,0.011365,0.000000,0.000000,98.000000,97.000000,1.000000,0.000000,0.000000,0.000000,0.000000,0.000000,0.000000,0.159104,0.184106,0.011365,0.000000,0.000000,98.000000,97.000000,1.000000,0.000000,0.000000,0.000000,0.000000,0.000000,0.000000;
#CREDIT:;
#NOTES:
0000
0000
0000
0000
,
0000
0000
0000
0000
,
0000
0000
0000
0000
,
0010
0000
0010
0000
,
0010
0000
0010
0000
,
0100
0000
0100
0000
,
0100
0000
0100
0000
,
0001
0000
0001
0000
,
0001
0000
0001
0000
,
1000
0000
1000
0000
,
1000
0000
1000
0000
,
0001
0000
0001
0000
,
0001
0000
0001
0000
,
1000
0000
1000
0000
,
1000
0000
1000
0000
,
0100
0000
0100
0000
,
0100
0000
0100
0000
,
0010
0000
0010
0000
,
0010
0000
0010
0000
,
0010
0000
0000
0000
,
1000
0000
0100
0000
,
1000
0000
0000
0000
,
0100
0000
1000
0000
,
0100
0000
0000
0000
,
0001
0000
0010
0000
,
0001
0000
0000
0000
,
0010
0000
0001
0000
,
0010
0000
0000
0000
,
0100
0000
1000
0000
,
0010
0000
1000
0000
,
0100
0000
1000
0000
,
0001
0001
0001
0000
,
0010
0000
0001
0000
,
0100
0000
0001
0000
,
0010
0000
0001
0000
,
1000
1000
1000
0000
,
0100
0000
0100
0000
,
0100
0100
0100
0000
,
0010
0000
0010
0000
,
0010
0000
0010
0000
,
0001
0000
0001
0000
,
0001
0000
0000
0000
,
1000
0000
1000
0000
,
1000
0000
1000
0000
,
0100
0000
0100
0000
,
0100
0000
0000
0000
,
1000
0000
1000
0000
,
0001
0000
0001
0000
,
1000
0000
1000
0000
,
0001
0000
0000
0000
,
0010
0000
0010
0000
,
0100
0000
0100
0000
,
0010
0000
0010
0000
,
0100
0000
0000
0000
,
1001
0000
0000
0000
;

//---------------dance-single - ----------------
#NOTEDATA:;
#CHARTNAME:;
#STEPSTYPE:dance-single;
#DESCRIPTION:;
#CHARTSTYLE:;
#DIFFICULTY:Easy;
#METER:5;
#RADARVALUES:0.259761,0.276158,0.079552,0.000000,0.000000,160.000000,153.000000,7.000000,0.000000,0.000000,0.000000,0.000000,0.000000,0.000000,0.259761,0.276158,0.079552,0.000000,0.000000,160.000000,153.000000,7.000000,0.000000,0.000000,0.000000,0.000000,0.000000,0.000000;
#CREDIT:;
#NOTES:
0000
0000
0000
0000
,
0000
0000
0000
0000
,
0000
0000
0000
0000
,
0100
0000
0100
0000
,
0001
0100
0001
0100
,
0010
0000
0010
0000
,
0010
1000
0010
1000
,
0001
0000
0001
0000
,
0100
0001
0100
0001
,
1000
0000
1000
0000
,
0001
1000
0100
0010
,
0100
0000
0100
0000
,
0010
0001
1000
0001
,
0100
0000
0100
0000
,
0001
1000
0100
1000
,
0010
0000
0010
0000
,
1000
0001
0100
0001
,
0010
0000
0010
0000
,
0100
0010
0100
1000
,
0001
0000
0000
1000
,
1001
1000
0100
0000
,
0001
0001
0100
0000
,
0010
1000
0100
0010
,
0001
0000
0000
1000
,
0110
0100
0001
0000
,
0100
0010
1000
0001
,
1000
1000
0001
0010
,
0100
0000
0000
0010
,
0110
0100
1000
0000
,
0010
0100
0001
0000
,
1000
0010
0001
0010
,
1000
0010
0010
0000
,
0100
0010
0001
0000
,
0010
0100
1000
0000
,
0001
0100
1000
0100
,
0001
0100
0100
0000
,
0000
0010
0000
0010
,
0000
0010
0000
0100
,
1001
0100
0001
0000
,
0010
0000
0100
0100
,
1000
0000
0001
0000
,
1000
0010
0100
0001
,
1000
0000
0001
0000
,
0010
0000
0100
0010
,
0001
0000
0010
0000
,
0100
1000
0001
0100
,
1010
0000
0100
0000
,
0010
1000
0001
0010
,
0001
0000
0010
0000
,
0100
1000
0001
0100
,
0101
0000
0010
0000
,
0100
0010
1000
0001
,
1000
0000
0100
0000
,
0010
0001
1000
0100
,
1001
0000
0000
0000
;

//---------------dance-single - ----------------
#NOTEDATA:;
#CHARTNAME:;
#STEPSTYPE:dance-single;
#DESCRIPTION:;
#CHARTSTYLE:;
#DIFFICULTY:Medium;
#METER:10;
#RADARVALUES:0.441594,0.398895,0.022729,0.000000,0.045458,272.000000,270.000000,2.000000,0.000000,0.000000,0.000000,0.000000,0.000000,0.000000,0.441594,0.398895,0.022729,0.000000,0.045458,272.000000,270.000000,2.000000,0.000000,0.000000,0.000000,0.000000,0.000000,0.000000;
#CREDIT:;
#NOTES:
0000
0000
0000
0000
,
0000
0000
0000
0000
,
0000
0000
0000
0000
,
0010
0000
0001
0100
0001
0000
1000
0000
,
0000
0000
0100
1000
0001
0100
0010
1000
,
0001
0000
0000
0000
0010
0000
0000
0010
0100
0000
0010
0000
0000
0000
0001
0000
,
0000
0000
1000
0010
0100
0001
0010
0100
,
1000
0000
0100
1000
0100
0000
1000
0000
,
0000
0000
0001
0100
0010
1000
0001
0010
,
0000
0000
0000
0000
0100
0000
0000
0100
0010
0000
0100
0000
0000
0000
1000
0000
,
0000
0000
0001
0100
0010
0100
0001
0010
,
0100
0000
1000
1000
0001
0000
0100
0000
,
0000
0000
0010
1000
0001
0010
0001
1000
,
0100
0000
0000
0000
1000
0000
0000
1000
0001
0000
0100
0000
0000
0000
0001
0000
,
0000
0000
0010
0100
1000
0100
0010
0001
,
1000
0000
0001
0001
0100
0000
0010
0000
,
0000
0000
1000
0010
0100
0001
0010
0100
,
0000
0000
0000
0000
0010
0000
0000
0010
0001
0000
1000
0000
0000
0000
0010
0000
,
0000
0000
0100
0100
0001
0001
1000
0010
,
1001
0000
0000
0000
0000
0100
0100
0010
,
1000
0000
0010
1000
0010
0000
0100
0000
,
0001
0000
0010
0000
0000
0100
0010
0000
,
0001
1000
0000
0010
0000
0010
0000
0100
,
0001
1000
1000
1000
,
0000
0000
0001
0010
0001
0000
0100
0000
,
0001
0000
1000
0000
0000
1000
0010
0000
,
0100
0001
0000
1000
0000
1000
0000
0100
,
0010
0000
0001
0000
0000
0000
0001
1000
,
0100
0000
1000
0010
0100
0001
0100
0010
,
0000
0000
1000
0000
1000
0001
0010
0100
,
0000
0010
0000
0001
0000
0001
1000
0000
,
0100
1000
0000
0010
0000
0100
0000
0100
,
0000
0000
0010
0100
0001
0100
0010
1000
,
0000
0000
0001
0000
0001
1000
0001
0000
,
1000
0010
0000
0010
0000
0010
1000
0000
,
0001
0100
0100
0001
0000
0010
0000
0100
,
0010
0000
0000
0100
0010
0000
0000
0100
,
0010
0000
0010
0000
0100
0100
0100
0100
,
1000
0000
0001
0100
0001
0000
1000
0000
,
0000
0000
0010
1000
0001
0010
0001
1000
,
0100
0000
0000
0000
1000
0000
0000
1000
0001
0000
0100
0000
0000
0000
0100
0000
,
0000
0000
0010
0100
0001
1000
0010
0100
,
0001
0000
0010
0100
0010
0000
0100
0000
,
0000
0000
1000
1000
0100
0010
0010
0001
,
0000
0000
0000
0000
1000
0000
0000
1000
0010
0000
0100
0000
0000
0000
0100
0000
,
0000
0000
0001
1000
0010
0010
0100
0001
,
0000
0000
0100
0001
1000
0000
0100
0000
,
0000
0000
0010
0001
1000
0100
0010
0001
,
1000
0000
0000
0000
0010
0000
0000
0010
0100
0000
0001
0000
0000
0000
0001
0000
,
0000
0000
0100
0010
1000
0001
0010
0100
,
0000
0000
0010
0100
1000
0000
0001
0000
,
0000
0000
1000
0001
0100
0010
0010
1000
,
0000
0000
0000
0000
0001
0000
0000
0001
0010
0000
0100
0000
0000
0000
0100
0000
,
0000
0000
0010
0010
0100
0100
1000
0001
,
1001
0000
0000
0000
;

//---------------dance-single - ----------------
#NOTEDATA:;
#CHARTNAME:;
#STEPSTYPE:dance-single;
#DESCRIPTION:;
#CHARTSTYLE:;
#DIFFICULTY:Hard;
#METER:13;
#RADARVALUES:0.621803,0.613685,0.045458,0.000000,0.488675,383.000000,379.000000,4.000000,0.000000,0.000000,0.000000,0.000000,0.000000,0.000000,0.621803,0.613685,0.045458,0.000000,0.488675,383.000000,379.000000,4.000000,0.000000,0.000000,0.000000,0.000000,0.000000,0.000000;
#CREDIT:;
#NOTES:
// measure 0
0000
0000
0000
0000
,  // measure 1
0000
0000
0000
0000
,  // measure 2
0000
0000
0000
0000
,  // measure 3
0001
0000
0000
0001
1000
0000
0000
1000
0001
0000
0000
0001
0100
0000
0000
0100
,  // measure 4
0010
0000
0000
0010
1000
0000
0000
1000
0010
0000
0100
0000
0001
0000
1000
0000
,  // measure 5
0100
0000
0000
0100
0010
0000
0000
0010
0001
0000
0000
0001
0010
0000
0000
0010
,  // measure 6
0100
0000
0000
0100
1000
0000
0000
1000
0010
0000
0100
0000
0010
0000
1000
0000
,  // measure 7
0001
0000
0000
0001
1000
0000
0000
1000
0001
0000
0000
0001
0100
0000
0000
0100
,  // measure 8
0010
0000
0000
0010
1000
0000
0000
1000
0010
0000
0100
0000
0001
0000
0010
0000
,  // measure 9
0100
0000
0000
0100
1000
0000
0000
1000
0100
0000
0000
0100
0010
0000
0000
0010
,  // measure 10
0001
0000
0000
0001
1000
0000
0010
0000
0010
0000
1000
0000
0001
0000
0100
0000
,  // measure 11
0010
0000
0000
0100
0001
0000
0000
1000
0100
0000
0000
0010
0001
0000
0000
0010
,  // measure 12
0001
0000
0000
1000
0010
0000
0000
1000
0010
0000
0100
0000
0001
0000
1000
0000
,  // measure 13
0100
0000
0000
1000
0001
0000
0000
0100
0010
0000
0000
1000
0100
0000
0000
1000
,  // measure 14
0100
0000
0000
0010
0001
0000
0000
0010
0001
0000
1000
0000
0010
0000
0100
0000
,  // measure 15
0001
0000
0000
1000
0010
0000
0000
0100
0001
0000
0000
1000
0010
0000
0000
0010
,  // measure 16
0001
0000
0000
0001
0100
0000
0000
0100
1000
0000
0001
0000
0100
0000
0010
0000
,  // measure 17
1000
0000
0000
0001
0100
0000
0000
0010
1000
0000
0000
0001
0010
0000
0100
0000
,  // measure 18
1000
0000
0000
0000
0001
0000
0100
0000
0010
0000
0000
0100
0010
0000
0100
0000
,  // measure 19
1001
0000
0000
0000
1000
0000
0000
0000
0000
0000
0001
0100
0001
0000
0100
0000
,  // measure 20
0010
0000
1000
0100
0100
0010
0001
1000
,  // measure 21
0010
0100
0010
0000
0000
0100
0100
0001
,  // measure 22
1000
0100
1000
0001
0010
0100
0000
0100
,  // measure 23
0010
0001
1000
0000
0010
0010
1000
0000
,  // measure 24
0001
0000
1000
1000
0010
0100
0010
1000
,  // measure 25
0001
0010
0100
0000
0000
0100
0100
0010
,  // measure 26
0000
0001
0001
0100
0000
0010
1000
1000
,  // measure 27
0001
0000
0100
0000
0001
0000
0000
0000
0000
0000
1000
0100
1000
0000
0010
0000
,  // measure 28
0100
0010
1000
0010
0100
0010
1000
0000
,  // measure 29
0001
0010
0001
0100
0001
1000
0001
0001
,  // measure 30
1000
0100
1000
0000
0001
0100
0010
0000
,  // measure 31
1000
0010
0100
0000
0001
0010
0100
0000
,  // measure 32
1000
0000
0001
0100
0010
0100
0001
0010
,  // measure 33
0000
0100
1000
0010
0000
0100
0010
0010
,  // measure 34
1000
0010
1000
1000
0000
0010
1000
1000
,  // measure 35
0001
0100
0001
0001
0000
0010
0000
0100
,  // measure 36
1001
0100
0000
0100
1001
0010
0000
0010
,  // measure 37
1001
0000
0100
0000
0001
0000
0100
0000
0001
0000
0100
0000
1000
0001
1000
0001
,  // measure 38
0100
0000
0000
0100
0001
0000
0000
0001
0100
0000
0000
0100
0001
0000
0000
0001
,  // measure 39
1000
0000
0000
1000
0010
0000
0000
0010
1000
0000
0000
1000
0010
0000
0010
0000
,  // measure 40
0100
0000
0000
0100
0010
0000
0000
0010
0100
0000
0000
0100
0010
0000
0000
0010
,  // measure 41
1000
0000
0000
1000
0001
0000
0001
0000
1000
0000
0010
0000
0100
0000
0001
0000
,  // measure 42
1000
0000
0000
1000
0100
0000
0010
0000
0001
0000
0001
0000
1000
0000
1000
0000
,  // measure 43
0010
0000
0000
0010
0100
0100
0001
0001
,  // measure 44
1000
0000
0000
1000
0010
0000
0000
0010
1000
0000
0000
1000
0001
0000
0000
0001
,  // measure 45
0100
0000
0000
0100
0010
0000
1000
0000
0001
0000
0010
0000
0001
0000
1000
0000
,  // measure 46
0100
0000
0000
0100
0001
0000
0000
0001
0100
0000
0000
0100
1000
0000
0000
1000
,  // measure 47
0010
0000
0000
0010
0001
0000
0000
0001
0010
0000
0000
0010
1000
0000
1000
0000
,  // measure 48
0010
0000
0000
0010
0100
0000
0000
0100
0010
0000
0000
0010
0100
0000
0000
0100
,  // measure 49
0001
0000
0000
0001
0100
0000
0000
0100
1000
0000
0010
0000
0001
0000
0010
0000
,  // measure 50
1000
0000
0000
1000
0010
0000
0100
0000
0001
0000
0001
0000
1000
0000
1000
0000
,  // measure 51
0100
0000
0000
0100
0010
0010
0001
1000
,  // measure 52
0010
0000
0000
1000
0010
0000
0000
1000
0010
0000
0000
0001
0010
0000
0000
1000
,  // measure 53
0100
0000
0000
0100
0010
0000
0001
0000
1000
0000
0010
0000
0100
0000
0001
0000
,  // measure 54
1000
0000
0000
0000
;
