#VERSION:0.83;
#TITLE:CLOSER;
#SUBTITLE:;
#ARTIST:Kurt Schneider feat. Sam Tsui & Kirsten Collins;
#TITLETRANSLIT:;
#SUBTITLETRANSLIT:;
#ARTISTTRANSLIT:;
#GENRE:;
#ORIGIN:;
#CREDIT:;
#BANNER:CLOSER.png;
#BACKGROUND:CLOSER-bg.png;
#PREVIEWVID:;
#JACKET:CLOSER-jacket.png;
#CDIMAGE:;
#DISCIMAGE:;
#LYRICSPATH:;
#CDTITLE:;
#MUSIC:CLOSER.ogg;
#OFFSET:0.000000;
#SAMPLESTART:72.632004;
#SAMPLELENGTH:15.000000;
#SELECTABLE:YES;
#BPMS:0.000=95.000;
#STOPS:;
#DELAYS:;
#WARPS:;
#TIMESIGNATURES:0.000=4=4;
#TICKCOUNTS:0.000=4;
#COMBOS:0.000=1;
#SPEEDS:0.000=1.000=0.000=0;
#SCROLLS:0.000=1.000;
#FAKES:;
#LABELS:0.000=Song Start;
#BGCHANGES:0.000=CLOSER.avi=1.000=0=0=1=====,
99999=-nosongbg-=1.000=0=0=0 // don't automatically add -songbackground-
;
#KEYSOUNDS:;
#ATTACKS:
;

//---------------dance-single - ----------------
#NOTEDATA:;
#CHARTNAME:;
#STEPSTYPE:dance-single;
#DESCRIPTION:;
#CHARTSTYLE:;
#DIFFICULTY:Beginner;
#METER:2;
#RADARVALUES:0.083528,0.116079,0.025795,0.000000,0.000000,68.000000,65.000000,3.000000,0.000000,0.000000,0.000000,0.000000,0.000000,0.000000,0.083528,0.116079,0.025795,0.000000,0.000000,68.000000,65.000000,3.000000,0.000000,0.000000,0.000000,0.000000,0.000000,0.000000;
#CREDIT:;
#NOTES:
0000
0000
0000
0000
,
0000
0000
0000
0000
,
0000
0000
0000
0000
,
0000
0000
0000
0000
,
0000
0000
0000
0000
,
1001
0000
0000
0000
,
0001
0000
0000
0000
,
1000
0000
0000
0000
,
0100
0100
0000
0000
,
1001
0000
0000
0000
,
0010
0000
0000
0000
,
1000
0000
0000
0000
,
0001
0001
0000
0000
,
0100
0000
0010
0000
,
0100
0000
0000
0000
,
0010
0000
1000
0000
,
0010
0000
0000
0000
,
0100
0000
0100
0000
,
0001
0000
0000
0000
,
0010
0000
0010
0000
,
1000
0000
0000
0000
,
0001
0000
0000
0000
,
0001
0000
0010
0000
,
0100
0000
0000
0000
,
1000
0000
0010
0000
,
0100
0000
0000
0000
,
0001
0000
1000
0000
,
0100
0000
0000
0000
,
1000
0000
0001
0000
,
0010
0010
0010
0000
,
0010
0000
0000
0000
,
0100
0100
0100
0000
,
0100
0000
0000
0000
,
1000
1000
1000
0000
,
1000
0000
0000
0000
,
0001
0001
0001
0000
,
0001
0000
0000
0000
,
1001
0000
0000
0000
,
0100
0100
0100
0000
,
0010
0000
0000
0000
,
0010
0010
0010
0000
,
1000
0000
0000
0000
,
0001
0000
1000
0000
,
0100
0000
0000
0000
,
1000
0000
0001
0000
,
0010
0000
0000
0000
;

//---------------dance-single - ----------------
#NOTEDATA:;
#CHARTNAME:;
#STEPSTYPE:dance-single;
#DESCRIPTION:;
#CHARTSTYLE:;
#DIFFICULTY:Easy;
#METER:4;
#RADARVALUES:0.148630,0.174119,0.034394,0.000000,0.000000,121.000000,117.000000,4.000000,0.000000,0.000000,0.000000,0.000000,0.000000,0.000000,0.148630,0.174119,0.034394,0.000000,0.000000,121.000000,117.000000,4.000000,0.000000,0.000000,0.000000,0.000000,0.000000,0.000000;
#CREDIT:;
#NOTES:
0000
0000
0000
0000
,
0000
0000
0000
0000
,
0000
0000
0000
0000
,
0000
0000
0000
0000
,
0000
0000
0000
0000
,
1001
0000
0000
0000
,
0001
0000
1000
1000
,
0100
0000
0000
0010
,
0010
0001
0000
0001
,
1001
0000
0000
0000
,
1000
0000
0001
0001
,
0100
0000
0010
0000
,
1000
0000
0100
0010
,
0001
0100
0010
0000
,
0001
0100
0010
0000
,
1000
0100
0010
0000
,
1000
0100
0010
0000
,
1000
0100
0001
0100
,
1000
0000
0000
0000
,
0001
0100
1000
0100
,
0001
0000
0000
0000
,
0110
0000
0000
0000
,
0001
0001
0001
0001
,
0100
0000
0000
0000
,
1000
1000
1000
1000
,
0010
0000
0000
0000
,
0010
0010
0010
0010
,
0100
0000
0000
0000
,
0100
0100
0100
0100
,
0001
0010
1000
0000
,
1000
0010
0001
0100
,
0010
0010
1000
0000
,
1000
0100
0010
0001
,
1000
0100
0001
0000
,
0001
0100
1000
0010
,
0100
0100
0001
0000
,
0001
0100
0010
1000
,
0110
0100
1000
0000
,
0100
0010
0001
0100
,
0010
0010
1000
0000
,
0010
1000
0010
0100
,
0001
0001
1000
0000
,
0001
1000
0010
0100
,
0001
0010
0100
0000
,
1000
0100
0010
0001
,
1000
0000
0000
0000
;

//---------------dance-single - ----------------
#NOTEDATA:;
#CHARTNAME:;
#STEPSTYPE:dance-single;
#DESCRIPTION:;
#CHARTSTYLE:;
#DIFFICULTY:Medium;
#METER:7;
#RADARVALUES:0.255497,0.289392,0.060189,0.000000,0.000000,208.000000,201.000000,7.000000,0.000000,0.000000,0.000000,0.000000,0.000000,0.000000,0.255497,0.289392,0.060189,0.000000,0.000000,208.000000,201.000000,7.000000,0.000000,0.000000,0.000000,0.000000,0.000000,0.000000;
#CREDIT:;
#NOTES:
0000
0000
0000
0000
,
0000
0000
0000
0000
,
0000
0000
0000
0000
,
0000
0000
0000
0000
,
0000
0000
0000
0000
,
1001
0000
0000
0000
0000
0000
1000
0100
,
1000
0000
0010
0000
0010
0000
0100
0001
,
0100
0000
0001
0000
0001
0000
0010
0100
,
0010
0000
0001
0001
0000
1000
0000
0000
,
1001
0000
0000
0000
0000
0000
0001
1000
,
0100
0010
0010
0001
,
0100
0001
0100
0000
0010
1000
0001
1000
,
0100
0000
0010
0010
0000
0000
0000
0000
,
0110
0000
0000
0000
0100
0100
1000
0000
,
0010
0000
1000
0010
0100
0001
0001
1000
,
0000
0000
0000
0100
0010
0100
0010
0000
,
0001
0001
0010
0010
0100
0100
1000
0000
,
0001
0000
1000
0000
0001
0000
0100
0100
,
0010
0000
0010
0000
0000
0010
0000
0010
,
1000
0000
0001
0000
1000
0000
0100
0100
,
0010
0000
0010
0000
0000
0100
0000
0010
,
1100
0000
0010
0000
0100
0000
1000
0010
,
0100
0010
1000
0100
0010
0000
0000
0000
,
0001
0000
0001
0000
0100
0000
0001
0100
,
0010
0100
0001
0010
0100
0000
0100
0000
,
1010
0000
0010
0000
1000
0010
0100
0000
,
0010
1000
0100
0010
0100
0000
0000
0000
,
0101
0000
0100
0000
0010
0000
0100
0001
,
0010
0100
0010
0001
1000
0000
1001
0000
,
1000
0100
0001
0100
1000
0000
0000
0000
,
1000
0010
0100
0000
0001
0000
0010
1000
,
0010
0001
0100
0000
0010
0000
0000
0000
,
1000
1000
0100
0000
0001
0001
0010
0000
,
0001
0100
1000
0100
0001
0000
0000
0000
,
0001
0010
0100
1000
,
0010
0001
0010
1000
0001
0000
0000
0000
,
1000
1000
0100
0000
0001
0001
0010
0000
,
0100
0001
0010
0001
0100
0000
0000
0000
,
0010
1000
0100
0000
0010
0000
0100
1000
,
0010
0100
0001
0000
1000
0000
0000
0000
,
0001
0001
0100
0000
1000
1000
0100
0000
,
1000
0010
0100
0001
0010
0000
0000
0000
,
0001
0010
0100
1000
0010
0000
0100
0000
,
0010
1000
0001
0010
0100
0000
0000
0000
,
1000
1000
0100
0000
0001
0001
0100
0100
;

//---------------dance-single - ----------------
#NOTEDATA:;
#CHARTNAME:;
#STEPSTYPE:dance-single;
#DESCRIPTION:;
#CHARTSTYLE:;
#DIFFICULTY:Hard;
#METER:10;
#RADARVALUES:0.362363,0.386930,0.077386,0.103181,0.116079,295.000000,286.000000,9.000000,12.000000,0.000000,1.000000,0.000000,0.000000,0.000000,0.362363,0.386930,0.077386,0.103181,0.116079,295.000000,286.000000,9.000000,12.000000,0.000000,1.000000,0.000000,0.000000,0.000000;
#CREDIT:;
#NOTES:
// measure 0
0000
0000
0000
0000
,  // measure 1
0000
0000
0000
0000
,  // measure 2
0000
0000
0000
0000
,  // measure 3
0000
0000
0000
0000
,  // measure 4
0000
0000
0000
0000
,  // measure 5
2002
0000
3003
0000
0000
0000
0001
0001
,  // measure 6
0100
0000
0000
0010
0000
1000
0000
0001
0000
1000
0000
0000
0100
0000
0100
0000
,  // measure 7
0010
0000
0000
0001
0000
0010
0000
0100
0000
0100
1000
0000
1000
0000
0001
0000
,  // measure 8
1001
0000
0010
0010
0000
0100
0100
0001
,  // measure 9
2002
0000
3003
0000
0000
0000
1000
1000
,  // measure 10
0010
0000
0000
0100
0000
0001
0000
1000
0000
1000
0100
0000
0010
0000
0000
0000
,  // measure 11
0001
0010
0001
0010
1000
0010
1000
0010
,  // measure 12
0001
0000
0100
0100
0000
0010
0010
1000
,  // measure 13
1001
0000
0000
0000
0000
0000
1000
0100
1000
0000
0001
0000
0100
0000
0000
0000
,  // measure 14
0010
0000
0010
0000
0100
0000
0100
0000
0001
0010
0001
0000
1000
0000
0100
0000
,  // measure 15
1000
0000
0000
0001
1000
1000
0100
0000
,  // measure 16
1000
0000
1000
0000
0010
1000
0100
0000
0010
0001
0100
0000
0010
0000
0100
0000
,  // measure 17
1001
0000
0000
0001
0100
0000
0000
0100
1000
0000
0000
1000
0100
0000
0100
0000
,  // measure 18
0001
0000
0001
1000
0000
1000
0000
0010
,  // measure 19
1000
0000
0000
1000
0010
0000
0000
0010
0001
0000
0000
0001
0010
0000
0010
0000
,  // measure 20
1000
0000
0100
0100
0000
0010
0000
0010
,  // measure 21
2001
0001
0010
0100
0001
0001
0010
3002
,  // measure 22
0100
0100
0010
1000
1000
0100
0100
2000
,  // measure 23
0013
0010
0001
0010
0001
0000
0100
3200
,  // measure 24
0010
1000
1000
0010
0001
0001
0010
0320
,  // measure 25
0100
0001
0001
0100
1000
1000
0100
0032
,  // measure 26
1000
1000
0100
0010
0100
0000
0010
2003
,  // measure 27
0001
0100
0010
0100
0100
0010
0001
3001
,  // measure 28
1000
1000
0001
0001
0100
0010
1000
0001
,  // measure 29
1001
0100
1000
0100
0001
0000
0010
0010
,  // measure 30
0100
1000
0010
0100
0001
0010
0001
1000
,  // measure 31
1000
0010
0001
0010
1000
0000
0001
0001
,  // measure 32
1000
0010
0100
0001
0100
0010
1000
0001
,  // measure 33
1001
0100
0001
0100
1000
0000
0010
0010
,  // measure 34
0100
0000
0000
0100
0001
0000
0000
0001
1000
0000
0000
1000
0100
0000
0100
0000
,  // measure 35
0010
0001
0010
0100
1000
0000
0100
0100
,  // measure 36
1000
1000
0001
0001
0100
0010
1000
0001
,  // measure 37
1001
0010
1000
0010
0001
0000
0010
0010
,  // measure 38
0100
1000
0001
0100
0010
1000
0010
0100
,  // measure 39
0001
0001
1000
0100
0001
0000
1000
1000
,  // measure 40
0001
1000
0100
0001
0100
1000
0010
0100
,  // measure 41
0001
0001
0010
0001
1000
0000
0100
0100
,  // measure 42
1000
0000
1000
0000
0001
0000
0001
0000
0100
0000
0000
0100
0010
0000
0000
0010
,  // measure 43
1000
0001
0010
0001
1000
0000
0001
1000
,  // measure 44
0100
1000
0010
0100
0001
0100
0010
2000
,  // measure 45
3000
0000
0000
0000
;
