#VERSION:0.83;
#TITLE:CANDY☆ (Planet Remix);
#SUBTITLE:;
#ARTIST:Luv UNLIMITED;
#TITLETRANSLIT:;
#SUBTITLETRANSLIT:;
#ARTISTTRANSLIT:;
#GENRE:;
#ORIGIN:;
#CREDIT:;
#BANNER:CANDY STAR (PLANET REMIX).png;
#BACKGROUND:CANDY STAR (PLANET REMIX)-bg (widescreen).png;
#PREVIEWVID:;
#JACKET:CANDY STAR (PLANET REMIX)-jacket.png;
#CDIMAGE:;
#DISCIMAGE:;
#LYRICSPATH:;
#CDTITLE:Dancemania.png;
#MUSIC:CANDY STAR (PLANET REMIX).ogg;
#OFFSET:0.000000;
#SAMPLESTART:32.422001;
#SAMPLELENGTH:15.000000;
#SELECTABLE:YES;
#DISPLAYBPM:200.000000;
#BPMS:0.000=199.750;
#STOPS:;
#DELAYS:;
#WARPS:;
#TIMESIGNATURES:0.000=4=4;
#TICKCOUNTS:0.000=4;
#COMBOS:0.000=1;
#SPEEDS:0.000=1.000=0.000=0;
#SCROLLS:0.000=1.000;
#FAKES:;
#LABELS:0.000=Song Start;
#BGCHANGES:;
#KEYSOUNDS:;
#ATTACKS:
;

//---------------dance-single - ----------------
#NOTEDATA:;
#CHARTNAME:;
#STEPSTYPE:dance-single;
#DESCRIPTION:;
#CHARTSTYLE:;
#DIFFICULTY:Beginner;
#METER:4;
#RADARVALUES:0.170845,0.327304,0.094415,0.000000,0.000000,152.000000,140.000000,12.000000,0.000000,0.000000,0.000000,0.000000,0.000000,0.000000,0.170845,0.327304,0.094415,0.000000,0.000000,152.000000,140.000000,12.000000,0.000000,0.000000,0.000000,0.000000,0.000000,0.000000;
#CREDIT:;
#DISPLAYBPM:200.000000;
#NOTES:
0000
0000
0000
0000
,
0000
0000
0000
0000
,
0000
0000
0000
0000
,
0000
0000
0000
0000
,
0000
0000
0000
0000
,
0100
0000
0000
0000
,
0010
0000
0000
0000
,
1000
0000
0000
0000
,
1000
0000
0000
0000
,
0001
0000
0000
0000
,
0000
0000
0000
0000
,
1001
0000
0000
0000
,
0100
0000
0000
0000
,
1001
0000
0000
0000
,
0010
0000
0000
0000
,
0110
0000
0000
0000
,
0001
0000
0000
0000
,
0110
0000
0000
0000
,
1000
0000
0100
0000
,
0010
0000
0000
0000
,
0001
0000
0000
0000
,
1000
0000
0000
0000
,
0001
0000
0000
0000
,
0100
0000
0000
0000
,
0010
0000
0000
0000
,
0010
0000
0000
0000
,
0100
0000
0000
0000
,
0010
0010
0010
0000
,
0100
0000
0000
0000
,
0010
0010
0010
0000
,
0100
0000
0000
0000
,
1000
0000
0000
0000
,
0001
0000
0000
0000
,
1000
0000
0001
0000
,
1000
0000
0001
0000
,
0100
0100
0100
0000
,
0010
0000
0000
0000
,
0100
0100
0100
0000
,
0010
0000
0000
0000
,
0001
0000
0000
0000
,
1000
0000
0000
0000
,
0001
0000
0000
0000
,
1000
0000
1000
0000
,
0010
0000
0000
0000
,
0000
0000
0000
0000
,
1001
0000
0000
0000
,
0100
0000
0000
0000
,
1001
0000
0000
0000
,
0100
0000
0000
0000
,
0110
0000
0000
0000
,
0010
0000
0000
0000
,
0110
0000
0000
0000
,
0001
0000
0010
0000
,
0100
0000
0000
0000
,
1000
0000
0000
0000
,
0001
0000
0000
0000
,
1000
0000
0000
0000
,
0010
0000
0000
0000
,
0100
0000
0000
0000
,
0010
0000
0000
0000
,
0100
0000
0000
0000
,
0001
0001
0001
0000
,
1000
0000
0000
0000
,
0001
0001
0001
0000
,
1000
0000
0000
0000
,
0010
0000
0000
0000
,
0100
0000
0000
0000
,
0010
0000
0100
0000
,
0010
0000
0100
0000
,
1000
1000
1000
0000
,
0001
0000
0000
0000
,
1000
1000
1000
0000
,
0001
0000
0000
0000
,
0100
0000
0000
0000
,
0010
0000
0000
0000
,
0100
0000
0010
0000
,
0100
0000
0010
0000
,
0010
0000
0000
0000
,
0010
0000
0000
0000
,
0010
0000
0000
0000
,
0100
0000
0000
0000
,
0100
0000
0000
0000
,
0100
0000
0000
0000
,
0001
0000
1000
0000
,
0001
0000
1000
0000
,
0001
0001
0001
0000
,
1000
0000
0000
0000
,
1000
1000
1000
0000
,
0001
0000
0000
0000
,
0100
0000
0000
0000
,
0100
0000
0000
0000
,
0010
0000
0010
0000
,
0100
0000
0100
0000
,
0010
0010
0010
0000
,
0100
0000
0000
0000
,
0100
0100
0100
0000
,
0010
0000
0000
0000
,
1000
0000
0000
0000
,
1000
0000
0000
0000
,
0001
0000
0001
0000
,
1000
0000
1000
0000
,
1001
0000
0010
0000
,
0110
0000
0100
0000
,
1001
0000
1000
0000
,
1001
0000
0000
0000
;

//---------------dance-single - ----------------
#NOTEDATA:;
#CHARTNAME:;
#STEPSTYPE:dance-single;
#DESCRIPTION:;
#CHARTSTYLE:;
#DIFFICULTY:Easy;
#METER:7;
#RADARVALUES:0.341691,0.409130,0.141622,0.125886,0.000000,304.000000,286.000000,18.000000,16.000000,0.000000,0.000000,0.000000,0.000000,0.000000,0.341691,0.409130,0.141622,0.125886,0.000000,304.000000,286.000000,18.000000,16.000000,0.000000,0.000000,0.000000,0.000000,0.000000;
#CREDIT:;
#DISPLAYBPM:200.000000;
#NOTES:
0000
0000
0000
0000
,
0000
0000
0000
0000
,
0000
0000
0000
0000
,
0000
0000
0000
0000
,
0000
0000
0000
0000
,
0010
0000
1001
0000
,
0100
0100
1001
0000
,
1000
1000
0110
0000
,
0001
0001
0110
0000
,
1002
0000
0000
0000
,
2003
0000
0000
0000
,
3010
0010
1000
0000
,
0001
0001
0010
0000
,
0100
1000
0100
0000
,
0001
0100
0001
0000
,
1000
1000
0010
0000
,
1000
1000
0001
0000
,
1000
0100
1000
0000
,
0001
0100
0001
0000
,
0010
1000
0100
0000
,
1000
0010
1000
0000
,
0100
0001
0010
0000
,
0001
0010
0001
0000
,
0010
0001
1000
0000
,
1000
1000
0100
0000
,
0100
1000
0001
0000
,
0001
0001
0010
0000
,
0101
0100
0010
0100
,
0001
0100
0010
0000
,
1100
0100
0010
0100
,
1000
0100
0010
0000
,
0002
0000
0013
0000
,
2000
0000
3010
0000
,
0100
0010
1000
0100
,
0010
0001
0010
0000
,
1100
0100
1000
0100
,
1000
0010
0100
0000
,
0101
0100
0001
0100
,
0001
0010
0100
0000
,
2000
0000
3010
0000
,
0002
0000
0013
0000
,
0100
1000
0001
0100
,
0001
1000
0010
0000
,
2000
0000
0000
0000
,
3002
0000
0000
0000
,
1003
1000
1000
0000
,
0100
1000
0100
0000
,
0001
0001
0001
0000
,
0010
0001
0010
0000
,
0100
0100
0100
0000
,
0010
0100
1000
0000
,
0010
0010
0010
0000
,
0100
0010
0001
0000
,
0100
0001
1000
0000
,
0000
0001
0100
0000
,
0010
1000
0001
0000
,
0000
1000
0010
0000
,
0100
0010
1000
0000
,
0000
0001
1000
0000
,
0010
0100
0001
0000
,
0000
0100
0001
0000
,
0110
0100
0001
1000
,
0001
1000
0100
0000
,
0110
0010
1000
0001
,
0100
0001
1000
0000
,
0020
0000
1030
0000
,
0200
0000
0301
0000
,
0100
0001
0010
0100
,
1000
0100
0010
0000
,
1001
0001
0100
0010
,
0100
0010
1000
0000
,
1001
1000
0010
0100
,
0010
0100
0001
0000
,
0200
0000
1300
0000
,
0020
0000
0031
0000
,
0001
0010
0100
1000
,
0100
0010
0001
0000
,
1000
0000
1000
0000
,
0010
0100
0010
0000
,
0100
0000
0100
0000
,
0001
0100
0001
0000
,
0001
0000
0001
0000
,
1000
0001
1000
0000
,
0100
0000
0100
0000
,
1000
0001
1000
0000
,
0011
0001
1000
0010
,
1000
0001
0100
0000
,
1100
1000
0001
0010
,
0001
1000
0010
0000
,
0200
0000
0310
0000
,
2000
0000
3001
0000
,
1000
0010
0100
0001
,
0100
0010
1000
0000
,
1001
1000
0010
1000
,
0100
1000
0001
0000
,
1001
0001
0010
0001
,
0100
0001
1000
0000
,
0002
0000
1003
0000
,
0020
0000
0130
0000
,
1000
0010
0100
0001
,
0100
0010
1000
0000
,
0001
0000
0001
0000
,
1000
0000
1000
0000
,
0010
0100
0001
1000
,
1001
0000
0000
0000
;

//---------------dance-single - ----------------
#NOTEDATA:;
#CHARTNAME:;
#STEPSTYPE:dance-single;
#DESCRIPTION:;
#CHARTSTYLE:;
#DIFFICULTY:Medium;
#METER:11;
#RADARVALUES:0.483313,0.572782,0.251772,0.180961,0.000000,430.000000,398.000000,32.000000,23.000000,0.000000,0.000000,0.000000,0.000000,0.000000,0.483313,0.572782,0.251772,0.180961,0.000000,430.000000,398.000000,32.000000,23.000000,0.000000,0.000000,0.000000,0.000000,0.000000;
#CREDIT:;
#DISPLAYBPM:200.000000;
#NOTES:
0000
0000
0000
0000
,
0000
0000
0000
0000
,
0000
0000
0000
0000
,
0000
0000
0000
0000
,
0000
0000
0000
0000
,
0011
0000
0100
0000
1000
0000
0001
0100
,
0000
0100
0000
0010
1000
0000
0001
0000
,
1000
0000
1000
0000
0010
0100
0010
0000
,
1000
0001
0010
0100
0000
0000
0010
0000
,
0021
0000
0000
0001
,
2030
0000
0000
3010
,
0100
0000
0100
0000
0010
0000
1000
0010
,
0000
0100
0010
0000
1000
0000
0000
0000
,
0001
0000
0001
0000
0010
0000
0100
0010
,
0000
0001
0100
0000
0010
0000
0010
0000
,
1000
0000
1000
0000
0100
0000
0010
0100
,
0000
1000
0010
0000
0100
0000
0000
0000
,
0001
0000
0001
0000
0100
0000
0010
0100
,
0000
0001
0010
0100
0000
1000
0001
0100
,
0010
0000
0010
0000
0100
0000
0010
1000
,
0000
0100
0010
0000
0001
0000
0001
0000
,
0100
0000
0100
0000
0010
0000
0100
0010
,
0000
1000
0100
0000
0010
0000
0010
0000
,
0001
0000
0001
0000
1000
0000
0001
0100
,
0000
0010
1000
0000
0001
0000
0001
0000
,
1000
0000
1000
0000
0100
0000
0100
0010
,
0000
0010
0001
1000
0000
0000
0001
0000
,
1001
0000
1001
0000
0100
0000
0000
0010
,
0000
0010
1000
0000
0001
0000
0000
0000
,
1001
0000
1001
0000
0100
0000
0000
0010
,
0000
1000
0010
0000
0100
0000
0001
1000
,
0200
0000
0000
1000
2000
0000
3300
0000
,
0010
1000
0001
0100
,
0001
0000
0001
0000
1000
0000
1000
0100
,
0000
0100
0010
0001
0010
0100
1000
0000
,
1001
0000
1001
0000
0010
0000
0000
0100
,
0000
0100
0001
0000
1000
0000
0000
0000
,
1001
0000
1001
0000
0010
0000
0000
0100
,
0000
0001
0100
0000
0010
0000
1000
0100
,
0020
0000
0000
0001
0002
0000
0033
0000
,
0010
0100
1000
0001
,
1000
0000
1000
0000
0010
0000
0010
0100
,
0000
0100
0001
0100
0010
1000
0001
0000
,
1200
0000
0000
1000
,
0302
0000
0000
0103
,
0010
0000
0010
0000
1000
0000
0000
0010
,
0000
1000
0010
0000
0100
0000
0000
0000
,
0001
0000
0001
0000
0100
0000
0000
0010
,
0000
0100
0001
0000
1000
0000
1000
0000
,
0100
0000
0100
0000
0010
0000
0000
0100
,
0000
0100
1000
0000
0010
0000
0100
0000
,
0001
0000
0001
0000
0010
0000
0000
0100
,
0000
0010
0001
0100
0000
0100
0010
0000
,
1000
0000
1000
0000
0010
0000
0000
0100
,
0000
0010
1000
0000
0001
0000
0100
0000
,
0001
0000
0001
0000
0010
0000
0000
0100
,
0000
0010
0001
0000
1000
0000
1000
0000
,
0001
0000
0001
0000
0100
0000
0000
0010
,
0000
1000
0001
0000
0010
0000
0010
0000
,
0100
0000
1000
0000
0001
0000
1000
0001
,
0000
0100
0010
0100
0000
0000
0010
0000
,
1001
0000
0110
0000
0010
0000
0000
0100
,
0000
0001
1000
0000
0100
0000
0000
0000
,
1001
0000
0110
0000
0010
0000
0000
0100
,
0000
1000
0001
0000
0100
0000
0010
1000
,
0002
0000
0000
0010
0020
0000
0033
0000
,
0100
0010
0001
1000
,
0010
0000
0010
0000
1000
0000
0001
0100
,
0000
0010
1000
0000
0001
0000
0001
0000
,
1001
0000
0110
0000
0010
0000
0000
0100
,
0000
1000
0010
0000
0100
0000
0000
0000
,
1001
0000
0110
0000
0010
0000
0000
0100
,
0000
0001
0010
0000
0100
0000
0010
0001
,
2000
0000
0000
0100
0200
0000
3300
0000
,
0010
0100
1000
0001
,
1000
0000
1000
0000
0010
0000
0100
0001
,
0000
0001
1000
0000
0010
0000
0100
0000
,
2001
0000
0000
0010
0000
0000
0100
0000
,
0000
0010
0000
0000
0001
0000
0001
0000
,
3002
0000
0000
0100
0000
0000
1000
0000
,
0000
0010
0000
0000
1000
0000
1000
0000
,
0023
0000
0000
0100
0000
0000
0001
0000
,
0000
0100
0000
0000
0001
0000
0001
0000
,
0230
0000
0000
0010
0000
0000
1000
0000
,
0000
0001
0000
0000
1000
0000
1300
0000
,
1010
0000
0101
0000
1001
0000
0000
0100
,
0000
1000
0001
0000
0100
0000
0000
0000
,
0011
0000
1100
0000
1001
0000
0000
0010
,
0000
0001
1000
0000
0010
0000
1000
0010
,
0200
0000
0000
0001
0002
0000
0303
0000
,
0100
0010
1000
0001
,
1000
0000
0100
0000
0010
0000
0100
0010
,
0000
0001
1000
0000
0010
0000
0100
0000
,
0011
0000
1100
0000
1001
0000
0000
0100
,
0000
0010
0001
0000
0100
0000
0000
0000
,
1010
0000
0101
0000
1001
0000
0000
0100
,
0000
0010
1000
0000
0001
0000
1000
0001
,
0020
0000
0000
0100
0200
0000
0330
0000
,
0010
0100
1000
0001
,
1000
0000
1000
0000
0010
0000
0100
0001
,
0000
0001
1000
0000
0010
0000
0100
0000
,
0002
0000
0000
0010
0000
0000
0013
0100
,
2000
0000
0000
0010
0000
0000
3010
0100
,
0002
0000
0000
1000
0000
0100
0013
1000
,
0001
0000
0000
0000
;

//---------------dance-single - ----------------
#NOTEDATA:;
#CHARTNAME:;
#STEPSTYPE:dance-single;
#DESCRIPTION:;
#CHARTSTYLE:;
#DIFFICULTY:Hard;
#METER:14;
#RADARVALUES:0.644042,0.736434,0.283244,0.566488,0.000000,573.000000,537.000000,36.000000,72.000000,0.000000,0.000000,0.000000,0.000000,0.000000,0.644042,0.736434,0.283244,0.566488,0.000000,573.000000,537.000000,36.000000,72.000000,0.000000,0.000000,0.000000,0.000000,0.000000;
#CREDIT:;
#DISPLAYBPM:200.000000;
#NOTES:
// measure 0
0000
0000
0000
0000
,  // measure 1
0000
0000
0000
0000
,  // measure 2
0000
0000
0000
0000
,  // measure 3
0000
0000
0000
0000
,  // measure 4
0000
0000
0000
0000
,  // measure 5
0110
0000
1001
0000
0010
0100
1000
0001
,  // measure 6
0000
0100
0000
0010
1000
0010
1000
0001
,  // measure 7
0010
0100
1000
0000
0100
0010
0001
1000
,  // measure 8
0001
0100
0010
1000
0000
1000
0001
0000
,  // measure 9
2002
0000
0003
0010
,  // measure 10
3020
0000
0000
0100
,  // measure 11
0130
0000
0001
0000
0100
0001
0100
0010
,  // measure 12
0000
1000
1000
0000
0001
0010
0001
0000
,  // measure 13
0100
0000
0001
0000
1000
0010
1000
0001
,  // measure 14
0000
0010
0010
0000
1000
0010
0001
0000
,  // measure 15
0100
0000
0001
0000
0010
0100
1000
0001
,  // measure 16
0000
0100
0100
0000
1000
0100
0001
0000
,  // measure 17
0100
0000
0001
0000
1000
0100
0001
0010
,  // measure 18
0000
0001
0100
1000
0001
0100
1000
0100
,  // measure 19
1001
0000
0100
0000
1000
0010
0100
0001
,  // measure 20
0000
0001
0010
0000
0100
0100
1000
0000
,  // measure 21
1001
0000
0100
0000
0010
0100
0001
1000
,  // measure 22
0000
1000
0100
0000
0010
0010
0001
0000
,  // measure 23
1001
0000
0100
0000
0010
0001
0010
1000
,  // measure 24
0000
1000
0100
0000
0001
0001
1000
0000
,  // measure 25
1001
0000
0100
0000
0001
0100
1000
0100
,  // measure 26
0000
0100
0002
2000
0000
0000
3003
0000
,  // measure 27
1000
0000
0210
0000
0301
0000
1000
0100
,  // measure 28
0000
0002
0010
0000
0103
0100
1000
0000
,  // measure 29
0001
0000
0210
0000
2300
0000
3001
0100
,  // measure 30
0000
2000
0010
0000
3100
0100
0001
1000
,  // measure 31
0200
0000
0300
0100
0200
0000
0300
0000
,  // measure 32
0020
0001
0032
1000
2003
0010
3010
0000
,  // measure 33
0200
0000
0302
0000
1003
0010
1000
0010
,  // measure 34
0000
0001
0010
1000
0100
0001
0100
0000
,  // measure 35
0001
0000
0120
0000
1030
0000
0001
0010
,  // measure 36
0000
2000
0100
0000
3010
0010
0001
0000
,  // measure 37
1000
0000
0210
0000
0301
0000
1000
0010
,  // measure 38
0000
0002
0100
0000
0013
0010
1000
0001
,  // measure 39
0020
0000
0030
0010
0010
0000
0000
0000
,  // measure 40
0200
1000
2300
0001
3002
0100
0103
0000
,  // measure 41
0020
0000
2030
0000
3001
0100
0001
0100
,  // measure 42
0000
1000
0100
0001
0010
1000
0010
0000
,  // measure 43
2002
0000
3000
0100
,  // measure 44
0200
0000
0003
0010
,  // measure 45
0320
0000
1000
0000
0100
0000
1000
1000
,  // measure 46
0000
0100
0100
0000
1000
0000
0100
0000
,  // measure 47
2030
0000
0001
0000
0100
0000
0001
0001
,  // measure 48
0000
0010
0010
0000
0001
0000
0100
0000
,  // measure 49
3002
0000
1000
0000
0010
0000
0100
0100
,  // measure 50
0000
1000
1000
0000
0010
0000
1000
0000
,  // measure 51
0203
0000
0010
0000
1000
0000
0010
0010
,  // measure 52
0000
0001
0001
0001
0000
0010
0310
0100
,  // measure 53
0001
0000
0010
0000
0100
1000
0100
1000
,  // measure 54
0000
0010
0001
0010
1000
0010
1000
0000
,  // measure 55
1000
0000
0100
0000
0010
0001
0010
0001
,  // measure 56
0000
0100
1000
0100
0001
0100
0001
0000
,  // measure 57
0010
0000
0100
0000
0001
0100
1000
0010
,  // measure 58
0000
0001
0010
1000
0100
0010
0001
0000
,  // measure 59
0100
0000
0010
0000
1000
0010
0001
0010
,  // measure 60
1000
0100
0001
0002
0000
0000
0103
0000
,  // measure 61
1020
0000
0230
0000
0302
0000
1003
0010
,  // measure 62
0000
0001
0100
0000
1000
1000
0001
0000
,  // measure 63
0021
0000
0230
0000
2300
0000
3001
0010
,  // measure 64
0000
1000
0100
0000
1000
0010
0100
0001
,  // measure 65
2000
0000
0000
0100
0200
0000
3300
0000
,  // measure 66
0010
0001
0002
0100
0203
0320
1030
0000
,  // measure 67
0001
0000
0001
0000
0010
0001
0010
0100
,  // measure 68
0000
1000
0010
0001
0100
1000
0010
0000
,  // measure 69
1200
0000
0320
0000
0032
0000
1003
0100
,  // measure 70
0000
0001
0010
0000
1000
1000
0001
0000
,  // measure 71
0201
0000
0320
0000
2030
0000
3001
0100
,  // measure 72
0000
1000
0010
0000
1000
0010
0100
0001
,  // measure 73
2000
0000
0000
0010
0020
0000
3030
0000
,  // measure 74
0200
0001
0302
0010
0023
0230
1300
0000
,  // measure 75
0001
0000
0001
0000
0100
0001
0010
1000
,  // measure 76
0010
0001
0100
0001
0010
1000
0001
0000
,  // measure 77
1001
0000
1000
0100
0000
0010
0100
0000
,  // measure 78
1000
0010
0000
0100
0010
0000
1000
0000
,  // measure 79
2000
0010
3200
0010
1300
0000
0200
0010
,  // measure 80
2300
0010
3100
0000
1000
1000
0010
0000
,  // measure 81
1001
0000
0001
0100
0000
0001
0010
0000
,  // measure 82
0100
0010
0000
0001
0100
0000
0010
0000
,  // measure 83
0200
0001
0320
0100
0031
0000
0200
0010
,  // measure 84
0302
0100
0013
0001
0020
0100
0031
0001
,  // measure 85
1001
0000
1010
0000
0011
0000
0101
0001
,  // measure 86
0100
0010
1000
0000
0001
0001
0010
0000
,  // measure 87
1100
0000
0101
0000
1010
0000
0011
0001
,  // measure 88
1000
0010
1000
0000
0010
1000
0100
0100
,  // measure 89
2002
0000
3000
0010
0020
0000
0033
0000
,  // measure 90
0100
1000
0001
0010
,  // measure 91
0001
0001
0010
0000
0100
0100
1000
0010
,  // measure 92
0000
0001
0010
1000
0100
0001
0100
0000
,  // measure 93
1100
0000
0101
0000
1010
0000
0011
0001
,  // measure 94
1000
0010
0100
0000
0001
1000
1000
0000
,  // measure 95
0011
0000
1100
0000
0101
0000
1100
0010
,  // measure 96
0001
1000
0010
0000
1000
0010
0100
0001
,  // measure 97
2000
0000
0000
0100
0200
0000
3300
0000
,  // measure 98
0010
0001
1000
0100
,  // measure 99
1000
1000
0010
0000
0100
0001
0010
1000
,  // measure 100
0000
0001
0100
1000
0010
0001
0010
1000
,  // measure 101
0001
0100
1000
0100
0001
0100
1000
0000
,  // measure 102
1000
0010
0001
0010
1000
0010
0001
0000
,  // measure 103
1000
0100
0001
0100
1000
0010
0001
0010
,  // measure 104
1001
0000
0000
0000
;
