#TITLE:Burning Inside;
#SUBTITLE:;
#ARTIST:Nhato;
#TITLETRANSLIT:;
#SUBTITLETRANSLIT:;
#ARTISTTRANSLIT:;
#GENRE:;
#CREDIT:;
#MUSIC:Burning Inside.ogg;
#BANNER:Burning Inside.png;
#BACKGROUND:Burning Inside-bg.png;
#CDTITLE:;
#SAMPLESTART:82.212;
#SAMPLELENGTH:15.000;
#SELECTABLE:YES;
#OFFSET:0.000;
#BPMS:0.000=143.000;
#STOPS:;
#BGCHANGES:;
#FGCHANGES:;

//--------------- dance-single - ----------------
#NOTES:
     dance-single:
     :
     Beginner:
     4:
     0,0,0,0,0:
0000
0000
0000
0000
,
0000
0000
0000
0000
,
0000
0000
0000
0000
,
0000
0000
0000
0000
,
0000
0000
0000
0000
,
1001
0000
0000
0000
,
1001
0000
0000
0000
,
0110
0000
0000
0000
,
0110
0000
0000
0000
,
0010
0000
0000
0000
,
0100
0000
0010
0000
,
0110
0000
0010
0000
,
0001
0000
0000
0000
,
0110
0000
0010
0000
,
1000
0000
0000
0000
,
0110
0000
1000
0000
,
0001
0000
0000
0000
,
0000
0001
0001
0000
,
1001
0000
0000
0000
,
0000
1000
1000
0000
,
1001
0000
0000
0000
,
0000
0100
0100
0000
,
1001
0000
0000
0000
,
0000
0010
0010
0000
,
1001
0000
0000
0000
,
0002
0000
0000
0000
,
0003
0000
0001
0000
,
2000
0000
0000
0000
,
3000
0000
1000
0000
,
0020
0000
0000
0000
,
0030
0000
0010
0000
,
0200
0000
0000
0000
,
0300
0000
0100
0000
,
0002
0000
0000
0000
,
0003
0000
1000
1000
,
2000
0000
0000
0000
,
3000
0000
0010
0010
,
0020
0000
0000
0000
,
0030
0000
0100
0100
,
0200
0000
0000
0000
,
0300
0000
0010
0000
,
0010
0000
0000
0000
,
0100
0000
0000
0000
,
0020
0000
0030
0000
,
0200
0000
0300
0000
,
1001
0000
0000
0000
,
1001
0000
0000
0000
,
1001
0000
1001
0000
,
1001
1001
2002
3003
,
1001
0000
0000
0000
,
1000
0000
0001
0000
,
1000
0000
0000
0000
,
0001
0000
1000
0000
,
0010
0000
0000
0000
,
0010
0000
0100
0000
,
0010
0000
0000
0000
,
0100
0000
0010
0000
,
0100
0000
0000
0000
,
0010
0000
1000
0000
,
0010
0000
0000
0000
,
0100
0000
0001
0000
,
0100
0000
0000
0000
,
0001
0000
1000
0000
,
0100
0000
0000
0000
,
1000
0000
0001
0000
,
0010
0000
0010
0000
,
0010
0000
0010
0000
,
0100
0000
0100
0000
,
0100
0100
0100
0200
,
0300
0000
0000
0000
;

//--------------- dance-single - ----------------
#NOTES:
     dance-single:
     :
     Easy:
     7:
     0,0,0,0,0:
0000
0000
0000
0000
,
0000
0000
0000
0000
,
0000
0000
0000
0000
,
0000
0000
0000
0000
,
0000
0000
0000
0000
,
1001
1000
0100
0000
,
1001
0001
0100
0000
,
1001
1000
0010
0000
,
1001
0001
0010
0100
,
2000
3000
0002
0003
,
2000
3000
0010
0100
,
1001
0100
0001
0100
,
1000
0100
0001
0001
,
1000
0010
0001
0010
,
1000
0010
0001
0001
,
1000
0100
0001
0010
,
0100
1000
0100
0010
,
0001
1000
1001
0100
,
0002
0010
1000
0103
,
1000
0100
1001
0010
,
2000
0010
0001
3100
,
0001
1000
0101
0100
,
0010
1000
1100
0100
,
0010
0001
1001
1000
,
0010
1000
0100
0010
,
0002
1000
1000
0013
,
0200
1000
0010
1300
,
2000
0001
0100
3001
,
0200
0010
0001
0310
,
0002
1000
0010
0103
,
0020
1000
0100
0130
,
0200
0010
0001
0301
,
2000
0100
0010
0001
,
3002
0000
1003
1000
,
2000
0000
3010
0010
,
0020
0000
0130
0100
,
0200
0000
0301
0100
,
0020
0000
1030
0100
,
2000
0000
3010
1000
,
0001
0010
0002
0000
,
0013
0001
1000
0100
,
0020
0000
0100
0100
,
0100
0000
0200
0330
,
0110
0000
0100
0010
,
0000
0010
0001
1000
,
0010
0000
0100
0000
,
0010
0100
0010
0100
,
0010
0010
0100
0100
,
0001
0000
1000
0100
,
1001
0000
1000
0100
,
0010
0001
0010
0100
,
1001
0000
0001
1000
,
0010
1000
0001
0010
,
0110
0000
0100
1000
,
0010
0000
0100
0001
,
0010
0010
0001
1000
,
0010
0010
1000
0100
,
1001
0000
1000
0010
,
0100
0001
1000
0100
,
0011
0000
0100
1000
,
0001
0100
0010
1000
,
1001
0000
1000
0010
,
0100
0000
0001
0100
,
0010
0010
1000
0010
,
0100
0001
1000
0100
,
0010
0010
0100
0100
,
1000
1000
0001
0001
,
1000
0001
1000
0001
,
2000
3020
0230
0302
,
0003
0000
0000
0000
;

//--------------- dance-single - ----------------
#NOTES:
     dance-single:
     :
     Medium:
     10:
     0,0,0,0,0:
0000
0000
0000
0000
,
0000
0000
0000
0000
,
0000
0000
0000
0000
,
0000
0000
0000
0000
,
0000
0000
0000
0000
,
1001
1000
0100
0000
0010
0000
0100
0000
,
0011
0001
0100
0000
0010
0000
1000
0000
,
0110
0001
1000
0000
0100
0000
0010
0000
,
0001
0010
0001
0010
0100
1000
0100
1000
,
0002
0000
1003
0100
0020
0000
0130
1000
,
0002
0000
1003
0010
0100
0100
0001
1000
,
2002
0003
3010
1000
0002
0000
0013
0100
,
2000
0000
3100
1000
0010
1000
0010
0100
,
0002
0000
0013
0010
2000
0000
3010
0010
,
0002
0000
0103
0100
1000
0100
0001
0100
,
2000
0000
3001
0100
2000
0000
3001
0010
,
2000
0000
3001
0001
1000
0100
0010
0001
,
1001
1000
0010
0000
0110
0000
0001
0010
,
0200
0000
0310
0100
1000
0010
0100
0001
,
0100
0010
1000
0001
0020
0000
0031
1000
,
0200
0000
1300
0100
1000
0001
0100
0010
,
0100
0100
0010
0000
1001
0000
1000
0010
,
0101
0001
0010
0000
1100
0000
0100
1000
,
0010
1000
0001
0000
1002
0000
0100
0103
,
0020
0000
1000
0000
1000
0000
0100
0130
,
0001
0010
0100
0010
0002
0000
1003
0100
,
0010
0100
2000
0000
3001
1000
0010
1000
,
0001
0100
0010
1000
0200
0000
0310
0001
,
1000
0010
0200
0000
0301
0001
1000
1000
,
0100
1000
0010
0100
0002
0000
1003
0001
,
0100
0010
2000
0000
3010
1000
0100
0010
,
0001
0001
1000
1000
0200
0000
1300
0010
,
0200
0000
0301
0100
0010
0010
1000
0001
,
2002
0000
3003
0000
0001
0001
1000
1000
,
0000
0100
0000
0000
0010
0100
0010
0100
,
0020
0000
0000
0000
0130
0010
0001
1000
,
0000
2000
0000
3001
1000
0010
0100
0000
,
0002
0000
0000
0000
0013
0001
1000
0010
,
0000
0100
0000
0000
0100
0010
1000
0010
,
0100
0001
0010
0000
0001
1000
0001
1000
,
0000
0200
0000
1300
0010
0100
0001
1000
,
2002
0000
3000
0000
0100
0100
0010
0010
,
0000
0023
0000
0000
0031
0010
0100
1000
,
2002
0000
0003
0000
0001
0001
0100
0100
,
0000
0010
0000
3010
1000
0010
0100
0001
,
1000
1000
0001
0001
,
1000
0001
1000
0001
1000
0001
1000
0001
,
1000
0010
0100
0001
0100
0010
1000
0001
,
0000
0010
0000
0010
0100
0000
0010
0100
,
0110
0000
0110
0000
0001
0010
0100
1000
,
0000
0001
0000
0001
1000
0100
0010
0001
,
0110
0000
1010
0000
0001
0100
0010
1000
,
0000
0001
0000
1000
0001
0010
0100
1000
,
0101
0000
1100
0000
0010
0100
0001
0100
,
0000
0010
0000
1000
0001
0001
1000
1000
,
0100
0010
0100
0000
0010
0001
1000
0010
,
0000
0010
0000
0100
0001
0100
0010
1000
,
1001
0000
1001
0000
1000
0100
0001
0100
,
0000
0100
0000
1000
0001
0010
0100
1000
,
0101
0000
1010
0000
0010
0100
0001
1000
,
0000
0001
0000
1000
0100
0100
0010
0100
,
0011
0000
1100
0000
0100
1000
0010
0100
,
0000
0001
0000
0001
0100
0010
1000
0001
,
1000
1000
0100
0000
1000
0010
0100
0001
,
0000
1000
0000
0001
0100
0010
1000
0000
,
0001
0010
0002
0000
1003
0010
2000
0000
,
3010
0100
0002
0000
0103
0010
2000
0000
,
3001
0001
1000
1000
0001
0001
1000
1000
,
0001
0100
0010
1000
0100
0010
0002
2000
,
3003
0000
0000
0000
;

//--------------- dance-single - ----------------
#NOTES:
     dance-single:
     :
     Hard:
     14:
     0,0,0,0,0:
0000
0000
0000
0000
,
0000
0000
0000
0000
,
0000
0000
0000
0000
,
0000
0000
0000
0000
,
0000
0000
0000
0000
,
0001
1000
0100
0000
0110
0000
0010
0001
,
1000
0010
0100
0000
0110
0000
0100
0001
,
0100
0010
1000
0000
1010
0000
0001
0010
,
1000
0010
0001
0100
0010
1000
0010
0100
,
0001
0000
0000
1000
0010
0100
0001
0000
1000
0000
0000
0001
0010
0100
1000
0000
,
0001
0000
0000
1000
0010
0100
0001
0000
0100
0000
0100
0000
0010
0000
0100
0000
,
1001
0000
0000
0010
0100
0001
0010
0000
0100
0000
0000
1000
0100
0010
0001
0000
,
1000
0000
0000
0010
0100
1000
0100
0000
0001
0000
0001
0000
1000
0000
0100
0000
,
0110
0000
0000
0100
1000
0010
0100
0000
0001
0000
0000
0100
0010
1000
0010
0000
,
1000
0000
0000
0100
0010
1000
0010
0000
0001
0000
0001
0000
1000
0000
1000
0000
,
0101
0000
0000
0001
0010
0100
0010
0000
0001
0000
0000
0100
0010
0100
0001
0000
,
1000
0000
0000
1000
0000
0000
1000
0000
0001
0000
0001
0000
0100
0000
0010
1000
,
0001
0000
0010
0000
0220
0000
0330
0000
1001
0000
1000
0000
0010
0000
0100
0001
,
0100
0000
0001
0000
0010
0000
0100
0010
0001
0000
0000
0011
0000
0000
1100
0000
,
0001
0000
1000
0010
0100
0000
0001
0000
1000
0000
0001
0000
0100
0000
0010
0000
,
1000
0000
0010
1000
0100
0000
0010
0000
0001
0000
0000
0101
0000
0000
1100
0000
,
0010
0000
0100
0001
1000
0000
0100
0000
0010
0000
0001
0000
0010
0000
1000
0000
,
0010
0000
0001
0100
0010
0000
1000
0000
0010
0000
0100
0000
0001
0000
1000
0100
,
0010
0000
0001
0000
0100
0000
0010
0000
1000
0000
1000
0000
0001
0000
0001
0010
,
0100
0000
0100
0000
0010
0000
0010
0000
0001
0010
0001
0000
1000
0010
1000
0010
,
0100
0001
0100
0010
2000
0000
3001
0010
,
0100
0000
1000
0000
0200
0000
0000
0000
0310
0000
0001
1000
0001
0000
1000
0000
,
0010
0100
0001
0100
0002
0000
1003
0010
,
1000
0100
2000
0000
3002
0203
0320
2030
,
3001
0010
0001
0100
0020
0000
0130
0001
,
0010
0000
0100
0000
2000
0000
0000
0000
3010
0000
1000
0001
1000
0000
0100
0000
,
0010
0000
0001
0000
0100
0000
0001
0000
2000
0000
0000
0000
3001
0000
1000
0010
,
1000
0000
0000
0001
0100
0000
0100
0000
0010
0000
0010
0000
1000
0000
1000
0000
,
0220
0000
0030
0000
0010
0010
1000
1000
,
0000
0000
2300
0000
0000
0000
0000
0000
3001
0000
0001
0100
0001
0000
0100
0000
,
0020
0000
0000
0000
1000
1000
0100
0100
,
0000
0000
2030
0000
0000
0000
0100
0000
3100
0000
0100
0010
0001
0000
1000
0000
,
2002
0000
3000
0000
0010
0010
1000
1000
,
0000
0000
0203
0000
0000
0000
0000
0000
0310
0000
1000
0010
0100
0000
0001
0000
,
0100
0010
1000
0000
0001
0000
0000
0000
0010
0000
0010
0000
0100
0000
0100
0000
,
0000
0000
0110
0000
0000
0000
0100
0000
1000
0001
1000
0001
0100
0000
0010
0000
,
1000
0000
0000
0000
0100
0100
0100
1000
,
0000
0000
0001
0000
0000
0000
0000
0000
1000
0000
0010
0100
0001
0000
1000
0000
,
2002
0000
3003
0000
0002
2003
3020
0230
,
0000
0000
0010
0000
0000
0000
0310
0000
0100
0000
0010
1000
0010
0000
1000
0000
,
0011
0011
1100
1100
,
0001
0100
0010
1000
0010
0100
0001
1000
,
0001
0010
0001
0010
0100
1000
0100
1000
0001
0100
0001
0100
0010
1000
0010
1000
,
0001
0000
0010
0000
0000
0000
0010
0100
0010
0000
0000
0000
0100
0000
1000
0000
,
1001
0001
1001
0000
1010
0100
0001
1000
,
0100
0000
0010
0000
0001
0000
0000
0000
1010
0000
0100
0010
0100
0000
0001
0000
,
0011
0001
0101
0000
1010
0001
1000
0100
,
0010
0000
0010
0000
0001
0000
1000
0000
0010
0000
0100
0001
1000
0000
0100
0000
,
0110
0100
1100
0000
0101
0010
1000
0001
,
0010
0000
0001
0000
0100
0000
0000
0000
1010
0000
1000
0001
1000
0000
0100
0000
,
0010
0001
1000
0000
0010
0000
0000
0000
0110
0000
0100
0000
0001
0000
0100
0000
,
1000
0000
0100
0000
0010
0000
1000
0000
0001
0010
0100
1000
0001
0000
1000
0000
,
1010
0100
0011
0000
1100
0001
0100
0010
,
1000
0000
0010
0000
0100
0000
0000
0000
1001
0000
0100
1000
0010
0000
0100
0000
,
0011
0001
1010
0000
1100
0100
0001
0100
,
1000
0000
0010
0000
0100
0000
0001
0000
0100
0000
0010
1000
0010
0000
1000
0000
,
0011
0001
1001
0000
1010
0001
0010
1000
,
0010
0000
0001
0000
0100
0000
0000
0000
1001
0000
0100
0010
1000
0000
0001
0000
,
1000
0010
0100
0000
0001
0000
0000
0000
0110
0000
0100
0000
1000
0000
0010
0000
,
0100
0000
0001
0000
0010
0000
0100
0000
0010
0001
0010
0001
1000
0000
0001
0000
,
1000
0010
1000
0010
0100
0000
0001
0000
0010
0100
0010
0100
1000
0000
0001
0000
,
0100
0001
0100
0010
1000
0000
0001
0000
1000
0010
0100
0001
0100
0000
0001
0000
,
0010
0100
0010
0000
0001
1000
0001
0000
0100
0001
0100
0000
0010
1000
0010
0000
,
1000
0100
0010
0001
1000
0100
0010
0001
1000
0010
0100
0001
1000
0010
0100
0001
,
1000
0000
0000
0000
;
