#TITLE:Body featuring JD Braithwaite [I.C.B Club Vocal Mix];
#SUBTITLE:;
#ARTIST:Tomoki Hirata;
#TITLETRANSLIT:;
#SUBTITLETRANSLIT:;
#ARTISTTRANSLIT:;
#GENRE:;
#CREDIT:;
#BANNER:Body featuring JD Braithwaite [I.C.B Club Vocal Mix].png;
#BACKGROUND:Body featuring JD Braithwaite [I.C.B Club Vocal Mix]-bg.png;
#LYRICSPATH:;
#CDTITLE:;
#MUSIC:Body featuring JD Braithwaite [I.C.B Club Vocal Mix].ogg;
#OFFSET:0.000000;
#SAMPLESTART:30.443001;
#SAMPLELENGTH:15.000000;
#SELECTABLE:YES;
#BPMS:0.000000=133.858994
;
#STOPS:
;
#BGCHANGES:;
#KEYSOUNDS:;
#ATTACKS:;

//---------------dance-single - ----------------
#NOTES:
     dance-single:
     :
     Beginner:
     4:
     0.151102,0.242235,0.273872,0.000000,0.000000,112.000000,83.000000,29.000000,0.000000,0.000000,0.000000,0.151102,0.242235,0.273872,0.000000,0.000000,112.000000,83.000000,29.000000,0.000000,0.000000,0.000000:
0000
0000
0000
0000
,
0000
0000
0000
0000
,
0000
0000
0000
0000
,
0000
0000
0000
0000
,
0000
0000
0000
0000
,
0001
0000
1000
0000
,
0001
0000
0100
0000
,
0010
0010
0010
0000
,
0100
0100
0100
0000
,
0001
0000
0001
0000
,
0001
0000
0000
0000
,
1000
0000
1000
0000
,
1000
0000
0000
0000
,
0010
0000
1000
0000
,
0100
0000
0000
0000
,
0010
0000
0001
0000
,
0100
0000
0000
0000
,
0110
0000
1001
0000
,
0110
0000
0000
0000
,
1000
0000
1000
0000
,
1000
0000
0000
0000
,
0110
0000
1001
0000
,
0110
0000
0000
0000
,
0001
0000
0001
0000
,
0001
0000
0000
0000
,
1001
0000
0110
0000
,
1001
0000
0000
0000
,
0100
0000
0100
0000
,
0100
0000
0000
0000
,
1001
0000
0110
0000
,
1001
0000
0000
0000
,
0010
0000
0010
0000
,
0010
0000
0000
0000
,
0110
0000
0000
0000
,
0100
0000
0000
0000
,
0010
0000
0010
0000
,
0010
0000
0000
0000
,
0110
0000
0000
0000
,
0010
0000
0000
0000
,
0100
0000
0100
0000
,
0100
0000
0000
0000
,
1001
0000
0110
0000
,
1001
0000
0000
0000
,
0001
0000
0001
0000
,
0001
0000
0000
0000
,
1001
0000
0110
0000
,
1001
0000
0000
0000
,
1000
0000
1000
0000
,
1000
0000
0000
0000
,
0110
0000
1001
0000
,
0110
0000
1001
0000
,
0010
0000
0010
0000
,
0010
0000
0000
0000
,
0110
0000
1001
0000
,
0110
0000
1001
0000
,
0100
0000
0100
0000
,
0100
0000
0000
0000
,
0110
0000
0000
0000
;

//---------------dance-single - ----------------
#NOTES:
     dance-single:
     :
     Easy:
     6:
     0.242842,0.269150,0.339979,0.000000,0.000000,180.000000,144.000000,36.000000,0.000000,0.000000,0.000000,0.242842,0.269150,0.339979,0.000000,0.000000,180.000000,144.000000,36.000000,0.000000,0.000000,0.000000:
0000
0000
0000
0000
,
0000
0000
0000
0000
,
0000
0000
0000
0000
,
0000
0000
0000
0000
,
0000
0000
0000
0000
,
0000
0100
0000
0100
,
0000
0010
0000
0010
,
1000
1000
1000
0001
,
0001
0001
0010
0110
,
0000
0100
0100
0000
,
0010
0001
0010
0010
,
0000
0001
0010
1000
,
0010
0001
1000
0000
,
0000
0100
0100
0000
,
1000
0010
1000
0000
,
0010
0010
0100
0100
,
0001
1000
1001
0000
,
0011
0000
1100
0000
,
0011
0000
1100
0000
,
0001
0100
1000
0000
,
1000
0100
0001
0000
,
1010
0000
0101
0000
,
1010
0000
0101
0000
,
1000
0100
0001
0000
,
0001
0100
1000
0000
,
1001
0000
0110
0000
,
1001
0000
0110
0000
,
0100
0010
1000
0000
,
0010
0100
0001
0000
,
0110
0000
1001
0000
,
0110
0000
1001
0000
,
0100
0010
1000
0000
,
0010
0100
0001
1000
,
0001
0001
0001
0000
,
1000
1000
1000
0000
,
0010
0010
1000
1000
,
0001
0010
0100
1000
,
0100
0100
0100
0000
,
0010
0010
0010
0000
,
0001
0010
0001
0000
,
1000
0010
1010
0000
,
1001
0000
0101
0000
,
1001
0000
1100
0000
,
0010
0001
0100
0000
,
0010
1000
0100
0000
,
0011
0000
1001
0000
,
1010
0000
1001
0000
,
1000
0010
0001
0000
,
0001
0010
1000
0000
,
1010
0000
0110
0000
,
0101
0000
0110
0000
,
1000
0010
0100
0000
,
0001
0010
0100
0000
,
1100
0000
0110
0000
,
0011
0000
0110
0000
,
0100
1000
0010
0000
,
0100
0001
0010
0000
,
0110
0000
0000
0000
;

//---------------dance-single - ----------------
#NOTES:
     dance-single:
     :
     Medium:
     9:
     0.410133,0.403725,0.179433,0.000000,0.000000,304.000000,285.000000,19.000000,0.000000,0.000000,0.000000,0.410133,0.403725,0.179433,0.000000,0.000000,304.000000,285.000000,19.000000,0.000000,0.000000,0.000000:
0000
0000
0000
0000
,
0000
0000
0000
0000
,
0000
0000
0000
0000
,
0000
0000
0000
0000
,
0000
0000
0000
0000
,
1000
1000
0001
0001
,
1000
1000
0001
0001
,
1000
0100
0001
0100
1000
0000
0001
0100
,
1000
0100
0001
0000
0010
0000
0110
0000
,
0000
0100
0100
0010
0010
0000
0000
0001
,
0010
0010
0001
1000
0000
1000
0100
0000
,
0000
1000
0010
0100
0001
0000
1000
0100
,
0100
0000
0010
0010
0001
0000
1000
0000
,
0000
0010
0100
0010
0100
0000
0010
0100
,
0001
0100
0001
1000
0000
1000
0100
0000
,
0000
1000
1000
1000
0000
0001
0001
0001
,
1000
0010
0100
0001
0000
0000
0100
0000
,
0110
0010
1001
0001
,
1000
0010
1000
0000
0001
0010
0100
0000
,
0010
0001
0100
0001
0010
0000
0010
0000
,
0100
1000
0010
1000
0100
0000
0100
0000
,
1001
0100
0011
0100
,
1010
0000
1000
0010
0100
0001
0010
0000
,
0001
0010
1000
0010
0001
0000
0001
0000
,
1000
0100
0001
0000
0001
0100
1000
0000
,
1010
1000
0110
0001
,
0100
0001
0010
0001
1000
0000
0001
0000
,
1000
0010
0100
0001
0010
0000
0100
0000
,
0010
0001
0100
0010
1000
0000
0001
0000
,
0011
0001
1010
1000
,
0100
1000
0010
0000
0100
0001
0010
0000
,
0001
0100
0010
1000
0100
0000
0010
0000
,
0100
1000
0010
0100
0001
0000
1000
0000
,
1001
1000
0100
0010
,
0001
0000
0001
0000
0100
0000
0100
0010
,
1000
0000
1000
0000
0001
1000
0001
0000
,
1000
0100
1000
0100
0010
0001
0010
0000
,
0001
0001
0100
0010
,
1000
0001
0010
0100
,
1000
1000
0010
0000
0100
0001
0001
0000
,
1000
0001
1000
0001
1000
0100
0010
0000
,
0011
0100
1010
0100
,
0001
1000
0100
0000
1000
0010
0100
0000
,
0001
0100
0010
0100
0001
0000
0001
0000
,
1000
0100
0010
0100
1000
0000
1000
0000
,
0011
0001
1010
1000
,
0100
1000
0010
0000
0100
0001
1000
0000
,
0010
1000
0001
1000
0100
0000
0100
0000
,
1000
0001
0010
0001
0100
0001
0100
0000
,
0011
0001
1010
1000
,
0001
1000
0100
0000
1000
0001
0100
0000
,
0010
0100
0010
0100
0001
0000
0001
0000
,
0010
0100
0010
0100
1000
0000
1000
0000
,
0101
0010
1100
0010
,
0100
0001
0010
0000
0100
1000
0010
0000
,
1000
0010
0001
0010
1000
0000
1000
0000
,
0001
0100
1000
0000
1000
0100
0001
0000
,
0010
0000
0000
0000
;

//---------------dance-single - ----------------
#NOTES:
     dance-single:
     :
     Hard:
     13:
     0.559886,0.538300,0.198321,0.000000,0.491080,415.000000,394.000000,21.000000,0.000000,0.000000,0.000000,0.559886,0.538300,0.198321,0.000000,0.491080,415.000000,394.000000,21.000000,0.000000,0.000000,0.000000:
// measure 0
0000
0000
0000
0000
,  // measure 1
0000
0000
0000
0000
,  // measure 2
0000
0000
0000
0000
,  // measure 3
0000
0000
0000
0000
,  // measure 4
0000
0000
0000
0000
,  // measure 5
1000
0100
0010
0000
0001
0100
0010
0000
,  // measure 6
1000
0010
0100
0000
0001
0010
0100
0000
,  // measure 7
1000
0010
0001
0010
1000
0000
0001
0100
,  // measure 8
1000
0100
0001
1000
0100
0100
0010
0000
,  // measure 9
0001
0010
0001
0010
0100
0000
0001
0100
,  // measure 10
1000
0100
1000
0100
0001
0000
1000
0010
,  // measure 11
0100
0001
0100
0010
1000
0010
0001
0010
,  // measure 12
1000
0100
0001
0100
1000
0000
0001
0000
,  // measure 13
0100
0010
1000
0001
0010
0000
0001
1000
,  // measure 14
0010
1000
0010
0100
0001
0001
1000
0000
,  // measure 15
0100
1000
0010
0010
0001
1000
0100
0100
,  // measure 16
0001
1000
0001
1000
0010
0000
0110
0000
,  // measure 17
1000
0100
0000
0000
1100
0000
0000
0000
0001
0100
0000
0000
0101
0000
0010
0000
,  // measure 18
1000
0000
1000
0001
0000
0001
0000
0010
0000
0010
0100
0000
0010
0000
0000
0000
,  // measure 19
0001
1000
0000
0100
0000
0100
0000
0100
1000
0000
0000
0000
0001
0000
0000
0000
,  // measure 20
1000
0001
0000
0010
0000
0010
0100
0000
0010
0000
0001
0000
0100
0000
0010
0000
,  // measure 21
0100
0001
0000
0000
1001
0000
0000
0000
0010
1000
0000
0000
1001
0000
0001
0000
,  // measure 22
0010
0000
0100
1000
0000
1000
0000
0001
0000
0001
0100
0000
0010
0000
0000
0000
,  // measure 23
0010
1000
0000
1000
0000
0001
0000
0001
0010
0000
0000
0000
0110
0000
0000
0000
,  // measure 24
0100
0010
0000
0010
0000
0001
1000
0000
0010
0000
1000
0000
0001
0000
0100
0000
,  // measure 25
0001
0010
0000
0000
0110
0000
0000
0000
1000
0010
0000
0000
0110
0000
0001
0000
,  // measure 26
0100
0000
0010
1000
0000
0100
0000
0010
0000
0100
1000
0000
0001
0000
0100
0000
,  // measure 27
0001
1000
0000
1000
0000
0100
0000
0100
0010
0000
0000
0000
0001
0000
0000
0000
,  // measure 28
1000
0001
0000
0010
0000
0010
0100
0000
0010
0000
0001
0000
1000
0000
0100
0000
,  // measure 29
1000
0010
0000
0000
0101
0000
0000
0000
0001
0100
0000
0000
1010
0000
0001
0000
,  // measure 30
0010
0000
0100
0010
0000
0010
0000
0001
0000
1000
0100
0000
1000
0000
0001
0000
,  // measure 31
1000
0001
0000
0001
0000
1000
0000
0010
0100
0000
0000
0000
0001
0000
0000
0000
,  // measure 32
0100
0010
0000
0010
0000
1000
0100
0000
1000
0000
0010
0000
0100
0000
0001
0000
,  // measure 33
1001
1000
0001
0010
0100
0010
0100
0010
,  // measure 34
0001
0100
0010
1000
0001
0010
0001
0100
,  // measure 35
0010
0000
0010
0000
0110
0000
0100
0100
,  // measure 36
1000
0100
0010
0100
0001
0100
0010
0100
,  // measure 37
1000
0100
0001
0010
0001
0010
0100
1000
,  // measure 38
0100
0000
1000
1000
0001
0100
0010
1000
,  // measure 39
0001
0000
0001
0000
1000
0010
0100
0001
,  // measure 40
0010
0010
0100
0100
0010
0001
1000
0000
,  // measure 41
0001
0100
0000
0000
1010
0000
0000
0000
1000
0100
0000
0000
0011
0000
0001
0000
,  // measure 42
1000
0000
1000
0010
0000
0010
0000
0100
0000
0100
0001
0000
1000
0000
0100
0000
,  // measure 43
0001
0100
0000
0100
0000
1000
0000
1000
0001
0000
0000
0000
1000
0000
0000
0000
,  // measure 44
0001
0100
0000
0100
0000
1000
0100
0000
0001
0000
0010
0000
0100
0000
1000
0000
,  // measure 45
0001
0100
0000
0000
0011
0000
0000
0000
1000
0100
0000
0000
1010
0000
0001
0000
,  // measure 46
0010
0000
0010
0100
0000
1000
0000
0001
0000
0001
0100
0000
0010
0000
1000
0000
,  // measure 47
0001
1000
0000
0100
0000
0001
0000
0001
0100
0000
0000
0000
1000
0000
0000
0000
,  // measure 48
0001
0100
0000
1000
0000
1000
0100
0000
0001
0000
0010
0000
0100
0000
1000
0000
,  // measure 49
0001
0010
0000
0000
1100
0000
0000
0000
1000
0010
0000
0000
0101
0000
0010
0000
,  // measure 50
1000
0000
0100
0010
0000
0001
0000
0100
0000
0001
0010
0000
0100
0000
1000
0000
,  // measure 51
0010
1000
0000
1000
0000
0001
0000
0001
0010
0000
0000
0000
0100
0000
0000
0000
,  // measure 52
0010
0001
0000
0001
0000
1000
0010
0000
1000
0000
0010
0000
0100
0000
0001
0000
,  // measure 53
1000
0100
0000
0000
0011
0000
0000
0000
0001
0100
0000
0000
1010
0000
0010
0000
,  // measure 54
0001
0000
0010
1000
0000
1000
0000
0001
0000
0001
0010
0000
0100
0000
0010
0000
,  // measure 55
0001
0010
0000
1000
0000
1000
0000
0010
0001
0000
0000
0000
1000
0000
0000
0000
,  // measure 56
0010
0001
0000
0001
0000
0010
1000
0000
0001
0000
0010
0000
0100
0000
1000
0000
,  // measure 57
0011
0000
0000
0000
;
