#TITLE:Beyond The Seven;
#SUBTITLE:;
#ARTIST:Nhato;
#TITLETRANSLIT:;
#SUBTITLETRANSLIT:;
#ARTISTTRANSLIT:;
#GENRE:;
#CREDIT:;
#BANNER:Beyond The Seven.png;
#BACKGROUND:Beyond The Seven-bg.png;
#LYRICSPATH:;
#CDTITLE:;
#MUSIC:Beyond The Seven.ogg;
#OFFSET:0.000000;
#SAMPLESTART:82.805000;
#SAMPLELENGTH:15.000000;
#SELECTABLE:YES;
#BPMS:0.000000=142.000000
;
#STOPS:
;
#BGCHANGES:0.000=Beyond The Seven.avi=1.000=0=0=1=====,
99999=-nosongbg-=1.000=0=0=0 // don't automatically add -songbackground-
;
#KEYSOUNDS:;
#ATTACKS:;

//---------------dance-single - ----------------
#NOTES:
     dance-single:
     :
     Beginner:
     3:
     0.161400,0.230982,0.083689,0.000000,0.000000,135.000000,125.000000,10.000000,0.000000,0.000000,0.000000,0.161400,0.230982,0.083689,0.000000,0.000000,135.000000,125.000000,10.000000,0.000000,0.000000,0.000000:
0000
0000
0000
0000
,
0000
0000
0000
0000
,
0000
0000
0000
0000
,
0000
0000
0000
0000
,
0000
0000
0000
0000
,
0000
0100
0000
0100
,
0000
0010
0000
0010
,
0000
1000
0000
0001
,
0000
0010
0000
0100
,
0000
0001
0000
0001
,
0000
0001
0000
0001
,
0000
1000
0000
1000
,
0000
1000
0000
1000
,
0000
0010
0000
0010
,
0000
0100
0000
0100
,
0000
0001
0000
1000
,
1000
0000
0001
0001
,
0000
1000
0000
1000
,
0000
1000
0000
1001
,
0000
0001
0000
0001
,
0000
0001
0000
1001
,
0000
0100
0000
0100
,
0000
0100
0000
0110
,
0000
0010
0000
0010
,
0000
0010
0000
0110
,
0000
0100
0000
0001
,
0001
0000
0010
0000
,
0000
0100
0000
1000
,
1000
0000
0010
0000
,
0000
1000
0000
0001
,
0001
0000
0100
0000
,
0000
0001
0000
1000
,
1000
0000
0010
0000
,
0110
0000
0000
0000
,
0000
0000
0001
0000
,
0010
0000
0000
0000
,
0100
0000
0000
0000
,
1000
0000
0000
0000
,
0000
0000
1000
0000
,
0010
0000
0000
0000
,
0100
0000
0000
0000
,
0010
0000
0010
0000
,
0010
0000
0010
0000
,
0010
0000
0010
0000
,
0010
0000
0010
0000
,
0100
0000
0100
0000
,
0100
0000
0100
0000
,
0100
0100
0100
0100
,
0100
0000
0010
0000
,
1001
0000
0100
0000
,
0001
0000
0100
0000
,
1000
0000
0100
0000
,
0001
0000
0000
0000
,
1000
0000
0010
0000
,
0001
0000
0010
0000
,
1000
0000
0010
0000
,
0001
0000
1000
0000
,
0100
0100
0000
1000
,
0000
0100
0000
1000
,
0000
0001
0000
0100
,
0000
0010
0000
0010
,
0010
0010
0000
0100
,
0000
0001
0000
0010
,
0000
0001
0000
1000
,
1000
0000
1001
0000
,
0000
0100
0000
0100
,
0000
0100
0000
0110
,
0000
0001
0000
0001
,
0000
0001
0000
1001
,
1001
0000
0000
0000
;

//---------------dance-single - ----------------
#NOTES:
     dance-single:
     :
     Easy:
     6:
     0.272587,0.375345,0.242698,0.050213,0.000000,228.000000,199.000000,29.000000,6.000000,0.000000,0.000000,0.272587,0.375345,0.242698,0.050213,0.000000,228.000000,199.000000,29.000000,6.000000,0.000000,0.000000:
0000
0000
0000
0000
,
0000
0000
0000
0000
,
0000
0000
0000
0000
,
0000
0000
0000
0000
,
0000
0000
0000
0000
,
0000
0001
0000
0001
,
0000
1000
0000
1000
,
0000
0100
0000
0010
,
0001
0001
0100
0010
,
1000
1000
0000
1100
,
0000
1000
0000
1100
,
0000
0001
0000
0101
,
0000
0001
0000
0101
,
0010
0010
0010
0010
,
0100
0100
0100
0100
,
1000
0010
0100
0001
,
1000
0000
0001
0000
,
1000
1100
1000
1001
,
1000
1010
1000
1000
,
0001
0011
0001
1001
,
0001
0101
0100
0100
,
0010
1010
0010
0011
,
0010
0110
0100
0100
,
1000
1100
0001
0101
,
0001
0001
1000
1000
,
0010
1000
0001
0100
,
0002
0000
0010
0000
,
1003
0010
0100
0001
,
2000
0000
0100
0000
,
3100
1000
0010
0100
,
0002
0000
0010
0000
,
0013
0001
0100
0010
,
2000
0000
0001
0000
,
3100
0000
0000
0000
,
0000
0100
0010
0000
,
0001
0000
0000
0000
,
1000
0000
0010
0000
,
0100
0000
0000
0000
,
0000
0100
0001
0000
,
1000
0000
0000
0000
,
0001
0000
0010
0000
,
0011
0000
0011
0000
,
0011
0000
0011
0000
,
1100
0000
1100
0000
,
1100
0000
1100
0000
,
1000
1000
0001
0001
,
0100
0100
0010
0010
,
1000
0010
0100
0001
,
2002
0000
0000
3003
,
0100
1000
1000
0001
,
0100
0010
0010
1000
,
0001
0100
0100
0001
,
0010
0001
1001
0000
,
0100
0001
0001
0010
,
0100
0010
0010
0001
,
1000
0100
0100
1000
,
0010
0100
1001
0000
,
0001
0100
0001
0001
,
1000
0010
1000
1000
,
1000
0001
0010
0010
,
0010
0010
0110
0000
,
1000
0001
1000
1000
,
0001
0100
0010
0010
,
0010
1000
0001
0001
,
0001
0001
0110
0000
,
0100
0100
0010
0010
,
1000
1000
0001
0001
,
1000
0100
0010
0001
,
0001
0010
0100
1000
,
0110
0000
0000
0000
;

//---------------dance-single - ----------------
#NOTES:
     dance-single:
     :
     Medium:
     10:
     0.400512,0.461963,0.284543,0.083689,0.138087,335.000000,301.000000,34.000000,10.000000,0.000000,0.000000,0.400512,0.461963,0.284543,0.083689,0.138087,335.000000,301.000000,34.000000,10.000000,0.000000,0.000000:
0000
0000
0000
0000
,
0000
0000
0000
0000
,
0000
0000
0000
0000
,
0000
0000
0000
0000
,
0000
0000
0000
0000
,
1000
0000
0100
0000
,
0001
0000
0100
0000
,
1000
0100
0001
0100
,
1000
1000
0001
1001
,
0010
0101
0010
0101
,
0010
1100
0010
1100
,
1000
0011
1000
0011
,
0001
1100
0001
1100
,
0100
1001
0010
1001
,
0010
0110
0100
1001
,
0001
0100
0001
0100
0010
1000
0010
1000
,
0002
0000
2000
3003
,
1000
0100
0010
0000
1000
0100
0001
0000
,
1000
0100
0001
0000
1000
0010
0100
0000
,
0001
0010
1000
0000
0001
0010
0100
0000
,
0001
0010
1000
0000
0001
0100
0010
0000
,
1000
0010
0001
0000
1000
0010
0100
0000
,
1000
0100
0001
0000
0100
1000
0010
0000
,
0001
0100
1000
0000
0001
0010
1000
0000
,
0010
0000
0000
0010
0000
0000
0010
0000
0001
0000
0100
0000
0010
0000
1000
0000
,
0001
0000
1100
0000
1000
0010
0100
0001
,
0020
0000
0000
0000
0100
0100
0130
0000
,
1000
0000
0011
0000
0001
0100
0010
1000
,
0200
0000
0000
0000
1000
1000
1300
0000
,
0001
0000
1001
0000
1000
0001
0100
0010
,
2000
0000
0000
0000
0010
0010
3010
0000
,
0100
0000
0110
0000
0001
0010
0100
1000
,
0002
0000
0000
0000
1000
1000
1003
0000
,
0110
0000
0000
0000
,
0000
0000
1000
0000
0100
0000
0000
0100
,
1000
0000
0000
0000
0001
0000
0000
0010
,
0001
0000
0001
0000
0100
0000
0000
0001
,
0100
0000
0000
0000
,
0010
0000
1000
0000
0001
0000
0000
0001
,
1000
0000
0000
0000
0000
0000
0000
0000
0010
0000
0000
0010
0000
0000
0010
0000
,
0100
0100
0010
0010
,
1001
0000
1001
0000
,
1001
0000
1001
0000
,
0110
0000
0110
0000
,
0110
0000
0110
0000
,
1000
1000
0001
0001
,
1000
1000
0001
0001
,
1000
0001
1000
0001
1000
0001
1000
0001
,
0220
0000
0000
0330
,
1000
0000
0000
1000
0000
0000
0001
0000
0010
0000
0000
0010
0000
0000
0100
0000
,
1000
0000
0000
0001
0000
0000
0001
0000
0100
0000
0000
0010
0000
0000
0010
0000
,
1000
0000
0000
0010
0000
0000
0100
0000
0100
0000
0000
0001
0000
0000
1000
0000
,
0001
0000
0000
0001
0000
0000
0010
0000
0100
0000
0000
0000
0110
0000
0000
0000
,
0001
0000
0000
0001
0000
0000
1000
0000
0100
0000
0000
0100
0000
0000
1000
0000
,
0010
0000
0000
0100
0000
0000
0100
0000
0001
0000
0000
1000
0000
0000
1000
0000
,
0001
0000
0000
1000
0000
0000
0100
0000
0100
0000
0000
1000
0000
0000
0001
0000
,
0100
0000
0000
0100
0000
0000
0010
0000
1000
0000
0000
0000
1010
0000
0000
0000
,
0010
0000
0000
0010
0000
0000
0010
0000
1000
0000
0000
1000
0000
0000
1000
0000
,
0001
0000
0000
0001
0000
0000
0001
0000
0100
0000
0000
0100
0000
0000
0100
0000
,
0001
0000
0000
0001
0000
0000
0001
0000
0010
0000
0000
0010
0000
0000
0010
0000
,
0100
0000
0000
0100
0000
0000
1000
0000
0001
0000
0000
0000
0110
0000
0000
0000
,
1000
0000
0000
1000
0000
0000
1000
0000
0001
0000
0000
0001
0000
0000
0001
0000
,
0010
0000
0000
0010
0000
0000
0010
0000
0100
0000
0000
0100
0000
0000
0100
0000
,
1000
0000
0000
1000
0000
0000
1000
0000
0001
0000
0000
0001
0000
0000
0001
0000
,
0110
1100
0202
0303
,
1000
0000
0000
1000
0000
0000
0100
0000
0001
0000
0000
0001
0000
0000
0100
0000
,
1000
0000
0000
1000
0000
0000
0100
0000
0001
0000
0000
0001
0000
0000
0100
0000
,
1000
0010
0001
0000
0001
0010
1000
0000
,
1000
0010
0001
0010
1000
0100
0001
0100
,
1001
0000
0000
0000
;

//---------------dance-single - ----------------
#NOTES:
     dance-single:
     :
     Hard:
     14:
     0.595388,0.664072,0.309649,0.251067,0.464474,498.000000,461.000000,37.000000,30.000000,0.000000,0.000000,0.595388,0.664072,0.309649,0.251067,0.464474,498.000000,461.000000,37.000000,30.000000,0.000000,0.000000:
// measure 0
0000
0000
0000
0000
,  // measure 1
0000
0000
0000
0000
,  // measure 2
0000
0000
0000
0000
,  // measure 3
0000
0000
0000
0000
,  // measure 4
0000
0000
0000
0000
,  // measure 5
0001
0000
0000
0001
0000
0000
0001
0000
1000
0000
0000
1000
0000
0000
1000
0000
,  // measure 6
0010
0000
0000
0010
0000
0000
0010
0000
0100
0000
0000
0100
0000
0000
0100
0000
,  // measure 7
0001
0000
0000
0010
0000
0000
0001
0000
1000
0000
0000
0100
0000
0000
1000
0000
,  // measure 8
0010
0000
0000
0010
0000
0100
0010
0000
0100
0000
0010
0000
0110
0000
0000
0000
,  // measure 9
1000
0000
0000
0000
0101
0000
0000
0000
0001
0000
0000
0001
0100
0000
0010
0000
,  // measure 10
1000
0000
0000
0000
0101
0000
0000
0000
0001
0000
0000
0001
0010
0000
0100
0000
,  // measure 11
1000
0000
0000
0000
0011
0000
0000
0000
0100
0000
0000
0100
1000
0000
0010
0000
,  // measure 12
0100
0000
0000
0000
0011
0000
0000
0000
0100
0000
0000
0001
1000
0000
0100
0000
,  // measure 13
0010
0001
0010
0001
1000
0010
1000
0010
,  // measure 14
0100
0001
0100
0001
1000
0100
1000
0100
,  // measure 15
0010
0001
0100
0000
0010
1000
0100
0000
1000
0010
0100
0001
0010
0100
1000
0001
,  // measure 16
2000
0000
0000
0100
0000
0100
0000
0000
3002
0000
0000
0100
0000
0103
0000
0000
,  // measure 17
1000
0100
0110
0100
1000
0001
0101
0100
,  // measure 18
0010
0000
1000
0000
0011
0000
0100
0000
1000
0000
0001
0000
0100
0001
0100
0000
,  // measure 19
0001
0100
0110
1000
0001
0010
1001
0100
,  // measure 20
1000
0000
0010
0000
0101
0000
0100
0000
0010
0000
1000
0000
0001
0100
0001
0000
,  // measure 21
1000
0001
0101
0001
0010
0100
1100
0100
,  // measure 22
1000
0000
0001
0000
0101
0000
0100
0000
0010
0000
1000
0000
0001
1000
0001
0000
,  // measure 23
1000
0000
0001
0000
0101
0000
0100
0000
0010
0000
1000
0000
0010
1000
0010
0000
,  // measure 24
1000
0000
0000
0100
0000
0100
1000
0000
0010
0000
0000
0010
0000
0000
0011
0000
,  // measure 25
0001
0100
0002
0013
0002
1003
0020
0130
,  // measure 26
0002
0000
0010
0000
0013
0000
0000
0000
0200
0000
1300
0000
1000
0001
1000
0000
,  // measure 27
0010
1000
0020
0130
0002
0013
0200
0310
,  // measure 28
0002
0000
0100
0000
0103
0000
0000
0000
0020
0000
1030
0000
0010
1000
0010
0000
,  // measure 29
1000
0100
2000
3010
0200
0310
2000
3001
,  // measure 30
0020
0000
0100
0000
0130
0000
0000
0000
2000
0000
3010
0000
0010
1000
0010
0000
,  // measure 31
0100
0001
0020
0031
2000
3001
0200
0310
,  // measure 32
2000
0000
0000
0000
0000
0000
0000
0000
3002
0000
0000
0000
1003
0001
1000
0001
,  // measure 33
0200
0000
0000
0000
,  // measure 34
0001
0000
0010
0000
0010
0000
0000
0001
,  // measure 35
0001
0000
1000
1000
,  // measure 36
0010
0000
0000
0000
0000
0000
0001
0000
0001
0000
0000
0010
0300
0000
0010
1000
,  // measure 37
0002
0000
0010
0000
,  // measure 38
1000
0000
1000
0000
0100
0000
0000
0100
,  // measure 39
0010
0000
0000
0000
0000
0000
0000
0000
0100
0000
0000
0100
0000
0000
1000
0000
,  // measure 40
1000
0000
0000
0000
0000
0000
0010
0000
0010
0000
0000
1000
0000
0000
1003
0000
,  // measure 41
0110
0000
0000
1000
0000
0000
0001
0000
0110
0000
0000
0100
0000
0000
0010
0000
,  // measure 42
1001
0000
0000
0010
0000
0000
1000
0000
1001
0000
0000
0001
0000
0000
0100
0000
,  // measure 43
0110
0000
0000
0100
0000
0000
0001
0000
1001
0000
0000
0001
0000
0000
1000
0000
,  // measure 44
0110
0000
0000
0010
0000
0000
1000
0000
1001
0000
0000
0010
0000
0000
0100
0000
,  // measure 45
1000
0100
1000
0010
0100
0001
0010
0001
,  // measure 46
0100
0010
1000
0100
0010
0001
0010
0100
,  // measure 47
1000
0100
1000
0000
0001
0100
0001
0000
1000
0010
0100
0001
0010
0001
1000
0010
,  // measure 48
0200
0000
0000
0000
0020
0330
0110
0000
,  // measure 49
1000
0000
0000
0010
0000
1000
0100
0000
0010
0000
0000
0001
0000
1000
0010
0000
,  // measure 50
0100
0000
0001
0100
0000
0010
0100
0000
0001
0000
1000
0100
0000
0010
0100
0000
,  // measure 51
1000
0000
0000
0001
0000
0100
0010
0000
0100
0000
0000
0001
0000
0010
0100
0000
,  // measure 52
0010
0000
0100
1000
0000
1000
0010
0000
1000
0000
0001
0100
0000
0100
0010
0000
,  // measure 53
0110
0000
0000
0100
0000
0001
0010
0000
0001
0000
0000
1000
0000
0010
0100
0000
,  // measure 54
0010
0000
1000
0001
0000
1000
0100
0000
0010
0000
0001
0100
0000
0001
1000
0000
,  // measure 55
0001
0000
0000
1000
0000
0100
0010
0000
0001
0000
0100
0010
0000
0010
1000
0000
,  // measure 56
0011
1100
0220
0330
,  // measure 57
0010
0000
0000
0010
0000
0000
0100
1000
0010
0000
0000
0010
0000
0000
0100
0001
,  // measure 58
0010
0000
0000
0010
0000
0000
0001
1000
0100
0000
0000
1100
0000
0000
0100
1000
,  // measure 59
0001
0000
0000
0001
0000
0000
0100
0010
1000
0000
0000
1000
0000
0000
0010
0100
,  // measure 60
0001
0000
0000
0001
0000
0000
0010
0100
1000
0000
0000
0001
0000
0000
0011
0000
,  // measure 61
0110
0000
0000
0100
0000
0000
1000
0010
0100
0000
0000
0100
0000
0000
0001
1000
,  // measure 62
0100
0000
0000
0100
0000
0000
0010
0001
0100
0000
0000
0101
0000
0000
0001
1000
,  // measure 63
0100
0000
0000
0100
0000
0000
1000
0001
0100
0000
0000
0010
0000
0000
1000
0000
,  // measure 64
1010
0101
2002
3003
,  // measure 65
0100
1000
0100
0001
0100
1000
0100
0001
,  // measure 66
0100
1000
0010
0001
0010
1000
0010
0001
,  // measure 67
0010
0010
0100
0100
0001
0001
1000
1000
,  // measure 68
0001
0010
0001
0000
1000
0010
1000
0000
0001
0010
0100
1000
0010
0100
0001
0000
,  // measure 69
1001
0000
0000
0000
;
