#TITLE:Better When I'm Dancin';
#SUBTITLE:;
#ARTIST:Meghan Trainor;
#TITLETRANSLIT:;
#SUBTITLETRANSLIT:;
#ARTISTTRANSLIT:;
#GENRE:;
#CREDIT:;
#BANNER:Better When I'm Dancin'.png;
#BACKGROUND:Better When I'm Dancin'-bg.png;
#LYRICSPATH:;
#CDTITLE:;
#MUSIC:Better When I'm Dancin'.ogg;
#OFFSET:1.568000;
#SAMPLESTART:52.790001;
#SAMPLELENGTH:15.000000;
#LASTBEATHINT:1.211733;
#SELECTABLE:YES;
#BPMS:0.000000=128.000000
;
#STOPS:
;
#BGCHANGES:;
#KEYSOUNDS:;
#ATTACKS:;

//---------------dance-single - ----------------
#NOTES:
     dance-single:
     :
     Beginner:
     3:
     0.123865,0.132921,0.000000,0.049079,0.000000,106.000000,106.000000,0.000000,6.000000,0.000000,0.000000,0.123865,0.132921,0.000000,0.049079,0.000000,106.000000,106.000000,0.000000,6.000000,0.000000,0.000000:
// measure 0
0000
0000
0000
0000
,  // measure 1
0000
0000
0000
0000
,  // measure 2
0000
0000
0000
0000
,  // measure 3
0000
0000
0000
0000
,  // measure 4
0000
0000
0000
0000
,  // measure 5
0100
0100
0000
0000
,  // measure 6
1000
1000
0000
0000
,  // measure 7
0010
0010
0000
0000
,  // measure 8
0001
0000
0010
0000
,  // measure 9
0001
0001
0000
0000
,  // measure 10
0010
0010
0000
0000
,  // measure 11
0100
0100
0000
0000
,  // measure 12
1000
0000
0010
0000
,  // measure 13
1000
1000
0000
0000
,  // measure 14
0001
0000
0000
0000
,  // measure 15
0001
0001
0000
0000
,  // measure 16
1000
0000
0000
0000
,  // measure 17
0010
0010
0000
0000
,  // measure 18
0100
0100
0000
0000
,  // measure 19
1000
0000
0001
0000
,  // measure 20
0010
0000
0100
0000
,  // measure 21
0020
0000
0030
0000
,  // measure 22
0002
0000
0003
0000
,  // measure 23
0020
0000
0030
0000
,  // measure 24
0200
0000
0300
0000
,  // measure 25
1000
1000
0000
0000
,  // measure 26
0001
0001
0000
0000
,  // measure 27
0100
0000
0010
0000
,  // measure 28
0200
0000
0300
0000
,  // measure 29
0001
0001
0001
0000
,  // measure 30
0010
0000
0000
0000
,  // measure 31
0100
0100
0100
0000
,  // measure 32
1000
0000
0000
0000
,  // measure 33
0001
0001
0001
0000
,  // measure 34
0100
0000
0000
0000
,  // measure 35
0010
0010
0010
0000
,  // measure 36
1000
0000
0000
0000
,  // measure 37
1000
1000
0000
0000
,  // measure 38
1000
0000
0000
0000
,  // measure 39
0001
0001
0000
0000
,  // measure 40
0001
0000
0000
0000
,  // measure 41
0100
0100
0000
0000
,  // measure 42
0100
0000
0000
0000
,  // measure 43
0010
0010
0000
0000
,  // measure 44
0010
0000
0000
0000
,  // measure 45
1000
0000
0100
0000
,  // measure 46
1000
0000
0000
0000
,  // measure 47
0001
0000
0010
0000
,  // measure 48
0001
0000
0000
0000
,  // measure 49
1000
1000
0000
0000
,  // measure 50
0001
0001
0000
0000
,  // measure 51
0010
0000
0100
0000
,  // measure 52
0020
0000
0030
0000
,  // measure 53
0100
0100
0100
0000
,  // measure 54
0010
0000
0000
0000
,  // measure 55
0001
0001
0001
0000
,  // measure 56
1000
0000
0000
0000
,  // measure 57
0100
0100
0100
0000
,  // measure 58
1000
0000
0000
0000
,  // measure 59
0010
0010
0010
0000
,  // measure 60
0001
0000
0000
0000
,  // measure 61
0100
0000
0000
0000
,  // measure 62
0010
0010
0000
0000
,  // measure 63
1000
0000
0000
0000
,  // measure 64
0001
0001
0000
1000
,  // measure 65
1000
0000
0000
0000
;

//---------------dance-single - ----------------
#NOTES:
     dance-single:
     :
     Easy:
     6:
     0.244224,0.265842,0.032719,0.098157,0.000000,209.000000,205.000000,4.000000,12.000000,0.000000,0.000000,0.244224,0.265842,0.032719,0.098157,0.000000,209.000000,205.000000,4.000000,12.000000,0.000000,0.000000:
// measure 0
0000
0000
0000
0000
,  // measure 1
0000
0000
0000
0000
,  // measure 2
0000
0000
0000
0000
,  // measure 3
0000
0000
0000
0000
,  // measure 4
0000
0000
0000
0000
,  // measure 5
1000
1000
0100
1000
,  // measure 6
0001
0100
0010
0000
,  // measure 7
0001
0001
0010
0001
,  // measure 8
0100
0010
1000
0000
,  // measure 9
0010
0010
0100
0001
,  // measure 10
0010
0001
1000
0000
,  // measure 11
0100
0100
1000
0001
,  // measure 12
1000
0010
0100
0000
,  // measure 13
1010
0100
0001
0010
,  // measure 14
0200
1000
1300
0000
,  // measure 15
1000
0001
1000
0100
,  // measure 16
0020
0001
0031
0000
,  // measure 17
0100
0100
0100
0001
,  // measure 18
0010
0010
0010
0001
,  // measure 19
1000
0100
1000
0001
,  // measure 20
0010
0000
0100
0100
,  // measure 21
0012
1000
0010
0000
,  // measure 22
0100
0100
0103
0000
,  // measure 23
2000
0010
0001
0000
,  // measure 24
0010
0010
3010
0000
,  // measure 25
0100
1000
0100
1000
,  // measure 26
0001
0100
0001
0100
,  // measure 27
0010
1000
0001
0010
,  // measure 28
2002
0000
0000
3003
,  // measure 29
1000
1000
0010
1000
,  // measure 30
0100
0100
0010
0000
,  // measure 31
0001
0001
0100
0010
,  // measure 32
1000
1000
0001
0000
,  // measure 33
0010
0001
0010
0100
,  // measure 34
1000
0100
1000
0000
,  // measure 35
0100
1000
0010
0100
,  // measure 36
0001
0100
0001
0000
,  // measure 37
2000
0001
0100
0001
,  // measure 38
3002
0010
1000
0010
,  // measure 39
0203
0010
0001
0001
,  // measure 40
0320
0100
1000
1030
,  // measure 41
0100
1000
0100
0000
,  // measure 42
0010
0001
0010
0000
,  // measure 43
0001
0100
0010
1000
,  // measure 44
0001
0000
0010
0001
,  // measure 45
1000
1000
0100
0000
,  // measure 46
1000
1000
0010
0000
,  // measure 47
0001
0001
0100
0000
,  // measure 48
0001
0001
0010
0000
,  // measure 49
0001
0010
0100
1000
,  // measure 50
1000
0100
0010
0001
,  // measure 51
1000
1000
0001
0001
,  // measure 52
0220
0000
0000
0330
,  // measure 53
0010
1000
0010
0000
,  // measure 54
0100
0001
0100
0001
,  // measure 55
0010
0001
0010
0000
,  // measure 56
0100
1000
0100
0010
,  // measure 57
0001
0001
0001
0000
,  // measure 58
1000
0001
0010
0001
,  // measure 59
1000
1000
1000
0000
,  // measure 60
0010
1000
0010
0100
,  // measure 61
0010
0000
0100
0001
,  // measure 62
0010
0000
0100
1000
,  // measure 63
0010
0000
1000
0100
,  // measure 64
1000
0000
0001
0100
,  // measure 65
0001
0000
0000
0000
;

//---------------dance-single - ----------------
#NOTES:
     dance-single:
     :
     Medium:
     10:
     0.389123,0.424529,0.065438,0.163595,0.118607,333.000000,325.000000,8.000000,20.000000,0.000000,0.000000,0.389123,0.424529,0.065438,0.163595,0.118607,333.000000,325.000000,8.000000,20.000000,0.000000,0.000000:
// measure 0
0000
0000
0000
0000
,  // measure 1
0000
0000
0000
0000
,  // measure 2
0000
0000
0000
0000
,  // measure 3
0000
0000
0000
0000
,  // measure 4
0000
0000
0000
0000
,  // measure 5
1000
0000
0000
1000
0000
0000
1000
0000
0010
0000
1000
0000
0010
0000
0000
0000
,  // measure 6
0100
0000
0000
0100
0000
0000
0100
0000
0001
0000
0100
0000
0001
0000
0000
0000
,  // measure 7
0010
0000
0000
0010
0000
0000
0010
0000
0100
0000
0010
0000
0100
0000
0000
0000
,  // measure 8
1000
0000
0000
1000
0000
0000
0100
0000
0001
0000
0000
0100
0000
0000
1000
0000
,  // measure 9
0001
0000
0000
0001
0000
0000
0001
0000
0100
0000
0001
0000
0100
0000
0000
0000
,  // measure 10
0010
0000
0000
0010
0000
0000
0010
0000
1000
0000
0010
0000
1000
0000
0000
0000
,  // measure 11
0100
0000
0000
0100
0000
0000
0100
0000
0010
0000
0100
0000
0010
0000
0000
0000
,  // measure 12
0001
0000
0000
0001
0000
0000
0010
0000
1000
0000
0000
1000
0000
0000
0010
0000
,  // measure 13
1001
0000
0000
0100
0000
0000
0100
0000
0010
0000
1000
0000
0100
0000
0010
0000
,  // measure 14
0002
0000
0000
1000
0000
0000
1000
0000
0010
0000
0000
0000
0010
0000
0000
0000
,  // measure 15
1003
0000
0000
0010
0000
0000
0010
0000
0100
0000
0001
0000
0010
0000
0100
0000
,  // measure 16
2000
0000
0000
0010
0000
0000
0010
0000
0001
0000
0000
0000
0001
0000
0000
0000
,  // measure 17
3100
0000
0000
0100
0000
0000
0100
0000
1000
0000
0010
0000
0100
0000
0001
0000
,  // measure 18
1000
0000
0000
1000
0000
0000
1000
0000
0001
0000
1000
0000
0010
0000
0100
0000
,  // measure 19
0010
0000
0000
0110
0000
0000
0000
0000
0100
0000
0001
0000
0100
0000
0001
0000
,  // measure 20
0010
0000
0001
1000
0100
0010
0100
1000
,  // measure 21
0020
1000
0100
1000
,  // measure 22
0230
0001
0010
0001
,  // measure 23
0320
1000
0001
1000
,  // measure 24
0230
0001
1000
0301
,  // measure 25
0010
0000
0000
0010
0000
0000
0010
0000
0100
0000
1000
0000
0100
0000
0000
0000
,  // measure 26
0010
0000
0000
0010
0000
0000
0010
0000
0001
0000
0100
0000
0001
0000
0000
0000
,  // measure 27
1000
0010
0100
0000
0001
0010
0100
0000
,  // measure 28
2002
0000
0000
3003
,  // measure 29
1000
0100
1000
0000
0001
1000
0001
1000
,  // measure 30
0010
0100
0010
0000
1000
0000
1001
0000
,  // measure 31
0001
0010
0100
0000
1000
0000
0001
0000
,  // measure 32
1000
0100
0010
0000
0100
0010
0001
0000
,  // measure 33
0100
0000
0000
0100
0000
0000
0100
0000
0001
0000
0010
0000
0001
0000
1000
0000
,  // measure 34
0010
0000
0000
0010
0000
0000
0010
0000
1000
0000
0000
0000
1001
0000
0000
0000
,  // measure 35
0001
0100
1000
0000
1000
0100
0001
0000
,  // measure 36
0001
0010
1000
0000
1000
0010
0001
0001
,  // measure 37
0200
0010
1000
0010
,  // measure 38
0320
0100
0001
0100
,  // measure 39
2030
0001
0100
0001
,  // measure 40
3002
0000
0010
0000
1000
0000
1003
1000
,  // measure 41
0010
0000
0100
0000
0001
0010
0001
0010
,  // measure 42
0100
0000
1000
0000
0001
1000
0001
1000
,  // measure 43
0010
0000
0000
0000
0010
0000
0000
0000
0100
0000
0000
0100
0000
0000
0001
0000
,  // measure 44
0010
0000
0000
0000
0100
0100
0010
0000
,  // measure 45
0002
0100
0100
0100
,  // measure 46
2003
0100
0100
0100
,  // measure 47
3002
0010
0010
0010
,  // measure 48
2003
0010
0010
3010
,  // measure 49
1000
0000
0000
1000
0000
0000
1000
0000
0100
0000
1000
0000
0100
0000
1000
0000
,  // measure 50
0001
0000
0000
0001
0000
0000
0001
0000
0010
0000
0001
0000
0010
0000
0000
0000
,  // measure 51
0001
0100
0010
0000
1000
0100
0010
0000
,  // measure 52
2002
0000
0000
3003
,  // measure 53
0010
0100
0010
0000
1000
0010
0100
0001
,  // measure 54
0010
0100
0010
0000
0001
0000
1001
0000
,  // measure 55
0001
0010
0001
0000
0100
0000
0010
0000
,  // measure 56
1000
0100
1000
0000
0001
1000
0001
0000
,  // measure 57
1000
0000
0000
1000
0000
0000
1000
0000
0100
0000
1000
0000
0010
0000
0100
0000
,  // measure 58
0001
0000
0000
0001
0000
0000
0001
0000
0010
0000
0000
0000
0110
0000
0000
0000
,  // measure 59
1000
0010
0001
0000
0001
0010
1000
0000
,  // measure 60
1000
0100
0001
0000
0001
0100
1000
1000
,  // measure 61
0002
0000
0000
0100
0000
0000
0100
0000
1000
0000
0000
0000
1000
0000
0000
0000
,  // measure 62
2003
0000
0000
0010
0000
0000
0010
0000
0001
0000
0000
0000
3001
0000
0000
0000
,  // measure 63
0100
0000
0000
0100
0000
0000
0100
0000
0010
0000
0100
0000
0010
0000
1000
0000
,  // measure 64
0000
0001
0000
0010
0000
0100
0000
1000
;

//---------------dance-single - ----------------
#NOTES:
     dance-single:
     :
     Hard:
     13:
     0.510651,0.530662,0.065438,0.147236,0.339460,437.000000,429.000000,8.000000,18.000000,0.000000,0.000000,0.510651,0.530662,0.065438,0.147236,0.339460,437.000000,429.000000,8.000000,18.000000,0.000000,0.000000:
// measure 0
0000
0000
0000
0000
,  // measure 1
0000
0000
0000
0000
,  // measure 2
0000
0000
0000
0000
,  // measure 3
0000
0000
0000
0000
,  // measure 4
0000
0000
0000
0000
,  // measure 5
1000
0000
0000
1000
0000
0000
1000
0000
0100
0000
1000
0000
0010
0000
0100
0000
,  // measure 6
0001
0000
0000
0001
0000
0000
0001
0000
0100
0000
0010
0000
1000
0000
0001
0000
,  // measure 7
0010
0000
0000
0010
0000
0000
0010
0000
0001
0000
0010
0000
0100
0000
1000
0000
,  // measure 8
0100
0000
0000
0100
0000
0000
1000
0000
0010
0000
0000
1000
0000
0000
0001
0000
,  // measure 9
1001
0000
0000
0100
0000
0000
0100
0000
0010
0000
1000
0000
0100
0000
0010
0000
,  // measure 10
0001
0000
0000
0001
0000
0000
0001
0000
1000
0000
0001
0000
0010
0000
0100
0000
,  // measure 11
0010
0000
0000
0010
0000
0000
0010
0000
0100
0000
1000
0000
0001
0000
0100
0000
,  // measure 12
1000
0000
0000
1000
0000
0000
0100
0000
0001
0000
0000
0001
0000
0000
0010
0000
,  // measure 13
0110
0000
0000
0100
1000
0000
0100
0000
0010
0000
0001
0000
1000
0000
0001
0000
,  // measure 14
0200
0000
0000
0010
0000
0000
0310
0000
1000
0000
0010
0000
0100
0000
0001
0000
,  // measure 15
1000
0000
0000
0001
0010
0000
0100
0000
1000
0000
0001
0000
0100
0000
0010
0000
,  // measure 16
2000
0000
0000
0001
0000
0000
3001
0000
0010
0000
0001
0000
1000
0000
0100
0000
,  // measure 17
0010
0000
0000
0001
0010
0000
0100
0000
1000
0000
1000
0000
0001
0000
0001
0000
,  // measure 18
0100
0000
0000
0010
1000
0000
0001
0000
1000
0000
1000
0000
0010
0000
0010
0000
,  // measure 19
0100
0000
0000
1001
0000
0000
0000
0000
0100
0000
0001
0000
0010
0000
0100
0000
,  // measure 20
1000
0000
0000
1000
0100
0000
1000
0000
0001
0000
0001
0000
0100
0000
0100
0000
,  // measure 21
0020
0000
0000
1000
0000
0000
1000
0000
0100
0000
0100
0000
0100
0000
0000
0000
,  // measure 22
2030
0000
0000
0100
0000
0000
0100
0000
0001
0000
0001
0000
0001
0000
0000
0000
,  // measure 23
3002
0000
0000
0010
0000
0000
0010
0000
1000
0000
1000
0000
1003
0000
0000
0000
,  // measure 24
0200
0000
0000
0010
0000
0000
0010
0000
0001
0000
0000
0000
0001
0000
0000
0000
,  // measure 25
0310
0000
1000
0100
0000
0100
1000
0000
0001
0000
1000
0000
0010
0000
0000
0000
,  // measure 26
0100
0000
0001
0010
0000
0010
0001
0000
1000
0000
0001
0000
0100
0000
0000
0000
,  // measure 27
0001
0000
0010
0000
0100
0000
1000
0000
0100
1000
0100
0000
0010
0001
0010
0000
,  // measure 28
0220
0000
0000
0330
,  // measure 29
1000
0100
0000
1000
0100
0000
0010
0000
0100
0000
1000
0000
0010
0000
0100
0000
,  // measure 30
0001
0010
0000
0001
0010
0000
0001
0000
0100
0000
0100
0000
0010
0000
0000
0000
,  // measure 31
1000
0010
0000
0010
1000
0000
0001
0000
1000
0000
0010
0000
0100
0000
0000
0000
,  // measure 32
0001
0100
0000
0100
0001
0000
1000
0000
0100
0000
0100
0000
0010
0000
0010
0000
,  // measure 33
0001
0100
0000
0001
0100
0000
0001
0000
0010
0000
0100
0000
0010
0000
0001
0000
,  // measure 34
1000
0010
0000
1000
0010
0000
0100
0000
0010
0000
0010
0000
1000
0000
0000
0000
,  // measure 35
0100
1000
0000
1000
0100
0000
1000
0000
0001
0000
0100
0000
0001
0000
0000
0000
,  // measure 36
0010
0001
0000
0001
0010
0000
0001
0000
1000
0000
1000
0000
0010
0000
0010
0000
,  // measure 37
0201
0000
0000
0001
0000
0000
0001
0000
0010
0000
0010
0000
0001
0000
0000
0000
,  // measure 38
2300
0000
0000
0100
0000
0000
0100
0000
0001
0000
0001
0000
0010
0000
0000
0000
,  // measure 39
3002
0000
0000
0010
0000
0000
0010
0000
0100
0000
0100
0000
1000
0000
0000
0000
,  // measure 40
0023
0000
0000
0100
0000
0000
0100
0000
0001
0000
0001
0000
0100
0000
0130
0000
,  // measure 41
1000
0100
0000
1000
0000
0000
1000
0000
0001
0000
0001
0000
1000
0000
1000
0000
,  // measure 42
0001
0010
0000
0001
0000
0000
0001
0000
0100
0000
0100
0000
0010
0000
0010
0000
,  // measure 43
1000
0010
0000
1000
0000
0000
0000
0000
0100
0000
0000
0010
0000
0000
1001
0000
,  // measure 44
0010
0000
0000
0010
0000
0000
0010
0000
0100
0000
0001
0000
0010
0000
0100
0000
,  // measure 45
2000
0000
0000
0010
0000
0000
0010
0000
0001
0000
0001
0000
0001
0000
0000
0000
,  // measure 46
3200
0000
0000
0010
0000
0000
0010
0000
1000
0000
1000
0000
1000
0000
0000
0000
,  // measure 47
0320
0000
0000
0100
0000
0000
0100
0000
0001
0000
0001
0000
0001
0000
0000
0000
,  // measure 48
0032
0000
0000
0010
0000
0000
0010
0000
1000
0000
1000
0000
1000
0000
0000
0000
,  // measure 49
0103
0000
0010
0100
0000
0100
0010
0000
1000
0000
0100
0000
1000
0000
0000
0000
,  // measure 50
0001
0000
1000
0010
0000
0010
0100
0000
0001
0000
0010
0000
0001
0000
0000
0000
,  // measure 51
0100
0001
0010
0100
1000
0010
0100
0001
,  // measure 52
2000
0000
0002
3003
,  // measure 53
0100
0001
0000
0001
0100
0000
0010
0000
1000
0000
0100
0000
0010
0000
0001
0000
,  // measure 54
1000
0010
0000
0010
1000
0000
0001
0000
0010
0000
0100
0000
1000
0000
0000
0000
,  // measure 55
0001
0010
0000
0001
0010
0000
0100
0000
0010
0000
0001
0000
0100
0000
0000
0000
,  // measure 56
0010
1000
0000
0010
1000
0000
0001
0000
1000
0000
1000
0000
0100
0000
0100
0000
,  // measure 57
0010
0001
0000
0001
0010
0000
0001
0000
0100
0000
0010
0000
1000
0000
0001
0000
,  // measure 58
1000
0100
0000
0100
1000
0000
0010
0000
0100
0000
0001
0000
0100
0000
0000
0000
,  // measure 59
0001
0100
0000
0001
0100
0000
0001
0000
1000
0000
0010
0000
1000
0000
0000
0000
,  // measure 60
1000
0010
0000
1000
0010
0000
1000
0000
0001
0000
0001
0000
0100
0000
0100
0000
,  // measure 61
1010
0000
0000
0010
0000
0000
0010
0000
0100
0000
0001
0000
0100
0000
0010
0000
,  // measure 62
1000
0000
0000
1000
0000
0000
1000
0000
0001
0000
0010
0000
0100
0000
1000
0000
,  // measure 63
1000
0000
0000
0100
0000
0000
0010
0000
0001
0000
1000
0000
0001
0000
0100
0000
,  // measure 64
0000
0010
0000
1000
0000
0001
0000
1001
;
