#VERSION:0.83;
#TITLE:Be The One;
#SUBTITLE:;
#ARTIST:PANDORA feat.Beverly;
#TITLETRANSLIT:;
#SUBTITLETRANSLIT:;
#ARTISTTRANSLIT:;
#GENRE:;
#ORIGIN:;
#CREDIT:;
#BANNER:Be The One.png;
#BACKGROUND:Be The One-bg v2.png;
#PREVIEWVID:;
#JACKET:Be The One-jacket v2.png;
#CDIMAGE:Be The One-jacket.png;
#DISCIMAGE:Be The One-bg.png;
#LYRICSPATH:;
#CDTITLE:;
#MUSIC:Be The One.ogg;
#OFFSET:-0.041000;
#SAMPLESTART:45.915001;
#SAMPLELENGTH:15.000000;
#SELECTABLE:YES;
#BPMS:0.000=136.000;
#STOPS:;
#DELAYS:;
#WARPS:;
#TIMESIGNATURES:0.000=4=4;
#TICKCOUNTS:0.000=4;
#COMBOS:0.000=1;
#SPEEDS:0.000=1.000=0.000=0;
#SCROLLS:0.000=1.000;
#FAKES:;
#LABELS:0.000=Song Start;
#BGCHANGES:0.000=Be The One.avi=1.000=0=0=0=StretchNoLoop====,
99999=-nosongbg-=1.000=0=0=0 // don't automatically add -songbackground-
;
#KEYSOUNDS:;
#ATTACKS:
;

//---------------dance-single - ----------------
#NOTEDATA:;
#CHARTNAME:;
#STEPSTYPE:dance-single;
#DESCRIPTION:;
#CHARTSTYLE:;
#DIFFICULTY:Beginner;
#METER:2;
#RADARVALUES:0.097576,0.163928,0.031525,0.031525,0.000000,65.000000,62.000000,3.000000,3.000000,0.000000,0.000000,0.000000,0.000000,0.000000,0.097576,0.163928,0.031525,0.031525,0.000000,65.000000,62.000000,3.000000,3.000000,0.000000,0.000000,0.000000,0.000000,0.000000;
#CREDIT:;
#NOTES:
0000
0000
0000
0000
,
0000
0000
0000
0000
,
0000
0000
0000
0000
,
0000
0000
0000
0000
,
0000
0000
0000
0000
,
0000
0000
0000
0000
,
0000
0000
0000
0000
,
0000
0000
0000
0000
,
0000
0000
0000
0000
,
1000
0000
0100
0000
,
0000
0000
0000
0000
,
0001
0000
0010
0000
,
0001
0000
0000
0000
,
0100
0000
0010
0000
,
0000
0000
0000
0000
,
1000
0000
0001
0000
,
1000
1000
0000
0000
,
0100
0000
0010
0000
,
0000
0000
0000
0000
,
0010
0000
0001
0000
,
0100
0000
0000
0000
,
0010
0000
1000
0000
,
0000
0000
0000
0000
,
0100
0000
1000
0000
,
0001
0000
0100
0000
,
0020
0000
0030
0000
,
1001
0000
0001
0000
,
0001
0000
0000
0000
,
1000
0000
0100
0000
,
0010
0000
0100
0000
,
1000
0000
1000
0000
,
1000
0000
0000
0000
,
0001
0000
1000
0000
,
0010
0000
0000
0000
,
0100
0000
0010
0000
,
0100
0000
0001
0000
,
0100
0000
0010
0000
,
1000
0000
0000
0000
,
0010
0000
0010
0000
,
0010
0000
0000
0000
,
0100
0000
0001
0000
,
1000
0000
0100
0000
,
0110
0000
0000
0000
,
0001
0000
0000
0000
,
1000
0000
0000
0000
,
0010
0000
0000
0000
,
0100
0000
0100
0000
,
0100
0000
0000
0000
,
0010
0000
0010
0000
,
1000
0000
0001
0000
,
2002
0000
0000
0000
,
0000
0000
0000
0000
,
3003
0000
0000
0000
;

//---------------dance-single - ----------------
#NOTEDATA:;
#CHARTNAME:;
#STEPSTYPE:dance-single;
#DESCRIPTION:;
#CHARTSTYLE:;
#DIFFICULTY:Easy;
#METER:6;
#RADARVALUES:0.189147,0.300534,0.073557,0.042033,0.000000,126.000000,119.000000,7.000000,4.000000,0.000000,0.000000,0.000000,0.000000,0.000000,0.189147,0.300534,0.073557,0.042033,0.000000,126.000000,119.000000,7.000000,4.000000,0.000000,0.000000,0.000000,0.000000,0.000000;
#CREDIT:;
#NOTES:
0000
0000
0000
0000
,
0000
0000
0000
0000
,
0000
0000
0000
0000
,
0000
0000
0000
0000
,
0000
0000
0000
0000
,
0000
0000
0000
0000
,
0000
0000
0000
0000
,
0000
0000
0000
0000
,
0000
0000
0000
0000
,
0100
0000
0100
0000
,
0001
0000
1000
0001
,
1000
0000
0100
0000
,
0010
0001
1000
0100
,
0010
0000
0001
0000
,
1000
0000
0100
1000
,
0010
0000
0100
0000
,
0001
0001
0001
0000
,
0010
0000
0001
0000
,
0010
0000
0100
0100
,
1000
0000
0001
0000
,
1000
0010
0100
0001
,
0010
0000
0100
0000
,
0010
0000
0001
0010
,
1000
0000
0100
0000
,
1000
0001
1000
0000
,
2002
0000
0000
3003
,
0110
0000
0000
0100
0000
0000
0001
0000
,
0000
0001
0000
0000
1000
0000
0000
0000
,
0100
0010
0100
1000
,
0001
0100
0010
0000
,
0001
0000
0000
0010
0000
0000
1000
0000
,
0000
0100
0000
0000
1000
0000
0000
0000
,
0010
1000
0001
0010
,
0100
0100
0110
0000
,
0001
0001
0010
0010
,
0100
0100
1000
0000
,
0100
0100
0010
0010
,
0001
1000
0001
0000
,
1001
0000
0000
1000
0000
0000
0010
0000
,
0000
0100
0000
0000
0001
0000
0001
0000
,
0010
0010
0100
0100
,
1000
0001
0110
1001
,
1000
0100
0001
0000
,
0001
0010
1000
0000
,
0001
0100
1000
0000
,
1000
0010
0001
0000
,
1000
0000
0000
0100
0000
0000
0010
0000
,
0000
0001
0000
0000
0010
0000
0010
0000
,
0001
0000
0000
0010
0000
0000
0000
0000
,
0100
0100
1000
2002
,
0000
0000
0000
0000
,
0000
0000
0000
0000
,
3003
0000
0000
0000
;

//---------------dance-single - ----------------
#NOTEDATA:;
#CHARTNAME:;
#STEPSTYPE:dance-single;
#DESCRIPTION:;
#CHARTSTYLE:;
#DIFFICULTY:Medium;
#METER:9;
#RADARVALUES:0.334760,0.409819,0.262704,0.042033,0.000000,223.000000,198.000000,25.000000,4.000000,0.000000,0.000000,0.000000,0.000000,0.000000,0.334760,0.409819,0.262704,0.042033,0.000000,223.000000,198.000000,25.000000,4.000000,0.000000,0.000000,0.000000,0.000000,0.000000;
#CREDIT:;
#NOTES:
0000
0000
0000
0000
,
0000
0000
0000
0000
,
0000
0000
0000
0000
,
0000
0000
0000
0000
,
0000
0000
0000
0000
,
0000
0000
0000
0000
,
0000
0000
0000
0000
,
0000
0000
0000
0000
,
0000
0000
0000
0000
0000
0000
0000
0010
,
1000
0000
0000
0100
0010
0000
0000
0001
,
1000
0000
0000
0010
0100
0001
0010
0100
,
1000
0000
0000
1000
0001
0000
0000
0000
,
1000
0000
0001
0000
0100
0000
0010
0010
,
0100
0000
0000
0010
1000
0000
0000
0001
,
0010
0000
0000
0100
1000
0010
0100
0001
,
1000
0000
0000
1000
0100
0000
0000
0010
,
0001
1000
0001
0000
0100
0000
0000
0100
,
0010
0000
0000
0010
1000
0000
0000
1000
,
0100
0000
0000
0001
0010
0100
1000
1000
,
0001
0000
0000
0001
0100
0001
0100
0000
,
0010
0000
0010
0000
1000
0000
0100
0100
,
1000
0000
0000
1000
0001
0000
0000
0001
,
0100
0000
0000
0100
0010
1000
0010
0100
,
0001
0000
0000
0001
1000
0001
1000
0000
,
1001
0110
1001
0000
,
0220
0000
0000
0330
,
0110
0000
0100
0001
0000
0001
0010
0000
,
0010
0100
0000
0000
0011
0000
1100
0000
,
1001
0000
0010
0000
0100
1000
0000
1000
,
0001
0100
0001
1000
0010
1000
0100
0000
,
1001
0000
0001
1000
0000
1000
0100
0000
,
0100
0010
0000
0000
1100
0000
0101
0000
,
1000
0001
0100
0000
0010
0010
0100
0000
,
0001
1000
1100
0101
,
1001
1000
0100
0000
0010
0000
0010
0001
,
0000
0001
0100
0000
0010
1000
0010
0000
,
1000
0100
1000
0000
0001
0010
0001
1000
,
0000
1000
0010
0000
0100
0100
0001
0000
,
1001
0000
1000
0100
0000
0000
1001
0000
,
0001
0010
0000
0000
0110
0000
1001
0000
,
0010
0010
0100
0100
,
1000
0001
0110
1001
,
1000
0010
1000
0100
0000
0000
0001
0010
,
0001
0100
0000
0000
0010
0010
0100
0100
,
0001
0010
0100
1000
0000
0000
1000
0100
,
0010
0001
0000
0001
1000
1000
0100
0000
,
0110
0000
1000
0100
0000
0000
0110
0000
,
0001
0010
0000
0000
0001
0001
1000
0000
,
1010
0000
0010
0100
0000
0100
0010
0000
,
0001
1100
0010
2002
,
0000
0000
0000
0000
,
0000
0000
0000
0000
,
3003
0000
0000
0000
;

//---------------dance-single - ----------------
#NOTEDATA:;
#CHARTNAME:;
#STEPSTYPE:dance-single;
#DESCRIPTION:;
#CHARTSTYLE:;
#DIFFICULTY:Hard;
#METER:12;
#RADARVALUES:0.447348,0.491783,0.472868,0.084065,0.052541,298.000000,253.000000,45.000000,8.000000,0.000000,0.000000,0.000000,0.000000,0.000000,0.447348,0.491783,0.472868,0.084065,0.052541,298.000000,253.000000,45.000000,8.000000,0.000000,0.000000,0.000000,0.000000,0.000000;
#CREDIT:;
#NOTES:
// measure 0
0000
0000
0000
0000
,  // measure 1
0000
0000
0000
0000
,  // measure 2
0000
0000
0000
0000
,  // measure 3
0000
0000
0000
0000
,  // measure 4
0000
0000
0000
0000
,  // measure 5
0000
0000
0000
0000
,  // measure 6
0000
0000
0000
0000
,  // measure 7
0000
0000
0000
0000
,  // measure 8
0000
0000
0000
0000
0000
0000
0000
0100
,  // measure 9
0001
0000
0001
0100
0010
0000
0010
1000
,  // measure 10
0100
0000
1000
0010
0100
0001
0100
0010
,  // measure 11
1000
0000
0010
0100
0001
1000
0001
0000
,  // measure 12
1100
0000
0101
0000
0011
0000
1010
1000
,  // measure 13
0100
0000
1000
0010
0100
0000
0001
0010
,  // measure 14
0100
0000
1000
0100
0010
0001
0010
0100
,  // measure 15
1000
0000
0001
0100
0010
0000
1000
0100
,  // measure 16
0010
0010
0001
0000
1000
0000
0000
0010
,  // measure 17
0110
0000
0000
0100
0001
0000
0100
0000
0010
0000
0000
0010
1000
0000
0001
0000
,  // measure 18
1000
0000
0000
1000
0100
0000
0010
0000
0001
0000
0010
0000
0100
0000
1000
0000
,  // measure 19
0001
0000
0000
0001
1000
0000
0010
0000
0100
0000
0000
0100
0010
0000
0000
0000
,  // measure 20
0101
0000
1100
0000
1010
0000
0011
0001
,  // measure 21
1000
0000
0000
1000
0010
0000
0100
0000
0001
0000
0000
0001
0100
0000
0001
0000
,  // measure 22
1000
0000
0000
1000
0100
0000
0010
0000
0001
0000
0010
0000
0100
0000
1000
0000
,  // measure 23
0001
0000
0000
0001
0010
0000
0001
0000
1000
0000
0000
1000
0010
0000
0000
0000
,  // measure 24
0110
1010
0011
0100
,  // measure 25
2002
0000
0000
3003
,  // measure 26
1010
1000
0100
1000
0010
0000
0011
0001
,  // measure 27
0100
0001
0010
0000
0110
0000
1001
0000
,  // measure 28
1100
0000
0101
0000
0100
0001
0010
1000
,  // measure 29
0010
1000
0010
0001
0100
0010
1000
0000
,  // measure 30
0101
0100
1000
0100
1000
0000
1100
0100
,  // measure 31
0001
0100
0001
0000
1001
0000
0110
0000
,  // measure 32
1000
0010
0100
0000
0001
0100
0010
1000
,  // measure 33
0010
0101
1001
1100
,  // measure 34
1001
0010
0100
0000
0010
0000
1000
0100
,  // measure 35
0000
0010
0001
0100
1000
0100
0001
0100
,  // measure 36
0010
1000
0010
1000
0100
0010
0001
1000
,  // measure 37
0001
0010
0100
1000
0100
0010
0001
0010
,  // measure 38
0110
0100
1000
0100
0001
0000
0110
0010
,  // measure 39
0001
0010
1000
0000
0101
0000
1010
0000
,  // measure 40
0001
1100
0010
1001
,  // measure 41
0010
0010
0100
0100
0001
0000
1001
0000
,  // measure 42
2100
0100
0001
0001
3000
0000
0012
0010
,  // measure 43
1000
1000
0003
0000
0010
0010
0100
0100
,  // measure 44
1020
1000
0100
0100
0030
0000
0201
0001
,  // measure 45
0010
0310
0000
0010
1000
0100
1000
0001
,  // measure 46
0011
0100
1000
0001
0100
0000
1100
1000
,  // measure 47
0001
0100
0010
0000
1000
1000
0001
0001
,  // measure 48
0110
1000
0100
0010
0000
0010
0001
0000
,  // measure 49
1010
0101
0110
2002
,  // measure 50
0000
0000
0000
0000
,  // measure 51
0000
0000
0000
0000
,  // measure 52
3003
0000
0000
0000
;
