#TITLE:BURST THE GRAVITY;
#SUBTITLE:;
#ARTIST:Hommarju feat. yumemi + る~と;
#TITLETRANSLIT:;
#SUBTITLETRANSLIT:;
#ARTISTTRANSLIT:Hommarju feat. yumemi + Ru~To;
#GENRE:;
#CREDIT:;
#BANNER:BURST THE GRAVITY.png;
#BACKGROUND:BURST THE GRAVITY-bg.png;
#LYRICSPATH:;
#CDTITLE:;
#MUSIC:BURST THE GRAVITY.ogg;
#OFFSET:-0.000000;
#SAMPLESTART:71.657997;
#SAMPLELENGTH:15.000000;
#SELECTABLE:YES;
#BPMS:0.000000=144.000000
;
#STOPS:
;
#BGCHANGES:;
#KEYSOUNDS:;
#ATTACKS:;

//---------------dance-single - ----------------
#NOTES:
     dance-single:
     :
     Beginner:
     3:
     0.122906,0.202677,0.066180,0.066180,0.000000,104.000000,96.000000,8.000000,8.000000,0.000000,0.000000,0.122906,0.202677,0.066180,0.066180,0.000000,104.000000,96.000000,8.000000,8.000000,0.000000,0.000000:
0000
0000
0000
0000
,
0000
0000
0000
0000
,
0000
0000
0000
0000
,
0000
0000
0000
0000
,
0000
0000
0000
0000
,
2000
0000
0000
3000
,
0000
0000
0000
0000
,
0002
0000
0000
0000
,
0003
0000
0000
0000
,
0000
0000
0000
0000
,
0010
0000
0010
0000
,
0010
0000
0000
0000
,
0100
0000
0100
0000
,
0100
0000
0000
0000
,
1000
0000
1000
0000
,
1000
0000
0000
0000
,
0001
0000
0001
0000
,
0001
0000
0000
0000
,
0100
0000
0001
0000
,
0100
0000
0000
0000
,
0010
0000
1000
0000
,
0010
0000
0000
0000
,
0200
0000
0300
0000
,
0020
0000
0030
0000
,
0001
0000
1000
0000
,
0001
0000
0000
0000
,
1000
0000
0010
0000
,
0100
0000
0000
0000
,
0001
0000
0010
0000
,
0100
0000
0000
0000
,
2000
0000
3000
0000
,
0002
0000
0003
0000
,
0100
0000
0001
0000
,
1000
0000
0000
0000
,
0010
0000
0010
0000
,
0010
0000
0000
0000
,
0100
0100
0000
0000
,
0100
0100
0000
0000
,
0100
0000
0100
0000
,
0100
0000
0000
0000
,
0010
0010
0000
0000
,
0010
0010
0000
0000
,
0000
0000
0000
0000
,
1001
0000
1001
0000
,
0110
0000
0000
0000
,
0001
0000
1000
0000
,
0001
0000
0000
0000
,
0010
0010
0010
0000
,
0100
0100
0100
0000
,
1000
0000
0001
0000
,
1000
0000
0000
0000
,
0110
0000
0110
0000
,
1001
0000
0000
0000
,
1000
0000
0001
0000
,
1000
0000
0000
0000
,
0010
0010
0010
0000
,
0100
0100
0100
0000
,
0001
0000
0010
0000
,
0001
0000
0000
0000
,
0100
0000
1000
0000
,
0220
0000
0000
0000
,
0330
0000
0000
0000
,
1000
0000
1000
0000
,
1000
0000
0000
0000
,
0100
0000
0100
0000
,
0100
0000
0000
0000
,
0010
0000
0010
0000
,
0010
0000
0000
0000
,
0001
0000
0001
0000
,
0001
0000
0000
0000
,
1001
0000
0000
0000
;

//---------------dance-single - ----------------
#NOTES:
     dance-single:
     :
     Easy:
     5:
     0.223358,0.289539,0.074453,0.107543,0.000000,189.000000,180.000000,9.000000,13.000000,0.000000,0.000000,0.223358,0.289539,0.074453,0.107543,0.000000,189.000000,180.000000,9.000000,13.000000,0.000000,0.000000:
0000
0000
0000
0000
,
0000
0000
0000
0000
,
0000
0000
0000
0000
,
0000
0000
0000
0000
,
0000
0000
0000
0000
,
0002
0000
0000
0000
,
0023
0000
0000
0000
,
0230
0000
0000
0000
,
2300
0000
0000
0000
,
0002
0000
0000
3003
,
0010
0010
0100
1000
,
0001
0000
0001
0000
,
0100
0100
0010
1000
,
0001
0000
0001
0000
,
0100
0100
0001
0010
,
0100
0000
0100
0000
,
1000
1000
0001
0100
,
0010
0010
1000
0000
,
0001
0100
0010
0100
,
0001
0000
0001
0000
,
1000
0100
0010
0100
,
1000
0000
1000
0000
,
0001
0001
0100
0000
,
1000
1000
0100
0000
,
1000
0000
0001
0000
,
0010
0100
0110
0000
,
0100
0001
0010
0001
,
1000
0010
1000
0000
,
0010
1000
0100
1000
,
0001
0100
0001
0000
,
1000
0100
1000
0000
,
0001
0100
0001
0000
,
0100
0100
0010
0010
,
1000
0001
1001
0000
,
0200
0000
0010
0000
,
0010
0000
0010
0000
,
0320
1000
1000
0000
,
0100
0000
0100
0000
,
2030
0100
0100
0000
,
0001
0000
0001
0000
,
3002
0000
0010
0000
,
1000
1000
2000
0000
,
3003
0000
0000
0000
,
1001
0100
0001
0100
,
1000
0100
0001
0100
,
1000
1000
0010
0010
,
0110
0000
0000
0000
,
0010
0100
0001
0000
,
0010
0100
1000
0000
,
0100
0100
1000
1000
,
0001
0010
1001
0000
,
1001
0010
1000
0010
,
0001
0010
1000
0010
,
0001
0001
0100
0100
,
0110
0000
0000
0000
,
0100
0010
1000
0000
,
0100
0010
0001
0000
,
0010
0010
0001
0001
,
2000
0000
0000
3000
,
1000
1000
0001
0001
,
0220
0000
0000
0000
,
0330
0000
0000
0000
,
0100
0100
0010
1000
,
0001
0000
0001
0000
,
0010
0010
0100
1000
,
0001
0000
0001
0000
,
1000
1000
0001
0100
,
0010
0000
0010
0000
,
0001
0001
1000
0100
,
0010
0010
0100
0000
,
1001
0000
0000
0000
;

//---------------dance-single - ----------------
#NOTES:
     dance-single:
     :
     Medium:
     10:
     0.386445,0.434308,0.173723,0.140633,0.157178,327.000000,306.000000,21.000000,17.000000,0.000000,0.000000,0.386445,0.434308,0.173723,0.140633,0.157178,327.000000,306.000000,21.000000,17.000000,0.000000,0.000000:
0000
0000
0000
0000
,
0000
0000
0000
0000
,
0000
0000
0000
0000
,
0000
0000
0000
0000
,
0000
0000
0000
0000
,
1000
1000
2000
0000
,
0010
0010
3020
0000
,
0230
0000
0302
0000
,
0023
0000
0000
0000
,
0200
0000
0330
0110
,
1001
0000
0000
1000
0000
0000
0100
0000
0000
1000
0000
0000
0010
0000
0000
0000
,
0100
0000
0000
0001
0000
0000
0010
0000
0000
0001
0000
0000
1000
0000
1000
0000
,
1001
0000
0000
0001
0000
0000
0100
0000
0000
0001
0000
0000
1000
0000
0000
0000
,
0010
0000
0000
1000
0000
0000
0001
0000
0000
1000
0000
0000
0100
0000
0100
0000
,
0110
0000
0000
0010
0000
0000
0001
0000
0000
1000
0000
0000
0001
0000
0000
0000
,
0100
0000
0000
0010
0000
0000
1000
0000
0000
0001
0000
0000
1000
0000
1000
0000
,
1010
0000
0000
0100
0000
0000
0001
0000
0000
1000
0000
0000
0100
0000
0000
0000
,
0010
0000
0000
0001
0000
0000
0011
0000
0000
0010
0000
0000
0100
0000
0100
0000
,
1000
0000
0001
0000
1000
0010
1000
0010
,
0000
0100
0100
0000
0001
1000
0001
0000
,
0010
0000
0010
0000
0100
1000
0001
0100
,
0000
0010
0010
0000
1000
0000
0010
0100
,
0001
0000
0000
0001
0000
0000
1000
0000
0100
0000
0000
0000
1000
0000
0100
0000
,
0010
0100
1000
0000
0001
0000
1000
0010
,
1000
0000
0000
0001
0100
0000
0001
0000
,
1000
0000
1000
0100
0010
0000
0001
0000
,
0100
0000
0100
0000
0010
0100
0001
1000
,
0000
0100
0100
0000
0010
0000
0000
0100
,
0100
0000
1000
0000
0001
0100
0010
1000
,
0000
1000
0001
0000
1000
0000
0000
0001
,
0001
0000
0000
0100
0000
0000
0100
0000
0010
0000
0000
0000
1000
0000
0010
0000
,
0100
0001
0010
0000
0100
0000
0010
0010
,
0001
0000
0000
0001
1000
0000
1000
0001
,
0000
0100
0100
0000
0010
0000
0000
0000
,
2001
0000
0001
0000
0100
0100
0000
0010
,
0000
0010
0010
0000
0100
0000
0100
0000
,
3002
0000
0010
0000
0100
0000
0000
1000
,
0000
1000
1000
0000
0100
0000
0013
0000
,
1000
0100
0001
0100
,
1000
0000
0100
0001
0100
0000
1000
0001
,
0100
0000
0000
0001
0000
0000
1000
0000
0010
0000
0000
0100
0000
0000
0001
0000
,
0010
0000
0000
0010
0000
0000
0100
0000
0020
0000
0000
0000
0000
0000
0000
0000
,
0030
0000
0000
1001
,
1000
0100
0001
0100
1000
0000
1000
0010
,
0001
0010
1000
0000
1000
0001
1000
0000
,
0101
0001
1100
0010
,
2002
0000
0000
0000
0003
0100
3100
0000
,
0010
0000
0010
0000
0001
0000
0000
0001
,
0100
0001
0100
0010
1000
0000
0001
1000
,
0100
0100
0010
0010
,
0001
1000
0001
1000
0010
0000
0000
0000
,
0001
0100
1000
0100
0001
0000
0001
0010
,
1000
0010
0001
0000
0001
1000
0001
0000
,
1010
0100
0011
0001
,
2002
0000
0000
0000
0003
0010
3010
0000
,
0100
0000
0100
0000
1000
0000
0000
1000
,
0001
1000
0001
1000
0010
0000
0100
0000
,
0001
1000
0100
0000
1000
0010
0100
0000
,
0002
0000
0000
0000
0000
0000
1000
1000
,
2003
0000
0010
0010
3010
0000
0100
0000
,
0010
0000
0000
2002
0000
0000
0000
0000
0000
0000
0000
0000
0000
0000
0000
0000
,
3003
0000
0000
0000
,
1001
0000
0000
0001
0000
0000
0100
0000
0000
0001
0000
0000
0010
0000
0000
0000
,
0100
0000
0000
1000
0000
0000
0010
0000
0000
1000
0000
0000
0001
0000
0001
0000
,
1001
0000
0000
1000
0000
0000
0100
0000
0000
1000
0000
0000
0001
0000
0000
0000
,
0010
0000
0000
0001
0000
0000
1000
0000
0000
0001
0000
0000
0100
0000
0100
0000
,
0110
0000
0000
0010
0000
0000
1000
0000
0000
0001
0000
0000
1000
0000
0000
0000
,
0100
0000
0000
0010
0000
0000
0001
0000
0000
1000
0000
0000
0001
0000
0001
0000
,
0011
0000
0000
0100
0000
0000
1000
0000
0000
0001
0000
0000
0100
0000
0000
0000
,
0010
0000
0000
1000
0000
0000
1010
0000
0000
0100
0000
0000
0001
0000
0000
0000
,
0110
0000
0000
0000
;

//---------------dance-single - ----------------
#NOTES:
     dance-single:
     :
     Hard:
     12:
     0.498715,0.665939,0.231631,0.124088,0.206813,422.000000,394.000000,28.000000,15.000000,0.000000,0.000000,0.498715,0.665939,0.231631,0.124088,0.206813,422.000000,394.000000,28.000000,15.000000,0.000000,0.000000:
// measure 0
0000
0000
0000
0000
,  // measure 1
0000
0000
0000
0000
,  // measure 2
0000
0000
0000
0000
,  // measure 3
0000
0000
0000
0000
,  // measure 4
0000
0000
0000
0000
,  // measure 5
0100
0000
0100
0000
0010
0000
0000
1000
,  // measure 6
0010
1000
0010
0100
0001
0000
0010
0100
,  // measure 7
1000
0000
0000
0001
0000
0000
0100
0000
0010
0000
0000
1000
0000
0000
0001
0000
,  // measure 8
0020
0000
0000
0000
,  // measure 9
0200
0000
0000
0330
,  // measure 10
1001
0000
0000
1000
0000
0000
0001
0000
0000
0001
0000
0000
0010
0000
0001
0000
,  // measure 11
0200
0000
0000
0010
0000
0000
1000
0000
0000
0010
0000
0000
0001
0000
0301
0000
,  // measure 12
1000
0000
0000
0001
0000
0000
0010
0000
0000
0100
0000
0000
1000
0000
1000
0000
,  // measure 13
0020
0000
0000
0100
0000
0000
0001
0000
0000
0100
0000
0000
1000
0000
1030
0000
,  // measure 14
1010
0000
0000
0100
0000
0000
0001
0000
0000
1000
0000
0000
0100
0000
0010
0000
,  // measure 15
0002
0000
0000
1000
0000
0000
0010
0000
0000
0100
0000
0000
0010
0000
0013
0000
,  // measure 16
0101
0000
0000
1100
0000
0000
0110
0000
0000
1000
0001
1000
0001
0000
1000
0000
,  // measure 17
1100
0000
0000
0101
0000
0000
0210
0000
0000
0000
0000
0000
0010
0000
0310
0000
,  // measure 18
1000
0010
1000
0000
0001
0100
0010
1000
,  // measure 19
0000
0001
0001
0000
0010
0100
0010
0100
,  // measure 20
0100
1000
0100
0000
1000
0010
0100
0001
,  // measure 21
0000
0010
0010
0000
0100
0000
0010
0010
,  // measure 22
0001
0000
0000
0100
0010
0000
1000
0000
0100
0000
0000
0000
1000
0000
1000
0000
,  // measure 23
0001
0100
1000
0100
0001
0000
1000
0100
,  // measure 24
0010
0000
0001
0100
0010
0000
1000
0100
,  // measure 25
0010
0000
0000
0010
0001
0000
1000
0000
0010
0000
0000
0000
0110
0000
0000
0000
,  // measure 26
0001
0100
0001
0000
1000
0010
0100
0001
,  // measure 27
0000
0100
0100
0000
0010
1000
0010
0010
,  // measure 28
1000
0001
0100
0000
0001
1000
0100
0010
,  // measure 29
0000
0010
0001
0000
0100
0000
0010
1000
,  // measure 30
1000
0000
0000
0001
0010
0000
0100
0000
1000
0000
0000
0000
0100
0000
0100
0000
,  // measure 31
1000
0100
0001
0100
0001
0100
1000
0010
,  // measure 32
0100
0000
0001
0010
0100
0100
1000
0001
,  // measure 33
0000
0100
0100
0000
0010
0010
1000
0001
,  // measure 34
2001
0000
0010
0000
0100
0100
0000
0010
,  // measure 35
0000
0001
0001
3001
0000
1000
0001
0010
,  // measure 36
0001
0100
0001
0000
0100
0010
0100
0000
,  // measure 37
0010
1000
0010
0000
1000
0100
0010
0001
,  // measure 38
1001
0001
0100
0010
0100
0001
0010
0100
,  // measure 39
1000
0010
0100
0010
1000
0100
0010
0001
,  // measure 40
1000
0100
1000
0000
0010
0000
0100
0000
0001
0010
0001
0000
0100
0000
0010
0000
,  // measure 41
1000
0000
0000
1000
0000
0000
0100
0000
0110
0000
0010
0000
0001
1000
0001
0000
,  // measure 42
0200
0000
0000
0310
,  // measure 43
0001
0100
1000
0100
0001
0000
0001
0010
,  // measure 44
1000
0010
0001
0000
0001
0100
1000
0100
,  // measure 45
0001
0010
0100
0000
1000
0010
0100
0001
,  // measure 46
0020
0000
0100
0000
0000
0100
0130
1000
,  // measure 47
0001
0000
0001
0000
1001
0000
0100
1000
,  // measure 48
0010
1000
0010
0100
0001
0000
1000
0010
,  // measure 49
0100
0000
0000
0100
0000
0000
0001
0000
0010
0000
0000
0010
0000
0000
0001
0000
,  // measure 50
1000
0000
0000
1000
0000
0000
0010
0000
0100
0000
0010
0000
0110
0000
0000
0000
,  // measure 51
1000
0100
0001
0100
1000
0000
1000
0010
,  // measure 52
0001
0010
1000
0000
1000
0100
0001
0100
,  // measure 53
1000
0010
0100
0000
0001
0010
0100
1000
,  // measure 54
0020
0000
0100
0000
0000
0130
0100
0001
,  // measure 55
1000
0100
1000
0000
0001
0000
0110
0010
,  // measure 56
1000
0001
0100
0010
1000
0100
1000
0000
,  // measure 57
0001
0000
0000
0100
0000
0000
0001
0000
1000
0000
0000
0100
0000
0000
1000
0000
,  // measure 58
0010
0000
0100
0000
0001
0001
1000
1000
,  // measure 59
0100
0000
0000
1000
0000
0000
1010
0000
0100
0000
0000
0001
0000
0000
0011
0000
,  // measure 60
0100
0000
2000
0002
0000
0000
0000
0000
0000
0000
0000
0000
3003
0000
0000
0000
,  // measure 61
1001
0000
0000
0000
,  // measure 62
1001
0000
0000
0001
0000
0000
0010
0000
0000
0100
0000
0000
1000
0000
1000
0000
,  // measure 63
0020
0000
0000
1000
0000
0000
0100
0000
0000
0001
0000
0000
0100
0000
0130
0000
,  // measure 64
0001
0000
0000
1000
0000
0000
0100
0000
0000
0010
0000
0000
0001
0000
0001
0000
,  // measure 65
0200
0000
0000
1000
0000
0000
0010
0000
0000
0001
0000
0000
0310
0000
0010
0000
,  // measure 66
1010
0000
0000
0100
0000
0000
0001
0000
0000
0010
0000
0000
0100
0000
0100
0000
,  // measure 67
2000
0000
0000
0100
0000
0000
0001
0000
0000
0010
0000
0000
0001
0000
3001
0000
,  // measure 68
1001
0000
0000
0110
0000
0000
1100
0000
0000
0001
0100
0010
1000
0000
0001
0000
,  // measure 69
1100
0000
0000
0101
0000
0000
0110
0000
0000
1010
0000
0000
0010
0000
0010
0000
,  // measure 70
0101
0000
0000
0000
;
