#TITLE:BLUE (DA BA DEE);
#SUBTITLE:;
#ARTIST:EIFFEL 65;
#TITLETRANSLIT:;
#SUBTITLETRANSLIT:;
#ARTISTTRANSLIT:;
#GENRE:;
#CREDIT:;
#BANNER:BLUE (DA BA DEE).png;
#BACKGROUND:BLUE (DA BA DEE)-bg.png;
#LYRICSPATH:;
#CDTITLE:Dancemania Diamond Complete Edition copy.png;
#MUSIC:BLUE (DA BA DEE).ogg;
#OFFSET:1.420000;
#SAMPLESTART:48.730000;
#SAMPLELENGTH:15.000000;
#LASTBEATHINT:0.895867;
#SELECTABLE:YES;
#BPMS:0.000000=127.981010
;
#STOPS:
;
#BGCHANGES:;
#KEYSOUNDS:;
#ATTACKS:;

//---------------dance-single - ----------------
#NOTES:
     dance-single:
     :
     Beginner:
     2:
     0.108364,0.160224,0.038701,0.023221,0.000000,98.000000,93.000000,5.000000,3.000000,0.000000,0.000000,0.108364,0.160224,0.038701,0.023221,0.000000,98.000000,93.000000,5.000000,3.000000,0.000000,0.000000:
0000
0000
0000
0000
,
0000
0000
0000
0000
,
0000
0000
0000
0000
,
0000
0000
0000
0000
,
0000
0000
0000
0000
,
0000
0000
0000
0000
,
0001
0000
0000
0000
,
0100
0000
0000
0000
,
0010
0000
0000
0000
,
1000
0000
0000
0000
,
0001
0000
1000
0000
,
0100
0000
0000
0000
,
1000
0000
0001
0000
,
0010
0000
0000
0000
,
0100
0000
1000
0000
,
0010
0000
0000
0000
,
0100
0000
0001
0000
,
2002
0000
0000
0000
,
3003
0000
0000
0000
,
0010
0000
0010
0000
,
0010
0000
0000
0000
,
0100
0000
0100
0000
,
0100
0000
0000
0000
,
1000
0000
1000
0000
,
1000
0000
0000
0000
,
0001
0000
0001
0000
,
0001
0000
0000
0000
,
1001
0000
0000
0000
,
0100
0000
0010
0000
,
1000
0000
0000
0000
,
0010
0000
0100
0000
,
0001
0000
0000
0000
,
0010
0000
0001
0000
,
1000
0000
0000
0000
,
0100
0000
1000
0000
,
0010
0000
0000
0000
,
0100
0100
0100
0000
,
0001
0000
0000
0000
,
0001
0001
0001
0000
,
1000
0000
0000
0000
,
1000
1000
1000
0000
,
0010
0000
0000
0000
,
0100
0000
0000
0000
,
0110
0000
0010
0000
,
0010
0000
0010
0000
,
0010
0000
0000
0000
,
0001
0000
0000
1000
,
1000
0000
0000
0000
,
0100
0000
1000
0000
,
0010
0000
0000
0000
,
0100
0100
0000
0000
,
0010
0000
0001
0000
,
1000
0000
0000
0000
,
0110
0000
0000
0000
,
0100
0000
0000
0001
,
0001
0000
0000
0000
,
0001
0000
0100
0000
,
1000
0000
0000
0000
,
0010
0010
0000
0000
,
1000
0000
0010
0000
,
0001
0000
0000
0000
,
1001
0000
0000
0000
,
0001
0000
0100
0000
,
0010
0000
0000
0000
,
1000
0000
0100
0000
,
0010
0000
0000
0000
,
0001
0000
1000
0000
,
0010
0000
0000
0000
,
0200
0000
0000
0000
,
0300
0000
0000
0000
;

//---------------dance-single - ----------------
#NOTES:
     dance-single:
     :
     Easy:
     5:
     0.205671,0.267040,0.061922,0.046442,0.000000,186.000000,178.000000,8.000000,6.000000,0.000000,0.000000,0.205671,0.267040,0.061922,0.046442,0.000000,186.000000,178.000000,8.000000,6.000000,0.000000,0.000000:
0000
0000
0000
0000
,
0000
0000
0000
0000
,
0000
0000
0000
0000
,
0000
0000
0000
0000
,
0000
0000
0000
0000
,
0000
0000
0000
0000
,
1000
0000
0100
0000
,
0001
0000
0100
0000
,
1000
0000
0010
0000
,
0001
0000
1000
0000
,
0010
0001
0010
0000
,
0100
1000
0100
1000
,
1000
0001
1000
0000
,
0010
0100
0001
1000
,
0001
0010
0001
0000
,
1000
0100
0010
0001
,
0100
0000
0010
0010
,
2002
0000
0000
0000
,
3003
0000
0000
0100
,
0100
0000
0010
1000
,
0010
0000
0100
0001
,
0100
0000
0001
0010
,
0001
0000
1000
0100
,
1000
0000
0010
1000
,
0010
0000
0100
0001
,
0100
0000
0001
1000
,
1001
0000
0000
0100
,
0010
0000
0100
0010
,
1000
0000
0010
0100
,
0001
0000
0010
0001
,
1000
0000
0100
1000
,
0001
0000
1000
0010
,
0100
0000
0001
0010
,
0100
0000
0010
0001
,
1000
0000
0000
0010
,
0110
0000
0100
0001
,
0100
0010
1000
0000
,
0001
0000
1000
0100
,
0010
0001
1000
0000
,
0010
0000
0001
1000
,
0010
0100
0001
0000
,
0100
0000
0010
1000
,
0100
0000
0010
0000
,
0001
0001
1000
1000
,
0010
0010
0000
0110
,
0110
0100
0001
0100
,
0010
0010
0000
0000
,
1000
0001
0100
0000
,
0010
1000
0010
0000
,
1000
0100
0001
0100
,
1000
0010
0000
0001
,
0010
0000
0100
0000
,
0010
0010
0010
0000
,
0100
0001
0100
1000
,
0100
0100
0000
0000
,
1000
0010
0001
0010
,
1000
1000
0001
0000
,
0001
0100
0010
0000
,
1000
0001
0010
0000
,
0100
1000
0100
0010
,
2002
0000
0000
3003
,
0110
0000
0100
0001
,
0100
0000
0010
0000
,
1000
0000
0001
1000
,
0001
0000
1000
0000
,
0100
0000
0010
0001
,
0010
0000
0001
0001
,
1000
0000
0010
0100
,
2002
0000
0000
0000
,
3003
0000
0000
0000
;

//---------------dance-single - ----------------
#NOTES:
     dance-single:
     :
     Medium:
     7:
     0.325092,0.347152,0.123845,0.046442,0.000000,294.000000,278.000000,16.000000,6.000000,0.000000,0.000000,0.325092,0.347152,0.123845,0.046442,0.000000,294.000000,278.000000,16.000000,6.000000,0.000000,0.000000:
0000
0000
0000
0000
,
0000
0000
0000
0000
,
0000
0000
0000
0000
,
0000
0000
0000
0000
,
0000
0000
0000
0000
,
0000
0000
0000
0000
,
0100
0001
0000
0000
0001
0100
0000
0000
,
1000
0010
0000
0000
0010
1000
0000
0000
,
0001
0000
1000
0000
0010
0000
0000
0100
,
0000
0011
0000
0001
0100
0000
1010
0000
,
1000
0100
0000
0000
0100
0010
0000
0000
,
0010
0001
0000
0000
0001
0100
0001
0100
,
0010
0010
0000
0000
1000
1000
0000
0000
,
0001
0001
0000
0000
0010
0010
0100
0100
,
1000
0100
0000
0000
0010
0001
0000
0000
,
1000
0010
0000
0000
0100
0001
0100
0001
,
0010
0000
0000
0001
0010
0100
0000
1000
,
2002
0000
0000
0000
,
3003
0000
0000
1010
,
0101
0000
0001
0000
0100
0000
0001
0010
,
0000
0000
0001
0000
1000
0000
0100
1000
,
1000
0000
0010
0000
0100
0000
0010
0010
,
0000
0000
1000
0000
0001
0000
0100
0001
,
0100
0000
0001
0000
0010
0000
0100
0100
,
0000
0000
1000
0000
0001
0000
0100
0001
,
0100
0000
0001
0000
1000
0000
0010
0020
,
0000
0000
0030
0110
,
1001
0000
0010
0000
0100
0000
0001
0001
,
0000
0000
0001
0000
1000
0000
1000
0100
,
1000
0000
0100
0000
0010
0000
0001
0001
,
0000
0000
0010
0000
0001
0000
1000
0100
,
1000
0000
0001
0000
0100
0000
0010
0010
,
0000
0000
1000
0000
0010
0000
0100
0001
,
1000
0000
0001
0000
1000
0100
0010
0002
,
0000
0000
0000
0000
0003
0000
0010
0100
,
0010
0000
0100
0000
1000
0000
0001
0100
,
0000
0000
0001
1000
0100
0000
1000
0010
,
0100
0000
0010
0000
1000
0000
0001
0100
,
0000
0000
0010
1000
0100
0000
0100
0010
,
0001
0000
1000
0000
0001
0000
0100
0001
,
0000
0000
0001
0001
0100
0000
1000
1000
,
0100
0000
0010
0000
0001
0000
0010
0200
,
0000
0010
0000
0010
0000
0310
0000
0000
,
0001
0101
1000
1100
,
0001
0000
1001
0000
0000
0100
0100
0000
,
0010
0000
1000
0000
0001
0010
1000
0000
,
1000
0010
0001
0000
0000
0100
0100
0000
,
0000
0010
0010
0000
1000
0001
0000
0000
,
1000
0010
0100
0001
0100
0010
1000
0000
,
0000
0001
0001
0000
1000
0010
0001
0000
,
0001
0010
1000
0000
0000
0001
0001
0000
,
0000
0100
0100
0000
0010
1000
0000
0000
,
0001
0010
0100
1000
0000
0000
1001
0000
,
0000
0000
0010
0000
0001
0001
0100
0000
,
1000
1000
0010
0000
0000
0000
1100
0000
,
0011
0000
0100
0000
0010
0010
0000
0000
,
0001
0100
0010
1000
0000
1000
0001
0000
,
0000
0000
0010
0000
0100
1000
0010
0000
,
0100
0001
0010
0000
0000
0000
1001
0000
,
0000
1000
0001
0000
0001
0100
0000
0000
,
0100
0010
1000
0001
0000
0000
1001
0000
,
0110
0000
1000
0000
0100
0000
1000
0010
,
0000
0000
1000
1000
0100
0000
0001
0001
,
0010
0000
0100
0000
0010
0000
0001
0010
,
0000
0000
0001
0010
1000
0000
1000
0010
,
0001
0000
0100
0000
0010
0000
1000
0100
,
0000
0000
1000
0100
0001
0000
0001
0100
,
1000
0000
0100
0000
0010
0001
1000
0020
,
0000
0000
0000
0000
,
0030
0000
0000
0000
;

//---------------dance-single - ----------------
#NOTES:
     dance-single:
     :
     Hard:
     11:
     0.444514,0.480672,0.162546,0.185767,0.015481,402.000000,381.000000,21.000000,24.000000,0.000000,0.000000,0.444514,0.480672,0.162546,0.185767,0.015481,402.000000,381.000000,21.000000,24.000000,0.000000,0.000000:
// measure 0
0000
0000
0000
0000
,  // measure 1
0000
0000
0000
0000
,  // measure 2
0000
0000
0000
0000
,  // measure 3
0000
0000
0000
0000
,  // measure 4
0000
0000
0000
0000
,  // measure 5
0000
0000
0000
0000
,  // measure 6
1000
0100
0000
0100
0010
0001
0000
0001
,  // measure 7
1000
0010
0000
0010
0100
0001
0100
0010
,  // measure 8
1000
0001
0000
0010
0100
1000
0000
0001
,  // measure 9
0100
0001
0000
1000
0100
0100
1000
0000
,  // measure 10
0002
0100
0000
0103
0020
1000
0000
1030
,  // measure 11
0200
0010
0000
0310
0001
0010
0100
1000
,  // measure 12
2000
0001
0000
3001
0200
0010
0000
0310
,  // measure 13
2000
0100
0000
3100
0010
0001
0010
0010
,  // measure 14
0002
1000
0000
1003
0020
0100
0000
0130
,  // measure 15
0002
0010
0000
0013
0100
1000
0001
0100
,  // measure 16
0010
0000
1000
0010
0100
0001
0000
0001
,  // measure 17
0010
2002
0000
0000
0000
0000
0000
0000
,  // measure 18
3003
0000
0000
1001
,  // measure 19
1001
0000
0100
0001
0010
0100
1000
1000
,  // measure 20
0000
0001
0001
0100
0001
0000
1000
1000
,  // measure 21
0100
0000
0010
0001
1000
0010
0100
0100
,  // measure 22
0000
0010
0010
1000
0001
0000
0010
0010
,  // measure 23
0100
0000
1000
0100
0010
0001
1000
1000
,  // measure 24
0000
0001
0001
0010
0100
0000
0100
0010
,  // measure 25
0001
0000
0010
0001
1000
0010
0100
0100
,  // measure 26
0000
0000
0000
0000
0000
0000
0001
0100
1000
0000
0000
0000
1100
0000
0000
0000
,  // measure 27
0101
0000
1000
0010
0100
0001
0010
0010
,  // measure 28
0000
0001
0001
1000
0100
0000
1000
1000
,  // measure 29
0010
0000
0100
0001
0010
1000
0010
0010
,  // measure 30
0000
0001
0100
1000
0100
0000
0010
1000
,  // measure 31
0001
0000
0010
0001
1000
0001
0100
0100
,  // measure 32
0000
0001
0100
0001
0100
0000
1000
0100
,  // measure 33
1000
0000
0010
0010
1000
0100
0010
1001
,  // measure 34
0000
0000
0000
0000
0000
0000
0010
0100
0010
0000
0000
0000
0100
0000
0010
0000
,  // measure 35
2000
0000
3010
1000
0100
0010
0001
0002
,  // measure 36
0000
0103
0001
0100
0002
0000
0013
0001
,  // measure 37
2000
0000
3001
0100
0001
1000
0100
0200
,  // measure 38
0000
1300
1000
0100
0020
0000
0031
0001
,  // measure 39
2000
0000
3010
0010
0100
0001
1000
0002
,  // measure 40
0000
0013
0001
0100
0200
0000
0310
1000
,  // measure 41
0020
0000
0130
0001
1000
0100
0010
0001
,  // measure 42
0000
1100
0000
0101
0000
1010
0000
0001
,  // measure 43
0100
1001
0010
1001
,  // measure 44
0100
0000
0000
0000
1001
0000
0000
0000
0000
0000
0010
0000
0010
1000
0000
1000
,  // measure 45
0010
0100
0010
1000
0001
0010
0100
1000
,  // measure 46
0100
0010
0001
0000
1000
1000
1001
0000
,  // measure 47
0000
0001
0001
1000
0010
0100
0010
0000
,  // measure 48
0100
0001
0100
0010
1000
0001
0010
0010
,  // measure 49
0000
0001
0010
0100
1000
1000
0001
0100
,  // measure 50
1010
0100
0011
0000
0000
0001
0001
0000
,  // measure 51
0000
0010
0010
0010
0100
1000
0000
0001
,  // measure 52
0100
1000
0100
0001
0000
0000
1001
0000
,  // measure 53
0100
0001
0100
0010
1000
0001
0010
0001
,  // measure 54
1000
1000
0100
0000
0001
0001
0011
0000
,  // measure 55
0000
0010
0100
1000
0001
0100
0001
0000
,  // measure 56
0100
0010
0100
0010
1000
0001
0010
0000
,  // measure 57
0000
0001
0010
0001
1000
0100
0101
0000
,  // measure 58
0001
1000
1010
0000
0010
0100
0010
0000
,  // measure 59
0000
0100
0001
0100
0001
0001
0000
1000
,  // measure 60
1000
0010
1000
0002
0000
0000
0013
0000
,  // measure 61
0110
0000
0100
1000
0100
0010
0001
0001
,  // measure 62
0000
0010
0001
0100
0100
0000
0010
1000
,  // measure 63
0010
0000
1000
0001
0010
0100
1000
1000
,  // measure 64
0000
1000
0100
0001
0001
0000
0001
0100
,  // measure 65
1000
0000
0100
1000
0010
0100
0001
0001
,  // measure 66
0000
0010
0010
0001
1000
0000
1000
0010
,  // measure 67
0001
0000
0010
1000
0001
0010
0100
0220
,  // measure 68
0000
0000
0000
0000
,  // measure 69
0330
0000
0000
0000
;
