#VERSION:0.83;
#TITLE:BAM BAM BAM;
#SUBTITLE:;
#ARTIST:bambee;
#TITLETRANSLIT:;
#SUBTITLETRANSLIT:;
#ARTISTTRANSLIT:;
#GENRE:;
#ORIGIN:;
#CREDIT:;
#BANNER:BAM BAM BAM.png;
#BACKGROUND:BAM BAM BAM-bg.png;
#PREVIEWVID:;
#JACKET:BAM BAM BAM-jacket.png;
#CDIMAGE:;
#DISCIMAGE:;
#LYRICSPATH:;
#CDTITLE:;
#MUSIC:BAM BAM BAM.ogg;
#OFFSET:0.000000;
#SAMPLESTART:59.512001;
#SAMPLELENGTH:15.006000;
#SELECTABLE:YES;
#BPMS:0.000=141.114;
#STOPS:;
#DELAYS:;
#WARPS:;
#TIMESIGNATURES:0.000=4=4;
#TICKCOUNTS:0.000=4;
#COMBOS:0.000=1;
#SPEEDS:0.000=1.000=0.000=0;
#SCROLLS:0.000=1.000;
#FAKES:;
#LABELS:0.000=Song Start;
#BGCHANGES:;
#KEYSOUNDS:;
#ATTACKS:
;

//---------------dance-single - ----------------
#NOTEDATA:;
#CHARTNAME:;
#STEPSTYPE:dance-single;
#DESCRIPTION:;
#CHARTSTYLE:;
#DIFFICULTY:Beginner;
#METER:3;
#RADARVALUES:0.147694,0.315215,0.112376,0.000000,0.000000,92.000000,82.000000,10.000000,0.000000,0.000000,0.000000,0.000000,0.000000,0.000000,0.147694,0.315215,0.112376,0.000000,0.000000,92.000000,82.000000,10.000000,0.000000,0.000000,0.000000,0.000000,0.000000,0.000000;
#CREDIT:;
#NOTES:
// measure 0
0000
0000
0000
0000
,  // measure 1
0000
0000
0000
0000
,  // measure 2
0000
0000
0000
0000
,  // measure 3
0000
0000
0000
0000
,  // measure 4
0000
0000
0000
0000
,  // measure 5
0100
0100
0100
0000
,  // measure 6
0000
0000
0000
0000
,  // measure 7
0010
0010
0010
0000
,  // measure 8
0000
0000
0000
0000
,  // measure 9
1000
1000
1000
0000
,  // measure 10
1000
0000
0000
0000
,  // measure 11
0001
0001
0001
0000
,  // measure 12
0001
0000
0000
0000
,  // measure 13
0010
0010
0010
0000
,  // measure 14
0010
0000
0000
0000
,  // measure 15
0100
0100
0100
0000
,  // measure 16
0100
0000
0000
0000
,  // measure 17
0010
0000
0000
0000
,  // measure 18
0100
0000
0000
0000
,  // measure 19
0001
0000
1000
0000
,  // measure 20
0100
0000
0000
0000
,  // measure 21
1000
0000
0001
0000
,  // measure 22
0100
0000
0000
0000
,  // measure 23
0010
0000
1000
0000
,  // measure 24
0100
0000
0000
0000
,  // measure 25
0010
0000
0001
0000
,  // measure 26
0100
0000
0000
0000
,  // measure 27
1001
0000
0000
0000
,  // measure 28
0110
0000
0000
0000
,  // measure 29
0010
0000
0001
0000
,  // measure 30
0100
0000
1000
0000
,  // measure 31
0110
0000
0000
0000
,  // measure 32
1001
0000
0000
0000
,  // measure 33
1001
0000
0110
0000
,  // measure 34
1001
1001
1001
0000
,  // measure 35
0010
0010
0010
0000
,  // measure 36
0010
0000
0000
0000
,  // measure 37
0100
0100
0100
0000
,  // measure 38
0100
0000
0000
0000
,  // measure 39
1000
1000
1000
0000
,  // measure 40
1000
0000
0000
0000
,  // measure 41
0001
0001
0001
0000
,  // measure 42
0001
0000
0000
0000
,  // measure 43
0100
0100
0100
0000
,  // measure 44
0010
0000
0000
0000
,  // measure 45
0010
0010
0010
0000
,  // measure 46
1000
0000
0000
0000
,  // measure 47
1000
1000
1000
0000
,  // measure 48
0001
0000
0000
0000
,  // measure 49
0001
0001
0001
0000
,  // measure 50
0100
0000
0000
0000
,  // measure 51
0110
0000
0000
0000
;

//---------------dance-single - ----------------
#NOTEDATA:;
#CHARTNAME:;
#STEPSTYPE:dance-single;
#DESCRIPTION:;
#CHARTSTYLE:;
#DIFFICULTY:Easy;
#METER:7;
#RADARVALUES:0.317863,0.458494,0.528167,0.112376,0.000000,198.000000,151.000000,47.000000,10.000000,0.000000,0.000000,0.000000,0.000000,0.000000,0.317863,0.458494,0.528167,0.112376,0.000000,198.000000,151.000000,47.000000,10.000000,0.000000,0.000000,0.000000,0.000000,0.000000;
#CREDIT:;
#NOTES:
0000
0000
0000
0000
,
0000
0000
0000
0000
,
0000
0000
0000
0000
,
0000
0000
0000
0000
,
0000
0000
0000
0000
,
0000
1000
0000
0100
,
0000
1000
0000
0001
,
0000
0010
0000
0100
,
0010
0010
0001
0100
,
1001
1001
1001
0000
,
0010
1000
0100
0010
,
1001
1001
1001
0000
,
0100
0001
1000
0100
,
0110
0110
0110
0000
,
0010
0001
1000
0010
,
0110
0110
0110
0000
,
0100
0010
1000
0001
,
0200
0010
0000
0010
,
2300
0001
3000
1001
,
0001
0010
0001
0010
,
0100
0010
0001
0000
,
0100
0010
1000
0010
,
1000
0100
0010
0000
,
0001
0010
0001
1000
,
0001
0100
0010
0000
,
1000
0001
0010
0001
,
1000
0010
0100
0000
,
2001
0000
3010
0000
,
1002
0000
0103
0000
,
0010
0010
1000
1000
,
0100
0010
0001
1000
,
0201
0000
0310
0000
,
1020
0000
0130
0000
,
2002
3003
0220
0330
,
1001
0110
1001
0110
,
1001
1001
1001
0000
,
1000
0100
0010
0001
,
1001
1001
1001
0000
,
0010
0001
0100
0010
,
0110
0110
0110
0000
,
0100
0001
1000
0100
,
0110
0110
0110
0000
,
0010
0100
1000
0100
,
0011
0011
0011
0000
,
0100
0001
0010
0001
,
1010
1010
1010
0000
,
0010
1000
0001
0100
,
1100
1100
1100
0000
,
0100
1000
0001
0010
,
0011
0011
0011
0000
,
0010
0001
0100
0010
,
1000
0000
0000
0000
;

//---------------dance-single - ----------------
#NOTEDATA:;
#CHARTNAME:;
#STEPSTYPE:dance-single;
#DESCRIPTION:;
#CHARTSTYLE:;
#DIFFICULTY:Medium;
#METER:9;
#RADARVALUES:0.415791,0.429838,0.382078,0.112376,0.000000,259.000000,225.000000,34.000000,10.000000,0.000000,0.000000,0.000000,0.000000,0.000000,0.415791,0.429838,0.382078,0.112376,0.000000,259.000000,225.000000,34.000000,10.000000,0.000000,0.000000,0.000000,0.000000,0.000000;
#CREDIT:;
#NOTES:
0000
0000
0000
0000
,
0000
0000
0000
0000
,
0000
0000
0000
0000
,
0000
0000
0000
0000
,
0000
0000
0000
0000
,
0000
1000
0000
1000
,
0000
0001
0000
0001
,
0000
0100
0000
0100
,
0010
0010
1000
0100
,
1000
0000
1001
0000
1001
0000
0001
0100
,
0000
0010
1000
0010
1000
0000
0001
0000
,
0010
0000
1001
0000
1001
0000
1000
0010
,
0000
0100
0001
0010
0100
0010
0100
0000
,
1000
0000
0101
0000
0101
0000
0010
1000
,
0000
0001
0010
0001
1000
0100
1000
0000
,
0001
0000
1010
0000
1010
0000
1000
0010
,
0000
0100
0001
1000
0100
0010
0001
0000
,
0020
0000
0100
0000
0000
0100
0130
0000
,
2000
0000
0010
0000
0000
0001
3001
0000
,
1000
0010
1000
0010
0100
0000
0001
0100
,
0010
1000
0000
0001
0000
0001
0010
0000
,
0100
0010
0100
1000
0100
0000
1000
0000
,
0001
1000
0000
0010
0000
0010
0100
0000
,
0001
0100
0001
1000
0010
0000
0100
0000
,
0010
1000
0000
0001
0000
0001
0010
0000
,
0100
1000
0100
1000
0000
1000
0000
0001
,
0000
0001
0100
0000
0010
0100
0010
0000
,
2010
0000
0100
0100
0000
0000
3010
0000
,
0012
0000
1000
1000
0000
0000
0103
0000
,
0010
0010
1000
0001
,
1000
0100
0001
0100
1000
0000
0100
0000
,
0201
0000
0010
0010
0000
0000
0301
0000
,
1020
0000
0100
0100
0000
0000
1030
0000
,
2002
3003
0220
0330
,
1001
0110
1001
0110
,
0001
0000
0011
0000
0011
0000
0001
0010
,
0000
0010
0100
0010
0100
0000
1000
0000
,
0001
0000
1100
0000
1100
0000
1000
0010
,
0000
0010
0100
0001
0100
0010
1000
0000
,
0001
0000
1010
0000
1010
0000
0100
0001
,
0000
1000
0100
0010
0001
0010
0001
0000
,
1000
0000
0101
0000
0101
0000
0001
0100
,
0000
0010
1000
0001
0010
0001
0010
0000
,
0100
0000
1001
0000
1001
0000
1000
0010
,
0000
0100
0001
0010
0100
0000
0010
0000
,
0001
0000
0110
0000
0110
0000
0010
1000
,
0000
0001
0100
0010
1000
0010
1000
0000
,
0001
0000
1010
0000
1100
0000
0100
0010
,
0000
0100
1000
0001
0010
0001
0010
0000
,
0001
0000
0101
0000
0011
0000
0001
0100
,
0000
0010
1000
0001
0010
0001
0010
0000
,
0100
0000
0000
0000
;

//---------------dance-single - ----------------
#NOTEDATA:;
#CHARTNAME:;
#STEPSTYPE:dance-single;
#DESCRIPTION:;
#CHARTSTYLE:;
#DIFFICULTY:Hard;
#METER:12;
#RADARVALUES:0.510508,0.515806,0.247227,0.089901,0.202277,318.000000,296.000000,22.000000,8.000000,0.000000,0.000000,0.000000,0.000000,0.000000,0.510508,0.515806,0.247227,0.089901,0.202277,318.000000,296.000000,22.000000,8.000000,0.000000,0.000000,0.000000,0.000000,0.000000;
#CREDIT:;
#NOTES:
0000
0000
0000
0000
,
0000
0000
0000
0000
,
0000
0000
0000
0000
,
0000
0000
0000
0000
,
0000
0000
0000
0000
,
0000
0001
0000
0001
,
0000
1000
0000
1000
,
0010
0010
0100
0100
,
0001
0100
0010
1000
0001
0010
0100
1000
,
1001
0000
0000
1000
0100
0000
0000
1000
0100
0000
0000
1000
0001
0000
0010
0000
,
0000
0100
1000
0001
0100
0010
1000
0000
,
1001
0000
0000
0001
0100
0000
0000
0001
0100
0000
0000
0010
0100
0000
0001
0000
,
0000
1000
0010
0100
0001
1000
0001
0000
,
1001
0000
0000
0010
0100
0000
0000
0010
0100
0000
0000
0010
1000
0000
0001
0000
,
0000
0010
0001
1000
0100
1000
0100
0000
,
1001
0000
0000
0100
0010
0000
0000
0100
0010
0000
0000
0100
0001
0000
1000
0000
,
0000
0100
1000
0001
0100
0010
1000
0100
,
0020
0000
0001
0000
0000
0031
0100
0000
,
0020
0000
1000
1000
0000
1030
0100
0000
,
1000
0001
0010
0001
0100
0000
0001
0100
,
0010
1000
0001
1000
0000
1000
0100
0000
,
0010
0001
0100
0001
0010
0001
1000
0000
,
0100
1000
0001
0100
0000
0100
0010
0000
,
1000
0010
0100
0001
0010
0000
0100
1000
,
0001
0100
0001
1000
0000
1000
0010
0000
,
0100
0001
0100
0001
0010
0100
1000
1000
,
0000
0001
0001
0000
1000
0010
0100
0001
,
1020
0000
1000
0100
0000
0100
1030
0000
,
0201
0000
0001
0010
0000
0010
0301
0000
,
0010
0001
0010
0010
0000
0100
0100
1000
,
0000
0001
1000
0001
0010
0001
0010
0100
,
2010
0000
0001
0001
0000
0100
3100
0000
,
0012
0000
1000
1000
0000
0100
0103
0000
,
2001
3100
1002
0013
,
1001
1001
0110
1001
,
1001
0000
0000
1000
0100
0000
0000
1000
0100
0000
0000
0010
0100
0000
1000
0000
,
0000
0001
0100
0010
1000
0010
1000
0000
,
1001
0000
0000
0001
0100
0000
0000
0001
0100
0000
0000
0010
0100
0000
0001
0000
,
0000
1000
0010
0100
0001
0100
0001
0000
,
1001
0000
0000
0010
0100
0000
0000
0010
0100
0000
0000
0001
1000
0000
0100
0000
,
0000
0010
0001
1000
0010
1000
0010
0000
,
1001
0000
0000
0100
0010
0000
0000
0100
0010
0000
0000
1000
0001
0000
0010
0000
,
0000
0100
1000
0001
0100
0010
1000
0100
,
1001
0000
0000
0001
0100
0000
0000
0001
1000
0000
0000
0001
0100
0000
0010
0000
,
1000
0001
0010
0001
1000
0100
0001
0000
,
1001
0000
0000
1000
0100
0000
0000
1000
0001
0000
0000
1000
0010
0000
0100
0000
,
0001
0010
1000
0010
0001
1000
0001
0000
,
1001
0000
0000
0010
1000
0000
0000
0001
0100
0000
0000
0010
1000
0000
0100
0000
,
0010
0001
0010
0100
1000
0100
1000
0000
,
1001
0000
0000
0100
0001
0000
0000
1000
0100
0000
0000
0010
0001
0000
1000
0000
,
0010
1000
0010
0100
0001
1000
0100
0010
,
0001
0000
0000
0000
;
