#TITLE:As One feat. Yukacco;
#SUBTITLE:(Original Mix);
#ARTIST:The 4th;
#TITLETRANSLIT:;
#SUBTITLETRANSLIT:;
#ARTISTTRANSLIT:;
#GENRE:;
#CREDIT:;
#BANNER:As One.png;
#BACKGROUND:As One-bg.png;
#LYRICSPATH:;
#CDTITLE:;
#MUSIC:As One.ogg;
#OFFSET:0.000000;
#SAMPLESTART:67.189003;
#SAMPLELENGTH:14.000000;
#SELECTABLE:YES;
#BPMS:0.000000=175.000000
;
#STOPS:
;
#BGCHANGES:;
#KEYSOUNDS:;
#ATTACKS:;

//---------------dance-single - ----------------
#NOTES:
     dance-single:
     :
     Beginner:
     5:
     0.147145,0.280442,0.060589,0.147145,0.000000,119.000000,112.000000,7.000000,17.000000,0.000000,0.000000,0.147145,0.280442,0.060589,0.147145,0.000000,119.000000,112.000000,7.000000,17.000000,0.000000,0.000000:
0000
0000
0000
0000
,
0000
0000
0000
0000
,
0000
0000
0000
0000
,
0000
0000
0000
0000
,
0000
0000
0000
0000
,
0000
0000
0000
0000
,
0000
0000
0000
0000
,
0000
0000
0000
0000
,
0000
0000
0000
0000
,
0002
0000
0000
0003
,
0000
0000
0000
0000
,
2000
0000
0000
0000
,
3000
0000
0000
0000
,
0020
0000
0000
0000
,
0030
0000
0000
0000
,
0200
0000
0300
0000
,
0020
0000
0030
0000
,
0220
0000
0000
0000
,
0000
0000
0000
0000
,
0330
0000
0000
0000
,
0000
0000
1000
0000
,
2002
0000
0000
0000
,
0000
0000
0000
0000
,
3003
0000
0000
0000
,
0000
0000
0001
0000
,
0220
0000
0000
0000
,
0000
0000
0000
0000
,
0330
0000
0000
0000
,
0000
0000
0010
0000
,
2002
0000
0000
0000
,
3003
0000
0000
0000
,
0010
0000
0100
0000
,
2000
0000
3000
0000
,
0001
0000
0000
0000
,
0001
0000
0000
0000
,
0001
0000
0010
0000
,
0100
0000
1000
0000
,
1000
0000
0000
0000
,
1000
0000
0000
0000
,
0001
0000
0100
0000
,
0010
0000
1000
0000
,
0010
0000
0000
0000
,
0010
0000
0000
0000
,
0010
0000
0100
0000
,
0001
0000
1000
0000
,
0100
0000
0000
0000
,
0100
0000
0000
0000
,
0010
0000
0001
0000
,
2000
0000
3000
0000
,
0001
0001
0001
0000
,
1000
0000
0001
0000
,
1000
1000
1000
0000
,
0001
0000
1000
0000
,
0100
0100
0100
0000
,
1000
0000
0001
0000
,
0010
0010
0010
0000
,
0100
0000
0010
0000
,
0001
0001
0001
0000
,
0001
0000
0100
0000
,
1000
1000
1000
0000
,
1000
0000
0010
0000
,
0100
0100
0100
0000
,
0010
0010
0010
0000
,
1000
0000
0010
0000
,
0100
0000
0001
0000
,
1001
0000
1000
0000
,
0001
0000
0001
0000
,
0010
0000
0001
0000
,
0100
0000
0010
0000
,
0100
0000
0100
0000
,
0001
0000
0001
0000
,
0010
0000
0001
0000
,
1000
0000
0010
0000
,
1000
1000
1000
0000
,
0001
0001
0001
0000
,
0001
0000
0001
0000
,
1000
0000
1000
0000
,
0010
0010
0010
0000
,
0100
0100
0100
0000
,
0220
0000
0000
0000
,
0000
0000
0330
0000
,
1001
0000
0000
0000
;

//---------------dance-single - ----------------
#NOTES:
     dance-single:
     :
     Easy:
     8:
     0.295527,0.420663,0.190423,0.380847,0.000000,239.000000,217.000000,22.000000,44.000000,0.000000,2.000000,0.295527,0.420663,0.190423,0.380847,0.000000,239.000000,217.000000,22.000000,44.000000,0.000000,2.000000:
0000
0000
0000
0000
,
0000
0000
0000
0000
,
0000
0000
0000
0000
,
0000
0000
0000
0000
,
0000
0000
0000
0000
,
0000
0000
0000
0000
,
0000
0000
0000
0000
,
0000
0000
0000
0000
,
0000
0000
0000
0000
,
0002
0000
0000
0000
,
2003
0000
0000
0000
,
3200
0000
0000
0000
,
0320
0000
0032
0000
,
0203
0000
0000
0000
,
0320
0000
0000
0000
,
2030
0000
0000
0000
,
3002
0000
0203
0300
,
0220
0000
0000
0000
,
0000
0000
0000
0330
,
0000
0000
0000
0000
,
0000
0000
2000
0000
,
0002
0000
0000
0000
,
3023
0000
0000
0000
,
0230
0000
0000
0000
,
0300
0000
0020
0030
,
2002
0000
0000
0000
,
0000
0000
0000
0000
,
3203
0000
0000
0000
,
0320
0000
2030
0000
,
3002
0000
0000
0000
,
2003
0000
0000
0000
,
3200
0000
0010
0000
,
0320
0100
0200
0330
,
1100
1000
0010
0000
,
0100
0001
0010
0000
,
0001
0010
0100
1000
,
1000
0000
0010
0000
0100
0001
0001
0000
,
1000
1000
0100
0000
,
0001
0001
0100
0000
,
0010
1000
0010
0100
,
0001
0000
1000
0000
0100
0100
1000
0000
,
2010
0100
0010
0000
,
0001
0010
0001
0000
,
3002
0100
0010
1000
,
0010
0000
0100
0000
1000
1000
1003
0000
,
1001
1000
0100
0010
,
1001
0001
0010
0100
,
1010
0100
0011
0100
,
1000
0000
1000
0000
0001
1000
0002
0000
,
0013
0100
1000
1000
,
0100
1000
0001
0001
,
0100
0010
1000
0010
,
0100
0000
0001
0000
0010
0100
0010
0000
,
0100
0010
0001
0001
,
0010
0100
1000
1000
,
0001
0001
1000
1000
,
0010
0000
0100
0000
0001
1000
0001
0000
,
0201
0010
0001
0310
,
1020
0100
1000
0130
,
1000
1000
0001
0001
,
0100
0010
0100
0000
0110
0000
0000
0000
,
2001
0100
0010
3100
,
1002
0010
0100
0013
,
1000
1000
0010
0010
,
0100
0001
0100
0000
0002
0000
0000
0000
,
1003
0100
1000
0100
,
0010
0100
0010
0001
,
0100
0001
0100
0010
,
1000
0001
1001
1001
,
0010
0100
0001
0100
,
0001
1000
0100
0010
,
0100
0100
1000
1000
,
0010
0100
0110
0110
,
1020
0100
1000
0100
,
2030
0001
0010
0100
,
3002
0100
1000
0010
,
0100
0203
0010
0310
,
0021
0100
0001
0130
,
1200
0010
1000
0310
,
1002
0000
0010
0000
,
0203
0010
0020
0330
,
1001
0000
0000
0000
;

//---------------dance-single - ----------------
#NOTES:
     dance-single:
     :
     Medium:
     11:
     0.477295,0.630994,0.225046,0.328913,0.212062,386.000000,360.000000,26.000000,38.000000,0.000000,0.000000,0.477295,0.630994,0.225046,0.328913,0.212062,386.000000,360.000000,26.000000,38.000000,0.000000,0.000000:
0000
0000
0000
0000
,
0000
0000
0000
0000
,
0000
0000
0000
0000
,
0000
0000
0000
0000
,
0000
0000
0000
0000
,
0000
0000
0000
0000
,
0000
0000
0000
0000
,
0000
0000
0000
0000
,
0000
0000
0000
0000
,
0200
0000
0010
0000
,
0320
0000
0100
0000
,
2030
0000
0010
0000
,
3002
0000
0100
0000
,
2003
0000
3200
0000
,
0320
0000
0032
0000
,
2003
0000
3002
0000
,
0203
0000
0020
0330
,
2002
0000
0000
0000
,
0000
0000
0000
0000
,
3003
0000
0000
0000
,
0200
0000
0020
0330
,
2002
0000
0000
0000
,
0000
0000
0000
0000
,
3003
0000
0000
0000
,
0020
0000
0200
0330
,
2002
0000
0000
0000
,
0000
0000
0000
0000
,
3003
0000
0000
0000
,
0020
0000
0200
0330
,
0220
0000
0000
0300
,
2030
0000
0000
0000
0000
0000
0000
0001
,
3002
0000
0010
0010
0000
0100
0000
0010
,
0000
0000
0010
0000
1000
1000
2000
3003
,
1001
0000
1000
0000
0000
0100
0000
0000
0010
0000
0000
0001
0000
0000
1000
0000
,
0000
0000
0001
0000
0000
0100
0000
0000
0010
0000
0000
1000
0000
0000
0001
0000
,
0000
0000
0010
0000
0000
0100
0000
0000
0010
0000
0000
0001
0000
0000
1000
0000
,
0000
0010
0000
0000
1000
0000
0000
0100
0000
0000
1000
0000
0001
0000
0001
0000
,
0000
0000
1001
0000
0000
0100
0000
0000
0010
0000
0000
0100
0000
0000
0001
0000
,
0000
0000
1001
0000
0000
0100
0000
0000
0010
0000
0000
0100
0000
0000
1000
0000
,
0000
0000
0011
0000
0000
0100
0000
0000
1000
0000
0000
0100
0000
0000
0010
0000
,
0000
0001
0000
0000
0101
0000
0000
1000
0000
0000
1100
0000
0010
0000
0010
0000
,
2001
0000
0010
0000
0000
0100
0000
0000
0010
0000
0000
0010
0000
0000
0100
0000
,
3002
0000
0100
0000
0000
0010
0000
0000
1000
0000
0000
1000
0000
0000
0013
0000
,
0002
0000
1000
0000
0000
0010
0000
0000
0203
0000
0000
0010
0000
0000
0001
0000
,
0000
0320
0000
0000
1000
0000
0000
0100
0000
0000
2030
0000
0001
0000
3001
0000
,
1000
0100
1000
0100
1000
0100
0010
0000
,
0001
0100
0001
0100
0001
0100
0010
0000
,
1000
0010
1000
0010
0100
0001
0100
0001
,
1000
1000
0100
0010
0001
1000
0220
0330
,
0001
0000
0100
0000
0010
0000
0100
0000
0001
0000
0000
0001
0000
0000
0001
0000
,
0010
0000
0100
0000
1000
0000
0100
0000
0010
0000
0000
0010
0000
0000
0010
0000
,
0100
0000
1000
0000
0010
0000
0100
0000
0001
0000
0000
0001
0000
0000
1000
0000
,
0000
0100
0000
0000
1100
0000
0000
0001
0000
0000
0100
0000
0101
0000
0010
0000
,
1000
0000
0010
0000
0100
0000
0010
0000
1000
0000
0000
1000
0000
0000
1000
0000
,
0001
0000
0010
0000
0100
0000
0010
0000
0001
0000
0000
0001
0000
0000
0001
0000
,
0010
0000
0001
0000
0100
0000
0010
0000
1000
0000
0000
0100
0000
0000
0101
0000
,
0000
0001
0000
0000
0100
0000
0000
1010
0000
0000
1000
0000
0001
0000
0001
0000
,
1000
0000
0010
0000
0100
0001
0000
0000
1000
0000
0000
1000
0000
0000
1000
0000
,
0001
0000
0100
0000
0010
1000
0000
0000
0001
0000
0000
0001
0000
0000
0001
0000
,
0010
0000
0100
0000
1000
0001
0000
0000
1010
0000
0000
1000
0000
0000
0101
0000
,
0000
0001
0000
0000
0010
0000
0000
0110
0000
0000
0100
0000
0010
0000
0010
0000
,
0001
0000
0010
0000
0100
1000
0000
0000
0001
0000
0000
0001
0000
0000
0001
0000
,
0100
0000
0010
0000
1000
0010
0000
0000
1000
0000
0000
1000
0000
0000
1000
0000
,
0010
0000
1000
0000
0100
0010
0000
0000
0110
0000
0000
1000
0000
0000
0101
0000
,
1000
0000
0000
1000
0000
0000
0001
0000
0100
0000
0100
0000
0010
0000
0000
0000
,
0100
0001
0100
0001
0010
0100
0010
0001
,
1000
0010
1000
0010
0100
0001
1000
0100
,
0010
0100
1000
0100
0010
0001
0100
0010
,
1000
0010
1000
0010
0100
0001
0101
0000
,
0010
0100
0010
0100
0001
0010
0001
0010
,
0100
1000
0001
0100
0010
1000
0001
0010
,
0001
1000
0010
1000
0010
0100
0001
0100
,
0010
0100
0010
0100
0001
1000
1001
0000
,
0100
1000
0100
1000
0010
1000
0010
0100
,
0001
0100
0001
0010
0001
0010
0001
1000
,
0010
0100
0010
1000
0001
0010
0100
1000
,
0100
0010
0100
0100
1000
0010
0101
0000
,
0001
0100
0010
0100
0010
0100
0010
1000
,
0001
0010
0001
1000
0100
1000
0100
0010
,
0102
0000
1000
1000
0000
0010
0000
0010
,
0000
0000
0100
0000
1000
1000
1003
0000
,
1001
0000
0000
0000
;

//---------------dance-single - ----------------
#NOTES:
     dance-single:
     :
     Hard:
     15:
     0.640515,0.981546,0.346224,0.476059,0.683793,518.000000,478.000000,40.000000,55.000000,0.000000,0.000000,0.640515,0.981546,0.346224,0.476059,0.683793,518.000000,478.000000,40.000000,55.000000,0.000000,0.000000:
// measure 0
0000
0000
0000
0000
,  // measure 1
0000
0000
0000
0000
,  // measure 2
0000
0000
0000
0000
,  // measure 3
0000
0000
0000
0000
,  // measure 4
0000
0000
0000
0000
,  // measure 5
0000
0000
0000
0000
,  // measure 6
0000
0000
0000
0000
,  // measure 7
0000
0000
0000
0000
,  // measure 8
0000
0000
0000
0000
,  // measure 9
0020
0000
1030
0000
,  // measure 10
0002
0000
0103
0000
,  // measure 11
0020
1000
0100
1030
,  // measure 12
0200
0001
0020
0330
,  // measure 13
2000
0000
3200
0000
,  // measure 14
0320
0000
0000
0002
0000
0000
0033
0010
,  // measure 15
0001
1000
0010
0200
0000
0302
0000
2003
,  // measure 16
0000
3200
0000
0000
0020
0000
0330
0000
,  // measure 17
0022
0000
0000
0000
,  // measure 18
0000
0000
0000
0030
,  // measure 19
0203
0000
0000
0000
,  // measure 20
0320
0000
2030
3000
,  // measure 21
2002
0000
0000
0000
3000
0000
0100
0200
,  // measure 22
0003
0000
0020
0300
,  // measure 23
2030
0000
3002
0000
,  // measure 24
0023
0000
0200
0330
,  // measure 25
0220
0000
0000
0000
,  // measure 26
0000
0000
0000
0300
,  // measure 27
0032
0000
2003
0000
,  // measure 28
3020
0230
0302
0000
,  // measure 29
2003
0000
0000
0000
0000
0000
0001
0002
,  // measure 30
0000
0000
0000
0000
0000
0000
3003
0100
,  // measure 31
0100
0000
0001
0001
0000
1000
0000
0002
,  // measure 32
0000
0000
0000
0000
0023
0000
0000
0000
0130
1000
0100
1000
0001
0000
0000
0000
,  // measure 33
1010
0000
0010
0000
0100
0001
0000
0100
0001
0000
0000
1000
0000
0000
0001
0000
,  // measure 34
0000
0000
1000
0000
0100
1000
0000
0100
1000
0000
0000
0010
0000
0000
0100
0000
,  // measure 35
0000
0000
0001
0000
0010
0001
0000
0100
0010
0000
0100
0001
0000
0010
0100
0000
,  // measure 36
1000
0100
0000
0100
0010
0000
0010
0001
0000
0001
2000
0000
0001
0000
3001
0000
,  // measure 37
0000
0000
1000
0000
0001
0100
0000
0001
0100
0000
0000
0010
0000
0000
1000
0000
,  // measure 38
0000
0000
0001
0000
1000
0100
0000
1000
0100
0000
0000
0010
0000
0000
0001
0000
,  // measure 39
0000
0000
0010
0000
0100
1000
0000
0010
0100
0000
0010
1000
0000
0100
0010
0000
,  // measure 40
0001
0010
0000
0010
0100
0000
0100
1000
0000
1000
0002
0000
1000
0000
1003
0000
,  // measure 41
1001
0000
0100
0000
0010
1000
0000
2000
0001
0000
0000
0001
0000
0000
3001
0000
,  // measure 42
1000
0000
0100
0000
0010
0001
0000
0002
1000
0000
0000
1000
0000
0000
1003
0000
,  // measure 43
0001
0000
0100
0000
0010
1000
0000
0001
0010
0000
0100
1000
0000
0001
0100
0000
,  // measure 44
0100
0010
0000
0010
1000
0000
1000
0001
0000
0001
0010
0000
0100
0000
0010
0000
,  // measure 45
0011
0100
1000
0001
0100
0010
1000
0100
,  // measure 46
1100
1000
0010
0100
0001
0100
0010
1000
,  // measure 47
0001
1000
0001
1000
0001
1000
0001
1000
0100
0010
0100
0010
0100
0010
0100
0010
,  // measure 48
0001
0000
0010
0100
1000
0000
0001
0100
0010
0000
1000
0000
0220
0000
0330
0000
,  // measure 49
0001
0000
0100
0000
0010
1000
0000
0010
0100
0000
0010
1000
0000
0001
0010
0000
,  // measure 50
1000
0000
0010
0000
0001
0100
0000
0010
0100
0000
0001
1000
0000
0100
0001
0000
,  // measure 51
0100
0000
1000
0000
0001
0010
0000
0001
1000
0000
0010
0100
0000
0001
0010
0000
,  // measure 52
0100
1000
0000
1000
0010
0000
0010
1000
0000
1000
0001
0000
0100
0000
0001
0000
,  // measure 53
1000
0000
0001
0000
0100
0010
0000
0100
1000
0000
0100
0001
0000
1000
0100
0000
,  // measure 54
0001
0000
0100
0000
1000
0001
0000
0010
0100
0000
0010
0001
0000
0100
0010
0000
,  // measure 55
1000
0000
0010
0000
0100
0001
0000
0010
0100
0000
1000
0100
0000
0010
0001
0000
,  // measure 56
0010
0100
0000
0100
1000
0000
0010
0100
0000
0100
0001
0000
0100
0000
0010
0000
,  // measure 57
1001
0000
0010
0000
0100
0001
0000
0002
1000
0000
0000
1000
0000
0000
0013
0000
,  // measure 58
0100
0000
1000
0000
0010
0100
0000
0200
0001
0000
0000
0001
0000
0000
0310
0000
,  // measure 59
1000
0000
0001
0000
1000
0100
0000
0200
0010
0000
0000
0010
0000
0000
1300
0000
,  // measure 60
0010
1000
0000
0001
0100
0000
0010
0100
0000
0001
1000
0000
0100
0000
0010
0000
,  // measure 61
0011
0000
0001
0000
0100
0010
0000
2000
0100
0000
0000
0100
0000
0000
3010
0000
,  // measure 62
1000
0000
0010
0000
0100
0001
0000
0002
0010
0000
0000
0010
0000
0000
0103
0000
,  // measure 63
0001
0000
0100
0000
0010
1000
0000
0001
0010
0000
0000
1100
0000
0000
0101
0000
,  // measure 64
0010
0100
0000
0100
0010
0000
2000
0000
0001
0000
3002
0000
0023
0000
0000
0000
,  // measure 65
0130
0000
0000
1001
0000
0000
1010
0000
0000
1100
0000
0000
1000
0000
0010
0100
,  // measure 66
0001
0000
0000
1001
0000
0000
0011
0000
0000
0101
0000
0000
0010
0000
0100
0001
,  // measure 67
0010
0000
0000
1100
0000
0000
0101
0000
0000
1010
0000
0000
0011
0000
0100
1000
,  // measure 68
0001
0000
0000
0100
0000
0000
0010
0000
1000
0001
1000
0001
0010
0000
0100
0000
,  // measure 69
0010
0000
0000
1010
0000
0000
0101
0000
0000
1100
0000
0000
1001
0000
0001
0010
,  // measure 70
0100
0000
0000
1100
0000
0000
0101
0000
0000
0110
0000
0000
1001
0000
1000
0010
,  // measure 71
0100
0000
0000
0110
0000
0000
0011
0000
0000
1100
0000
0000
0101
0000
0010
1000
,  // measure 72
0001
0000
0010
0100
0000
0100
1000
0000
0001
0000
0100
0000
0110
0000
0000
0000
,  // measure 73
1010
0000
1000
0100
0000
1000
0010
0000
1000
0100
0000
1000
0010
0000
0010
0000
,  // measure 74
0100
0000
0001
0010
0000
0001
0100
0000
0001
1000
0000
0001
0100
0000
0001
0010
,  // measure 75
0100
0000
1000
0010
0000
0001
0010
0000
1000
0100
0000
0001
0100
0000
0010
0001
,  // measure 76
1000
0000
1000
0000
0010
0000
0100
0001
0010
0000
0100
0000
0110
0000
0000
0000
,  // measure 77
1001
0000
0001
0010
0000
0001
1000
0000
0010
1000
0000
1000
0001
0000
0001
0000
,  // measure 78
1000
0000
0010
0100
0000
0100
0001
0000
1000
0001
0000
1000
0100
0000
0010
0000
,  // measure 79
0210
0000
0010
0010
0000
1000
0000
2300
,  // measure 80
0000
0000
0000
0000
3002
0000
0000
0000
1003
0001
1000
0001
0100
0000
0000
0000
,  // measure 81
0110
0000
0000
0000
;
