#TITLE:Abyss (Sanxion7 Remix);
#SUBTITLE:;
#ARTIST:dj TAKA;
#TITLETRANSLIT:;
#SUBTITLETRANSLIT:;
#ARTISTTRANSLIT:;
#GENRE:;
#CREDIT:;
#BANNER:Abyss (Sanxion7 Remix).png;
#BACKGROUND:Abyss (Sanxion7 Remix)-bg.png;
#LYRICSPATH:;
#CDTITLE:;
#MUSIC:Abyss (Sanxion7 Remix).ogg;
#OFFSET:0.000000;
#SAMPLESTART:18.645000;
#SAMPLELENGTH:15.000000;
#SELECTABLE:YES;
#BPMS:0.000000=90.000000
,162.000000=87.000000
,162.500000=70.000000
,163.000000=62.999996
,163.500000=46.000000
;
#STOPS:
;
#BGCHANGES:;
#KEYSOUNDS:;
#ATTACKS:;

//---------------dance-single - ----------------
#NOTES:
     dance-single:
     :
     Beginner:
     1:
     0.045512,0.072566,0.000000,0.000000,0.000000,36.000000,36.000000,0.000000,0.000000,0.000000,0.000000,0.045512,0.072566,0.000000,0.000000,0.000000,36.000000,36.000000,0.000000,0.000000,0.000000,0.000000:
0000
0000
0000
0000
,
0000
0000
0000
0000
,
0000
0000
0000
0000
,
0000
0000
0000
0000
,
0000
0000
0000
0000
,
0000
0000
0000
0000
,
0000
0000
0000
0000
,
0001
0000
0000
0000
,
1000
0000
0000
0000
,
0100
0000
0000
0000
,
0010
0000
0000
0000
,
0001
0000
0000
0000
,
0010
0000
0000
0000
,
0001
0000
0000
0000
,
1000
0000
0000
0000
,
0100
0000
0000
0000
,
1000
0000
0000
0000
,
0010
0000
0000
0000
,
0100
0000
0000
0000
,
0001
0000
0000
0000
,
0100
0000
0000
0000
,
0001
0000
0000
0000
,
0100
0000
0000
0000
,
0010
0000
0000
0000
,
0100
0000
0000
0000
,
0100
0000
0000
0000
,
1000
0000
0000
0000
,
1000
0000
0000
0000
,
0001
0000
0000
0000
,
0010
0000
0000
0000
,
0100
0000
0000
0000
,
1000
0000
0000
0000
,
0001
0000
0000
0000
,
1000
0000
0000
0000
,
0001
0000
0000
0000
,
0100
0000
0000
0000
,
0010
0000
0000
0000
,
1000
0000
0000
0000
,
0001
0000
0000
0000
,
0001
0000
0000
0000
,
1000
0000
0001
0000
,
0010
0000
0000
0000
;

//---------------dance-single - ----------------
#NOTES:
     dance-single:
     :
     Easy:
     4:
     0.160556,0.181416,0.044248,0.070796,0.000000,127.000000,122.000000,5.000000,8.000000,0.000000,0.000000,0.160556,0.181416,0.044248,0.070796,0.000000,127.000000,122.000000,5.000000,8.000000,0.000000,0.000000:
0000
0000
0000
0000
,
0000
0000
0000
0000
,
0000
0000
0000
0000
,
0000
0000
0000
0000
,
0000
0000
0000
0000
,
0000
0000
0000
0000
,
0000
0000
0000
0000
,
1000
0001
0100
0010
,
0001
1000
0100
0010
,
0100
0010
0001
1000
,
0100
0010
1000
0001
,
0100
0001
1000
0010
,
0100
1000
0001
0010
,
0010
0001
1000
0100
,
0010
1000
0001
0100
,
0020
0100
0100
0100
,
0230
0001
0001
0001
,
0302
1000
1000
1000
,
2003
0010
0010
3010
,
0020
0100
1000
0100
,
2030
0100
0010
0100
,
3002
0010
0100
0010
,
0203
0010
1000
0310
,
1000
0000
0000
0000
,
1001
0001
0010
0000
,
0001
1000
0100
0000
,
1001
1000
0010
0000
,
1001
0001
0100
0000
,
0010
0100
0001
0000
,
0100
0010
1000
0000
,
0001
0010
0100
0000
,
1000
0100
0010
0001
,
1001
1000
1000
0000
,
0001
0001
0001
0100
,
0010
0010
0010
0000
,
1000
0001
0010
0010
,
0100
0100
0100
0000
,
1000
1000
1000
0000
,
0001
0001
0001
0000
,
1000
1000
0010
0100
,
0001
0010
0100
1000
,
1001
0000
0000
0000
;

//---------------dance-single - ----------------
#NOTES:
     dance-single:
     :
     Medium:
     6:
     0.214918,0.235841,0.026549,0.070796,0.008850,170.000000,167.000000,3.000000,8.000000,0.000000,0.000000,0.214918,0.235841,0.026549,0.070796,0.008850,170.000000,167.000000,3.000000,8.000000,0.000000,0.000000:
0000
0000
0000
0000
,
0000
0000
0000
0000
,
0000
0000
0000
0000
,
0000
0000
0000
0000
,
0000
0000
0000
0000
,
0000
0000
0000
0000
,
0000
0000
0000
0000
,
1000
0000
0001
0000
1000
0001
0100
0000
,
0001
0000
1000
0000
0010
1000
0100
0000
,
1000
0000
0001
0000
0100
0001
0010
0000
,
0001
0000
1000
0000
0001
1000
0100
0000
,
1000
0000
0110
0000
0100
0001
0010
0000
,
0001
0000
0110
0000
0010
0100
1000
0000
,
0100
0000
0010
0000
0100
0010
0001
0000
,
0010
0000
0100
0000
0010
0100
1000
0100
,
2000
0010
0100
0001
,
0100
0000
0010
0000
0001
0001
0001
0000
,
3020
0100
0001
1000
,
0100
0000
1000
0000
0100
0100
0100
0000
,
0230
0010
0001
1000
,
0001
0000
1000
0000
0010
0010
0010
0000
,
0302
1000
0100
0010
,
0100
0000
0010
0000
1000
1000
1003
0001
,
1000
0000
0000
0000
,
1001
0000
0000
0100
0000
0010
1000
1000
,
0010
0000
0000
0100
0000
0001
0010
0010
,
0001
0000
0000
1000
0000
0100
0010
0010
,
0001
0000
0000
1000
0000
0010
1000
1000
,
0100
0000
0000
0010
0000
0100
1000
1000
,
0001
0000
0000
0100
0000
0010
0100
0100
,
0002
0000
0000
1000
2003
0000
0000
0001
,
3001
0000
0000
0000
0000
0000
0001
0000
0000
0100
0000
0000
0010
0000
0000
0000
0010
0000
1000
0000
0000
0000
1000
0000
,
0100
0000
0000
1000
0000
0001
0010
0010
,
0200
0000
0000
0010
0320
0000
0000
0001
,
0031
0000
0001
0100
0100
0000
0010
0010
,
1000
0000
0001
0000
1000
0010
0100
0001
,
0010
0000
0000
0000
0000
0100
0100
1000
,
0001
0000
0000
0001
0100
0000
0000
0100
,
0010
0000
0010
1000
1000
0000
1000
0001
,
0001
0000
0000
0010
0010
0100
0010
0000
,
0100
0000
1000
0000
0001
0100
0010
1000
,
0001
0000
0000
0000
;

//---------------dance-single - ----------------
#NOTES:
     dance-single:
     :
     Hard:
     9:
     0.333755,0.344690,0.035398,0.106195,0.075221,264.000000,260.000000,4.000000,12.000000,0.000000,0.000000,0.333755,0.344690,0.035398,0.106195,0.075221,264.000000,260.000000,4.000000,12.000000,0.000000,0.000000:
// measure 0
0000
0000
0000
0000
,  // measure 1
0000
0000
0000
0000
,  // measure 2
0000
0000
0000
0000
,  // measure 3
0000
0000
0000
0000
,  // measure 4
0000
0000
0000
0000
,  // measure 5
0000
0000
0000
0000
,  // measure 6
0000
0000
0000
0000
,  // measure 7
0001
0010
0100
0010
0001
1000
0010
0100
,  // measure 8
0001
1000
0100
1000
0100
1000
0100
0010
,  // measure 9
0001
1000
0010
0100
0001
0100
0010
1000
,  // measure 10
0001
0100
0001
0100
0001
0100
0010
0100
,  // measure 11
0100
0001
0010
0100
1000
0001
0100
0010
,  // measure 12
1000
0010
0100
0001
0100
0001
0010
0100
,  // measure 13
1000
0010
1000
0001
0010
0001
0010
0001
,  // measure 14
0100
0010
1000
0001
0010
0001
1000
0100
,  // measure 15
2001
0010
0001
0100
0010
0100
0001
0100
,  // measure 16
0001
0001
0010
0010
0001
0001
0100
3100
,  // measure 17
0002
1000
0100
1000
0010
1000
0100
0010
,  // measure 18
1000
1000
0100
0100
1000
1000
0010
0013
,  // measure 19
0200
0010
0001
0010
0001
1000
0010
0010
,  // measure 20
0001
0001
0010
0010
1000
1000
0001
0001
,  // measure 21
0320
1000
0001
0100
0001
0001
1000
1000
,  // measure 22
0100
1000
0100
1000
0100
0100
0001
0031
,  // measure 23
0100
0100
0000
0000
0000
0010
0010
0000
0000
0000
0010
0000
1001
0000
0000
0000
,  // measure 24
1001
0100
1000
0010
0000
0100
0001
0010
,  // measure 25
0001
0001
1000
0010
0100
0100
0001
0001
,  // measure 26
1000
0000
0000
0000
0001
0000
0010
0000
0100
0000
0000
1000
0000
0000
0010
0000
,  // measure 27
0100
0000
0000
0100
0000
0000
0010
0000
0010
0000
0000
1000
0001
0000
0001
0000
,  // measure 28
1000
0000
0001
0010
0001
0100
0010
1000
,  // measure 29
0100
0000
1000
0010
0100
0000
0001
0001
,  // measure 30
1000
0000
1000
1000
0010
0000
0010
0010
,  // measure 31
0100
0000
0000
0000
0000
0000
0100
0000
0000
0100
0000
0000
0001
0000
0010
0000
0001
0000
1000
0000
0100
0000
1000
0000
,  // measure 32
0110
0100
0001
0100
0000
0010
1000
0010
,  // measure 33
1000
0000
0000
0000
0001
0000
0010
0001
0010
0000
0000
0000
0100
0000
1000
0100
,  // measure 34
1000
0000
0010
0000
0010
0000
0100
0001
0100
0000
0000
0000
0010
0000
0010
1000
,  // measure 35
0010
0000
0000
1000
0100
0000
0000
0010
0001
0000
0000
1000
0010
0000
0100
0000
,  // measure 36
0001
0001
1000
1000
0000
0010
1000
0001
,  // measure 37
0010
0010
0100
0100
0010
0001
1000
0001
,  // measure 38
1000
0000
0010
1000
0001
0000
0100
0001
,  // measure 39
1000
0000
0000
0000
0100
0000
0010
0001
0010
0000
0100
0000
1000
0000
0001
0000
,  // measure 40
2000
3002
0023
0032
2003
3020
0230
0302
,  // measure 41
0013
0000
0000
0000
;
