#VERSION:0.83;
#TITLE:ALL MY LOVE;
#SUBTITLE:;
#ARTIST:Tomosuke x SABRINA;
#TITLETRANSLIT:;
#SUBTITLETRANSLIT:;
#ARTISTTRANSLIT:;
#GENRE:;
#ORIGIN:;
#TAGS:;
#CREDIT:;
#BANNER:All My Love.png;
#BACKGROUND:All My Love-bg.png;
#PREVIEWVID:;
#JACKET:All My Love-jacket.png;
#CDIMAGE:;
#DISCIMAGE:;
#LYRICSPATH:;
#CDTITLE:;
#MUSIC:All My Love.ogg;
#OFFSET:0.000000;
#SAMPLESTART:16.355000;
#SAMPLELENGTH:15.000000;
#SELECTABLE:YES;
#BPMS:0.000000=132.000000
;
#STOPS:;
#DELAYS:;
#WARPS:;
#TIMESIGNATURES:0.000000=4=4
;
#TICKCOUNTS:0.000000=4
;
#COMBOS:0.000000=1
;
#SPEEDS:0.000000=1.000000=0.000000=0
;
#SCROLLS:0.000000=1.000000
;
#LABELS:0.000000=Song Start
;
#BGCHANGES:;
#KEYSOUNDS:;
#ATTACKS:
;

//---------------dance-single - ----------------
#NOTEDATA:;
#CHARTNAME:;
#CHARTHASH:1847706272;
#STEPSTYPE:dance-single;
#BANNER:;
#DESCRIPTION:;
#CHARTSTYLE:;
#DIFFICULTY:Beginner;
#METER:3;
#METERF:0.000000;
#LASTSECONDHINT:90.909088;
#RADARVALUES:0.109851,0.237007,0.052668,0.000000,0.000000,73.000000,68.000000,5.000000,0.000000,0.000000,0.000000,0.000000,0.000000,0.000000,0.109851,0.237007,0.052668,0.000000,0.000000,73.000000,68.000000,5.000000,0.000000,0.000000,0.000000,0.000000,0.000000,0.000000;
#CREDIT:;
#NOTES:
0000
0000
0000
0000
,
0000
0000
0000
0000
,
0000
0000
0000
0000
,
0000
0000
0000
0000
,
0000
0000
0000
0000
,
0010
0000
0000
0000
,
0010
0000
0000
0000
,
0010
0000
0010
0000
,
0010
0010
0010
0000
,
0001
0000
0000
0000
,
0000
0000
1000
1000
,
1000
0000
0000
0000
,
0100
0000
0000
0000
,
0100
0000
0000
0000
,
0000
0000
0001
0001
,
0001
0000
0000
0000
,
1000
0000
0000
0000
,
0001
0000
0100
0000
,
0010
0000
0000
0000
,
1000
0000
0000
0000
,
0001
0000
0000
0000
,
0010
0000
0001
0000
,
0100
0000
0000
0000
,
1000
0000
0000
0000
,
1000
0000
0001
0000
,
0010
0000
0100
0000
,
0010
0000
0100
0000
,
0010
0000
0100
0000
,
0010
0000
0010
0000
,
0100
0000
0010
0000
,
0100
0000
0010
0000
,
0100
0000
0010
0000
,
0100
0000
0100
0000
,
0001
0000
0000
0000
,
1000
0000
0000
0000
,
0001
0000
1000
0000
,
0001
0000
0000
0000
,
1000
0000
0000
0000
,
0100
0000
0000
0000
,
0010
0000
0001
0000
,
0110
0000
1001
0000
,
0110
0000
1001
0000
,
1000
0000
0000
0000
,
0001
0000
0000
0000
,
1000
0000
1000
0000
,
1000
0000
0000
0000
,
0001
0000
0000
0000
,
1000
0000
0000
0000
,
0001
0000
0001
0000
,
0001
0000
0000
0000
,
1001
0000
0000
0000
;

//---------------dance-single - ----------------
#NOTEDATA:;
#CHARTNAME:;
#CHARTHASH:3014192061;
#STEPSTYPE:dance-single;
#BANNER:;
#DESCRIPTION:;
#CHARTSTYLE:;
#DIFFICULTY:Easy;
#METER:6;
#METERF:0.000000;
#LASTSECONDHINT:90.909088;
#RADARVALUES:0.260331,0.395011,0.252807,0.000000,0.000000,173.000000,149.000000,24.000000,0.000000,0.000000,0.000000,0.000000,0.000000,0.000000,0.260331,0.395011,0.252807,0.000000,0.000000,173.000000,149.000000,24.000000,0.000000,0.000000,0.000000,0.000000,0.000000,0.000000;
#CREDIT:;
#NOTES:
0000
0000
0000
0000
,
0000
0000
0000
0000
,
0000
0000
0000
0000
,
0000
0000
0000
0000
,
0000
0000
0000
0000
,
1001
0001
0001
0001
,
0001
0001
0001
0001
,
1001
1000
1001
0001
,
0110
1001
0110
1001
,
1000
1000
0100
0100
,
0001
0001
0010
0010
,
0001
0001
0100
0100
,
1000
1000
0010
0010
,
0110
0000
0110
0000
,
1001
0000
1001
0000
,
1000
0100
0010
0001
,
0001
0010
0100
1000
,
0001
0100
1000
1000
,
1000
0100
0001
0000
,
1000
1000
1000
0000
,
0001
0001
0001
0000
,
1000
0010
0001
0001
,
0001
0010
1000
0000
,
0001
0001
0001
0000
,
1000
1000
1001
1001
,
0100
0010
1000
0001
,
0010
0100
1000
0001
,
0100
0010
1000
0001
,
0010
0010
0010
0000
,
0100
0010
0001
1000
,
0010
0100
0001
1000
,
0100
0010
0001
1000
,
0100
0100
0100
0000
,
1000
0000
0001
0000
,
1000
1000
1000
0000
,
0001
0000
1000
0000
,
0001
0001
0001
0000
,
0100
0100
0100
0000
,
0010
0010
0010
0000
,
1000
1000
0001
0000
,
0110
0000
1001
0000
,
0110
1001
0110
1001
,
0100
0100
0100
0000
,
0010
0010
0010
0000
,
1000
0010
0001
0000
,
0001
0010
1000
0000
,
0001
0001
0001
0000
,
1000
1000
1000
0000
,
1100
0000
0011
0000
,
1010
0000
0101
0000
,
1001
0000
0000
0000
;

//---------------dance-single - ----------------
#NOTEDATA:;
#CHARTNAME:;
#CHARTHASH:588608298;
#STEPSTYPE:dance-single;
#BANNER:;
#DESCRIPTION:;
#CHARTSTYLE:;
#DIFFICULTY:Medium;
#METER:8;
#METERF:0.000000;
#LASTSECONDHINT:90.909088;
#RADARVALUES:0.368677,0.395011,0.210673,0.000000,0.021067,245.000000,225.000000,20.000000,0.000000,0.000000,0.000000,0.000000,0.000000,0.000000,0.368677,0.395011,0.210673,0.000000,0.021067,245.000000,225.000000,20.000000,0.000000,0.000000,0.000000,0.000000,0.000000,0.000000;
#CREDIT:;
#NOTES:
// measure 0
0000
0000
0000
0000
,  // measure 1
0000
0000
0000
0000
,  // measure 2
0000
0000
0000
0000
,  // measure 3
0000
0000
0000
0000
,  // measure 4
0000
0000
0000
0000
,  // measure 5
1000
0100
0010
0000
0010
0000
0010
0000
,  // measure 6
0010
0001
1000
0000
0001
1000
0100
0000
,  // measure 7
1001
0100
0110
0010
,  // measure 8
1010
0000
0101
0000
0001
1000
0100
0000
,  // measure 9
0010
0001
0010
0000
0100
0010
0100
0000
,  // measure 10
1000
0100
1000
0000
0101
0000
0101
0000
,  // measure 11
1010
0000
0010
0000
1000
0010
0100
0000
,  // measure 12
0001
0000
0001
0000
1000
0100
0010
0000
,  // measure 13
0100
0010
0100
0000
0010
0001
0010
0000
,  // measure 14
0001
1000
0001
0000
1100
0000
1100
0000
,  // measure 15
0101
0000
0010
0000
1000
0010
0100
0000
,  // measure 16
0001
0000
0001
0000
1000
0001
0100
0000
,  // measure 17
0001
0000
0000
0001
0000
0000
0001
0000
0010
0000
0000
0000
0100
0000
0000
0000
,  // measure 18
1000
0000
0000
1000
0000
0000
1000
0000
0010
0000
0000
0000
0100
0000
0000
0000
,  // measure 19
0001
0001
0001
0000
0100
0000
0000
0000
,  // measure 20
1000
1000
1000
0000
0100
0000
0000
0000
,  // measure 21
0010
0000
0000
0010
0000
0000
0010
0000
0001
0000
0000
0000
1000
0000
0000
0000
,  // measure 22
0100
0000
0000
0100
0000
0000
0100
0000
1000
0000
0000
0000
0010
0000
0000
0000
,  // measure 23
0100
0010
0100
0000
0001
0000
0000
0000
,  // measure 24
1000
0001
1000
0000
1001
0000
1001
0000
,  // measure 25
1000
0100
0010
0000
0001
0100
0010
0000
,  // measure 26
1000
0010
0100
0000
0001
0010
0100
0000
,  // measure 27
0010
0001
1000
0000
0100
1000
0001
0000
,  // measure 28
1000
0000
0001
0000
0100
0100
0000
0000
,  // measure 29
0010
1000
0100
0000
0010
0001
0100
0000
,  // measure 30
0001
0010
0100
0000
1000
0010
0100
0000
,  // measure 31
0001
1000
0010
0000
1000
0001
0100
0000
,  // measure 32
0001
1000
0100
0000
0010
0010
0000
0000
,  // measure 33
0001
0001
1000
1000
,  // measure 34
0001
0100
0100
0000
1000
0100
0100
0000
,  // measure 35
0010
0100
0010
0000
0010
0010
0010
0000
,  // measure 36
0100
0010
0100
0000
0100
0100
0100
0000
,  // measure 37
0001
0010
1000
0100
,  // measure 38
1000
0010
0001
0100
,  // measure 39
0010
0100
0001
0000
0010
0100
1000
0000
,  // measure 40
1001
0000
0110
0000
,  // measure 41
1001
0110
1001
0110
,  // measure 42
1001
1000
0010
0100
,  // measure 43
0001
0001
0001
0000
1000
1000
1000
0000
,  // measure 44
0100
0000
1000
0000
0100
1000
0010
0000
,  // measure 45
0100
0000
0001
0000
0100
0001
0010
0000
,  // measure 46
0001
0001
1000
0100
,  // measure 47
1000
0100
0010
0000
0001
0010
0100
0000
,  // measure 48
0010
0010
0001
0001
,  // measure 49
1000
1000
0100
0100
,  // measure 50
1001
0000
0000
0000
;

//---------------dance-single - ----------------
#NOTEDATA:;
#CHARTNAME:;
#CHARTHASH:985758021;
#STEPSTYPE:dance-single;
#BANNER:;
#DESCRIPTION:;
#CHARTSTYLE:;
#DIFFICULTY:Hard;
#METER:11;
#METERF:0.000000;
#LASTSECONDHINT:90.909088;
#RADARVALUES:0.475518,0.474014,0.189605,0.000000,0.042135,316.000000,298.000000,18.000000,0.000000,0.000000,0.000000,0.000000,0.000000,0.000000,0.475518,0.474014,0.189605,0.000000,0.042135,316.000000,298.000000,18.000000,0.000000,0.000000,0.000000,0.000000,0.000000,0.000000;
#CREDIT:;
#NOTES:
0000
0000
0000
0000
,
0000
0000
0000
0000
,
0000
0000
0000
0000
,
0000
0000
0000
0000
,
0000
0000
0000
0000
,
1000
0100
0010
0100
1000
0100
0010
0100
,
1000
0100
0010
0100
1000
0010
0100
0001
,
1001
1000
0100
0000
1001
0001
0100
0000
,
1001
0100
0001
0100
1000
0100
0001
0000
,
0001
0010
0001
0000
1000
0010
1000
0000
,
0001
0010
0001
0000
0110
0000
0110
0000
,
0100
0001
0010
0010
0100
1000
0010
0010
,
1000
0001
1000
0001
0100
0100
0010
0000
,
1010
0000
0100
0000
0010
1000
0010
0000
,
0100
0001
0100
0000
0001
0000
1000
0000
,
0001
0001
0001
0000
1000
1000
1000
0000
,
0100
0010
0100
0010
0001
0000
1100
0000
,
1000
0000
0000
0100
0000
0000
0010
0000
0001
0000
0000
1000
0000
0000
0010
0000
,
0100
0000
0000
0001
0000
0000
0001
0000
1000
0000
1000
0000
0001
0100
0000
0000
,
0010
0100
0010
1000
0010
0100
0010
0000
,
0100
0001
0100
0010
0100
0001
0100
0000
,
0001
0000
0000
0010
0000
0000
0001
0000
1000
0000
0000
0010
0000
0000
1000
0000
,
0001
0000
0000
0001
0000
0000
1000
0000
0000
0000
1000
0000
0100
0010
0000
0000
,
0100
1000
0100
1000
0001
0000
0100
0000
,
0010
0100
0010
0000
0110
0000
1001
0000
,
0010
1000
0001
0100
0010
1000
0001
0010
,
0100
1000
0100
0010
0001
0001
1000
1000
,
0100
1000
0010
0100
0001
0010
0100
1000
,
0001
0001
1000
0000
1010
0101
0000
0000
,
1000
0010
0100
0001
0100
0010
1000
0001
,
0010
0001
1000
0100
0010
0010
0100
0100
,
1000
0100
0010
0001
0100
0010
1000
0001
,
0010
0010
0100
0000
0011
1100
0001
0000
,
0100
0100
0100
0000
0010
0010
0010
0000
,
1000
0010
0100
0010
1000
0010
0100
0000
,
0001
0001
1000
1000
0100
0100
0100
0000
,
1000
1000
0001
0001
0100
0100
0100
0000
,
0010
0100
0010
0000
1000
0010
1000
0000
,
0001
0010
0001
0000
1000
0100
1000
0000
,
0100
0001
0100
0001
0100
1000
0100
1000
,
1001
0000
0110
0000
,
1010
0000
0101
0000
1000
0010
0100
0001
,
1000
0010
0001
0010
1000
0010
0001
0010
,
1000
0100
1000
0000
0001
0100
0010
1000
,
0001
0010
0100
0100
1000
0100
0010
0010
,
0001
1000
0010
0010
1000
1000
0001
0000
,
1000
0100
0001
0100
1000
0100
0001
0100
,
1000
0100
1000
0001
0010
0001
1000
0000
,
0001
0100
0001
0000
1000
0100
1000
0000
,
0010
0000
0010
0000
0100
0010
0100
0000
,
0110
0000
0000
0000
;
