#TITLE:(There's Gotta Be) More To Life;
#SUBTITLE:(Dr. Octavo Radio Edit);
#ARTIST:Stacie Orrico;
#TITLETRANSLIT:There's Gotta Be More To Life;
#SUBTITLETRANSLIT:;
#ARTISTTRANSLIT:;
#GENRE:;
#CREDIT:;
#BANNER:(There's Gotta Be) More To Life (Dr. Octavio Radio Edit).png;
#BACKGROUND:(There's Gotta Be) More To Life (Dr. Octavio Radio Edit)-bg.png;
#LYRICSPATH:;
#CDTITLE:Dancemania EX6 copy.png;
#MUSIC:(There's Gotta Be) More To Life (Dr. Octavio Radio Edit).ogg;
#OFFSET:1.241000;
#SAMPLESTART:29.215000;
#SAMPLELENGTH:15.000000;
#LASTBEATHINT:0.461917;
#SELECTABLE:YES;
#BPMS:0.000000=115.000000
;
#STOPS:
;
#BGCHANGES:;
#KEYSOUNDS:;
#ATTACKS:;

//---------------dance-single - ----------------
#NOTES:
     dance-single:
     :
     Beginner:
     2:
     0.102435,0.166023,0.066189,0.088252,0.000000,65.000000,59.000000,6.000000,8.000000,0.000000,0.000000,0.102435,0.166023,0.066189,0.088252,0.000000,65.000000,59.000000,6.000000,8.000000,0.000000,0.000000:
0000
0000
0000
0000
,
0000
0000
0000
0000
,
0000
0000
0000
0000
,
1000
0000
0000
0000
,
0100
0000
0000
0000
,
0010
0000
0000
0000
,
0001
0000
0000
0000
,
1000
0000
0010
0000
,
1000
0000
0000
0000
,
0001
0000
0100
0000
,
0001
0000
0000
0000
,
0010
0000
0100
0000
,
1000
0000
0000
0000
,
0010
0000
0100
0000
,
0002
0000
0003
0000
,
1001
0000
0000
0000
,
0100
0100
0100
0000
,
0010
0000
1000
0000
,
0001
0000
0000
0000
,
1001
0000
0000
0000
,
0100
0100
0100
0000
,
0010
0000
0001
0000
,
1000
0000
0000
0000
,
0002
0000
0000
0000
,
0000
0003
0001
0000
,
0020
0000
0000
0000
,
0000
0030
0010
0000
,
0200
0000
0000
0000
,
0000
0300
0100
0000
,
2000
0000
0000
0000
,
0000
3000
1001
0000
,
0110
0000
0000
0000
,
1000
1000
1000
0000
,
0010
0000
0100
0000
,
0001
0000
0000
0000
,
0110
0000
0000
0000
,
0001
0001
0001
0000
,
0010
0000
0100
0000
,
1000
0000
0001
0000
,
2002
0000
3003
0000
,
1000
0000
0001
0000
,
0100
0000
0010
0000
,
0200
0000
0000
0000
,
0300
0000
0000
0000
;

//---------------dance-single - ----------------
#NOTES:
     dance-single:
     :
     Easy:
     4:
     0.173351,0.237176,0.044126,0.176503,0.000000,110.000000,106.000000,4.000000,16.000000,0.000000,0.000000,0.173351,0.237176,0.044126,0.176503,0.000000,110.000000,106.000000,4.000000,16.000000,0.000000,0.000000:
0000
0000
0000
0000
,
0000
0000
0000
0000
,
0000
0000
0000
0000
,
0001
0000
1000
0000
,
0010
0000
0100
0000
,
0001
0100
0010
1000
,
0100
0000
0000
0000
,
0010
0000
0010
0001
,
1000
0000
0100
1000
,
0001
0000
0100
0010
,
1000
0000
0001
0010
,
0100
0000
1000
0010
,
0100
0000
0001
0100
,
0010
1000
0010
0100
,
0001
1000
0100
0010
,
1001
0000
0100
0000
,
1000
0010
1000
0001
,
0200
0000
0320
0000
,
2030
0000
0000
3000
,
1001
0000
0100
0000
,
0001
0010
0001
0100
,
0020
0000
2030
0000
,
3200
0000
0000
0000
,
0320
0000
0001
0000
,
0100
0100
1000
0000
,
0230
0000
1000
0000
,
0010
0010
0001
0000
,
2300
0010
0010
0000
,
0001
0000
0100
0000
,
3002
1000
1000
0000
,
0010
0010
0100
0003
,
0110
0000
1000
0000
,
1000
0010
1000
0100
,
0020
0000
0001
1000
,
0230
0000
1000
0301
,
0110
0000
0001
0000
,
0001
1000
0001
0100
,
0020
1000
0001
0000
,
0230
0000
0020
0330
,
0001
0000
0001
0000
,
1000
0000
1000
0000
,
0010
1000
0010
0100
,
0002
0000
0000
0000
,
0003
0000
0000
0000
;

//---------------dance-single - ----------------
#NOTES:
     dance-single:
     :
     Medium:
     7:
     0.312032,0.332046,0.154440,0.088252,0.000000,198.000000,184.000000,14.000000,8.000000,0.000000,0.000000,0.312032,0.332046,0.154440,0.088252,0.000000,198.000000,184.000000,14.000000,8.000000,0.000000,0.000000:
0000
0000
0000
0000
,
0000
0000
0000
0000
,
0000
0000
0000
0000
,
1000
0100
0001
0100
,
1000
0010
0001
0010
,
1000
0010
0100
0000
0001
0010
0100
0000
,
1000
1000
0000
0000
0001
0001
0000
0000
,
1001
0000
0000
1000
1000
0000
0100
0000
,
0010
0000
0000
0001
0001
0000
0100
0000
,
0010
0000
0000
1000
1000
0000
0010
0000
,
0100
0100
0000
0001
0001
0000
0010
0100
,
1000
0000
0000
0001
0010
0000
0100
0000
,
1000
0000
0000
0010
0100
0000
0001
0000
,
1000
0100
1000
0000
0001
0010
0001
0000
,
0220
0000
0000
0330
,
1001
0000
1000
0100
0000
1000
0000
1000
,
0001
0100
1000
0000
1000
0100
0001
0000
,
0010
1100
1000
0101
,
0001
0100
0010
0000
1000
0100
0010
0000
,
1001
0000
0001
0100
0000
0001
0000
0001
,
1000
0010
0001
0000
0001
0010
1000
0000
,
0101
0010
1100
0010
,
0001
1000
0001
1000
0001
1000
0010
0000
,
0200
1000
0001
0010
,
0302
0010
1000
0103
,
2000
0100
0010
0001
,
3020
1000
0001
0100
,
1030
0100
1000
0000
0010
0000
0010
0000
,
0001
0010
0001
0000
0100
0000
0100
0000
,
1000
0010
0100
0001
0100
0010
1000
0001
,
0020
0000
0000
0000
0000
0100
0130
0000
,
1001
0000
0100
0010
0000
0010
0000
1000
,
0001
0010
1000
0000
1000
0010
0001
0000
,
1000
0101
0001
1100
,
1000
0010
0100
0001
0010
0000
0000
0000
,
1001
0000
0001
0100
0000
0100
0000
0001
,
1000
0100
0001
0000
0001
0100
1000
0000
,
0011
0100
1010
0100
,
0010
0100
0010
0100
0010
0000
0000
0000
,
1000
0100
0001
0100
,
1000
0010
0001
0010
,
1000
0100
0000
0000
0001
0100
0000
0000
,
0020
0000
0000
0000
,
0030
0000
0000
0000
;

//---------------dance-single - ----------------
#NOTES:
     dance-single:
     :
     Hard:
     11:
     0.441258,0.474352,0.121346,0.110314,0.242692,280.000000,269.000000,11.000000,10.000000,0.000000,0.000000,0.441258,0.474352,0.121346,0.110314,0.242692,280.000000,269.000000,11.000000,10.000000,0.000000,0.000000:
// measure 0
0000
0000
0000
0000
,  // measure 1
0000
0000
0000
0000
,  // measure 2
0000
0000
0000
0000
,  // measure 3
1000
0100
1100
0000
0001
0010
0011
0000
,  // measure 4
0001
0100
0101
0000
0010
1000
1010
0000
,  // measure 5
1000
0001
0100
0000
0001
1000
0100
0000
,  // measure 6
0020
0000
0001
0000
0000
0100
0000
0000
0032
0000
1000
0000
0000
0100
0000
0000
,  // measure 7
0013
0000
0000
0001
1000
0010
0100
0000
0000
0001
0010
0100
,  // measure 8
1000
0000
0000
0100
1000
0001
0100
0000
0000
0010
1000
0001
,  // measure 9
0010
0000
0000
0100
1000
0010
0100
0000
0000
0001
0100
0010
,  // measure 10
2000
0000
0010
0000
0000
0001
0000
0000
3001
0000
0000
0000
0100
0000
0100
0000
,  // measure 11
0010
0000
0000
1000
0010
0100
0001
0000
0000
1000
0100
0010
,  // measure 12
0001
0000
0000
0000
0000
0000
1000
0000
0001
0000
0010
0000
0100
0000
0000
0000
0000
0000
1000
0000
0000
1000
0000
0000
,  // measure 13
0010
0000
0000
0010
0000
0000
0010
0000
0100
0000
0010
0000
0100
0000
0001
0000
,  // measure 14
1000
0100
0010
0001
0001
0001
0010
0000
,  // measure 15
0110
0000
0100
1000
0000
0001
0000
1000
,  // measure 16
0010
0000
0010
1000
0000
0000
0001
0000
0001
0100
0000
0000
0001
0000
0000
1000
0000
0010
0000
0000
0010
0000
0000
0100
,  // measure 17
0000
0001
0100
0001
0000
1000
0100
1000
,  // measure 18
0000
0010
0010
0000
1000
0001
0010
0100
,  // measure 19
1000
0000
1001
0010
0000
0001
0000
1000
,  // measure 20
0001
0000
0001
0100
0000
0000
0010
0000
0010
1000
0000
0000
0100
0000
0000
1000
0000
0000
0100
0000
0000
0010
0000
0010
,  // measure 21
0001
0000
0000
0100
0001
1000
0020
0000
0000
1030
0001
0010
,  // measure 22
0200
0000
0010
0000
0010
0010
0310
0001
,  // measure 23
2000
0000
0010
0000
0100
0100
0100
0000
,  // measure 24
3002
0000
0100
0000
1000
1000
1003
0000
,  // measure 25
0010
1000
0010
0000
0100
0001
0100
0000
,  // measure 26
0001
1000
0010
0100
0001
0010
0100
0000
,  // measure 27
1000
1000
0100
1000
0010
0010
1000
0001
,  // measure 28
0100
0100
0001
0010
0001
0001
0010
0000
,  // measure 29
1001
0100
0011
0001
,  // measure 30
1000
0010
0100
0001
1000
0100
0010
0001
,  // measure 31
1000
0000
1001
0100
0010
1000
0000
0001
,  // measure 32
1000
0000
1000
0100
0000
0000
0010
0000
0010
0001
0000
0000
1000
0000
0000
0010
0000
1000
0000
0000
0001
0000
0000
0010
,  // measure 33
0000
0100
0010
0001
0000
0010
0001
1000
,  // measure 34
0000
0100
0100
0000
1000
0010
0100
0001
,  // measure 35
1000
0000
0101
0001
1000
0100
0010
0000
,  // measure 36
0001
0000
0100
0000
1000
0000
0001
0000
0010
0000
1000
0000
0010
0000
0000
0010
0000
0000
0100
0000
0000
0001
0000
1000
,  // measure 37
0100
1000
0010
0010
0100
0001
0010
0010
,  // measure 38
0001
0001
1000
1000
0010
0100
0010
0000
,  // measure 39
1020
0000
0100
0000
1000
1000
1000
0000
,  // measure 40
0230
0000
0010
0000
0001
0001
0301
0000
,  // measure 41
0010
0010
0001
0000
0100
0100
1000
0000
,  // measure 42
0002
0000
0000
0000
,  // measure 43
0003
0000
0000
0000
;
