#TITLE:소멸의 시간;
#SUBTITLE:;
#ARTIST:잠비나이;
#TITLETRANSLIT:time of extinction;
#SUBTITLETRANSLIT:;
#ARTISTTRANSLIT:Jambinai;
#CREDIT:aurae;
#BANNER:extinction.png;
#BACKGROUND:extinction-bg.png;
#LYRICSPATH:;
#CDTITLE:!auraesimfilesmix.png;
#MUSIC:extinction.mp3;
#OFFSET:-0.009;
#SAMPLESTART:0.000;
#SAMPLELENGTH:8.440;
#SELECTABLE:YES;
#DISPLAYBPM:128.000;
#BPMS:0.000=128.000,92.000=125.500,93.000=127.750,141.000=511.997,145.000=256.000,161.000=511.997,165.000=256.000;
#STOPS:28.500=0.460
,33.500=0.460
,38.500=0.460
,141.000=0.415
,141.500=0.400
,142.000=0.410
,142.500=0.405
,143.000=0.410
,143.500=0.405
,144.000=0.410
,144.500=0.405
,161.000=0.415
,161.500=0.415
,162.000=0.415
,162.500=0.415
,163.000=0.410
,163.500=0.410
,164.000=0.410
,164.500=0.415
;
#BGCHANGES:-0.400=extinction.avi=1.000=1=1=0,
316.500=extinction-bg.png=1.000=1=0=0,
99999=-nosongbg-=1.000=0=0=0 // don't automatically add -songbackground-
;

//---------------dance-single - aurae----------------
#NOTES:
     dance-single:
     aurae:
     Hard:
     10:
     0.727,0.827,0.318,0.009,0.000:
0000
0000
0000
0000
,
0000
0000
0000
0000
,
0000
0000
0000
0000
,
0000
0000
0000
0000
,
0000
0000
0000
0000
,
0000
0000
0000
0000
,
0010
0001
0001
1000
0100
0100
1000
0001
,
0100
0010
1000
0001
0001
0100
0010
0010
,
1000
0100
1000
0001
0010
0100
0100
1000
,
0010
0010
0100
0001
0010
0001
0100
0010
,
0010
1000
0100
0100
1000
0001
0100
0010
,
1010
0000
1001
0010
0001
0100
0101
0001
,
1000
0100
1000
0010
0100
0000
0100
0010
,
1000
0100
1100
1000
0001
0010
0001
1000
,
1000
0000
0001
0100
0010
0100
0101
0001
,
1000
0010
0100
0010
1000
0000
0001
0100
,
0010
1000
1100
0100
0010
0001
0100
0001
,
1000
0010
1010
1000
1000
0010
0101
0001
,
0010
0100
1000
0010
0100
0100
1001
0010
,
0001
1000
1100
0100
0010
0001
1000
1000
,
0001
0100
0101
0001
0010
0010
0011
0001
,
1000
0010
0100
0100
0010
1000
1100
0100
,
0010
0001
0011
0010
0100
1000
0010
0100
,
0010
0000
1100
1000
0001
0010
0001
0001
,
0100
0010
1000
1000
0001
0000
0100
0001
,
0001
0100
0010
0010
1000
0100
1000
0001
,
0010
0000
0001
0100
0100
0010
1000
1000
,
0001
0100
0010
1000
0100
0100
0010
0001
,
0001
1000
0010
0010
1000
0100
1000
0001
,
0200
0000
0301
0100
0100
0001
1001
1000
,
0010
0100
0010
1000
1100
0000
1000
0001
,
0001
0010
0011
0001
0100
0010
1000
0100
,
0110
0000
0010
0001
0100
0100
0010
1000
,
0100
0100
1000
0001
0100
0100
0001
0010
,
0001
0100
0010
1000
1000
0100
1000
0001
,
0100
0001
0011
1001
1100
1001
0101
1010
,
1100
0011
1000
0010
1000
0010
0100
0001
,
0100
0001
0010
0001
0010
0001
1000
0100
,
1000
0100
1000
0001
1000
0001
0100
0010
,
1000
0100
1000
0001
0010
0001
0100
0010
,
1000
0100
1001
0011
0110
1100
1001
1010
,
0101
1001
0001
0100
0001
0100
0010
1000
,
0010
1000
0100
1000
0001
0100
0001
0010
,
0001
0100
0010
1000
0100
1000
0001
0100
,
0001
0010
0001
0000
1000
0001
0100
0000
,
1001
0000
0010
0001
0010
0001
0010
0001
,
0100
0010
1000
0100
1000
0100
1000
0001
,
0100
0010
1000
0100
1000
0001
0010
0001
,
0100
0010
1000
0100
1000
0001
0010
0001
,
0100
0010
1000
0100
0001
0100
1000
0100
,
0001
0100
1000
0100
0001
0100
1000
0100
,
0001
0100
1000
0010
0100
0010
1000
0100
,
1000
0001
0010
0001
0100
0010
1000
0100
,
1000
0001
0010
1000
0010
0001
0010
1000
,
0010
0001
0010
1000
0010
0001
0010
1000
,
0010
0001
0100
0010
1000
0100
1000
0001
,
0100
0010
1000
0100
1000
0001
0010
0001
,
0100
0010
1000
0010
0100
0010
1000
0100
,
1000
0001
0010
0100
1000
0100
0010
0001
,
0100
0010
1000
0010
0100
0001
1000
0100
,
0010
0001
0100
0010
1000
0001
0100
0000
,
1001
0000
1000
0001
0100
0010
1000
0100
,
1000
0001
0100
0010
0100
0010
1000
0100
,
0010
0001
0100
0010
1000
0010
0100
0001
,
0010
0100
1000
0010
0001
0010
1000
0010
,
0001
0010
1000
0100
0001
0100
1000
0100
,
0001
0100
1000
0010
0100
0010
1000
0100
,
1000
0001
0010
0100
0010
0001
0100
0010
,
1000
0100
1000
0001
0100
0010
0100
0001
,
1000
0100
1000
0001
0010
0001
0100
0001
,
0010
0001
1000
0001
0100
0010
1000
0100
,
1000
0001
1000
0010
1000
0100
1000
0010
,
0100
0010
1000
0100
0001
0100
1000
0100
,
0001
0100
1000
0010
0001
0010
1000
0010
,
0001
0010
1000
0100
1000
0001
0010
0100
,
1000
0010
0100
0001
1000
0010
0100
0001
,
1000
0100
1000
0001
0010
0001
0100
0010
,
1000
0001
0000
0000
0000
0000
0000
0000
;

//---------------dance-single - aurae----------------
#NOTES:
     dance-single:
     aurae:
     Medium:
     6:
     0.451,0.562,0.112,0.000,0.000: // measure 1
0000
0000
0000
0000
,  // measure 2
0000
0000
0000
0000
,  // measure 3
0000
0000
0000
0000
,  // measure 4
0000
0000
0000
0000
,  // measure 5
0000
0000
0000
0000
,  // measure 6
0000
0000
0000
0000
,  // measure 7
1000
0001
0100
1000
0100
0010
1000
0001
,  // measure 8
0010
0100
0010
0001
1000
0010
0001
0010
,  // measure 9
0100
0001
1000
0010
0100
0001
1000
0100
,  // measure 10
1000
0001
0010
1000
0001
0100
1000
0010
,  // measure 11
0100
0001
0100
1000
0001
0010
0100
0001
,  // measure 12
0100
0000
0001
0000
1000
0100
1000
0000
,  // measure 13
0010
0100
0001
0001
1000
0000
0001
0000
,  // measure 14
0100
0010
1000
0000
0010
0100
0001
0001
,  // measure 15
0010
0000
0100
0000
1000
0001
0010
0000
,  // measure 16
0100
1000
0001
0001
1000
0000
0100
0000
,  // measure 17
0010
0001
0100
0000
0010
1000
0100
0100
,  // measure 18
1000
0000
1001
0000
0001
0100
0010
0000
,  // measure 19
0100
0001
1000
1000
0010
0000
1010
0000
,  // measure 20
1000
0001
0100
0000
0001
0010
0001
0100
,  // measure 21
0100
0000
1001
0000
0001
0100
0010
0000
,  // measure 22
1000
0100
1000
1000
0010
0000
0101
0000
,  // measure 23
0001
0010
0001
0000
1000
0010
0100
0010
,  // measure 24
0010
1100
1000
0001
,  // measure 25
0010
0001
0010
0000
0001
0000
0100
0000
,  // measure 26
0001
1000
0100
0000
1000
0001
1000
0001
,  // measure 27
1000
0101
0001
0010
,  // measure 28
0100
1000
0100
0000
1000
0000
0001
0000
,  // measure 29
1000
0000
0010
0000
1000
0010
1000
0010
,  // measure 30
1000
0000
0001
0000
0100
0010
1000
0000
,  // measure 31
0100
0010
0001
0100
0010
0000
1000
0100
,  // measure 32
1000
0001
0100
0000
0001
1000
0010
1000
,  // measure 33
0100
1000
1000
0000
0001
0010
0001
0000
,  // measure 34
0100
0010
0100
0010
1000
0100
1000
0000
,  // measure 35
0001
0100
0001
0100
0100
0001
0010
0001
,  // measure 36
0100
0001
1000
0100
0010
0001
1000
0010
,  // measure 37
0100
0001
1000
0000
0001
0000
1000
0000
,  // measure 38
0001
0100
0001
0100
,  // measure 39
0001
0100
0010
0100
,  // measure 40
0010
1000
0010
1000
,  // measure 41
0100
0000
0010
0001
1000
0001
0100
0010
,  // measure 42
1000
0100
1000
0000
0010
0000
1000
0000
,  // measure 43
0010
0100
0001
0100
,  // measure 44
0001
0010
0001
1000
,  // measure 45
0100
1000
0000
1001
,  // measure 46
0000
0001
0100
0010
,  // measure 47
0100
0001
1000
0100
,  // measure 48
1000
0010
1000
0100
,  // measure 49
0010
0001
0100
0010
,  // measure 50
0000
1000
0010
1000
,  // measure 51
0010
0001
0010
1000
,  // measure 52
0100
0001
0100
1000
,  // measure 53
0001
0100
0001
0010
,  // measure 54
0000
0100
0010
0001
,  // measure 55
0100
1000
0001
0010
,  // measure 56
1000
0010
0001
0010
,  // measure 57
0100
0001
1000
0100
,  // measure 58
0000
1000
0001
0010
,  // measure 59
0001
0100
0010
1000
,  // measure 60
0100
1000
0001
0010
,  // measure 61
0001
0000
0100
0001
0100
0000
0101
0000
,  // measure 62
0000
1001
1000
0010
,  // measure 63
0100
0010
1000
0100
,  // measure 64
1000
0001
0100
0010
,  // measure 65
0100
0001
0000
1001
,  // measure 66
0000
1100
1000
0010
,  // measure 67
0100
0001
0010
0001
,  // measure 68
0100
0010
1000
0100
,  // measure 69
1000
0001
0010
0001
,  // measure 70
0000
0101
0001
1000
,  // measure 71
0100
1000
0010
0100
,  // measure 72
0010
1000
0100
0010
,  // measure 73
0001
0010
0100
1000
,  // measure 74
0001
1100
0001
0100
,  // measure 75
0001
1000
0010
0100
,  // measure 76
0010
1000
0100
1000
,  // measure 77
0001
0000
0100
0000
0010
1000
0010
1000
,  // measure 78
0001
0000
0000
0000
;

//---------------dance-single - aurae----------------
#NOTES:
     dance-single:
     aurae:
     Easy:
     4:
     0.221,0.297,0.069,0.060,0.000: // measure 1
0000
0000
0000
0000
,  // measure 2
0000
0000
0000
0000
,  // measure 3
0000
0000
0000
0000
,  // measure 4
0000
0000
0000
0000
,  // measure 5
0000
0000
0000
0000
,  // measure 6
0000
0000
0000
0000
,  // measure 7
1000
1000
0100
0100
,  // measure 8
1000
0001
0001
0100
,  // measure 9
0100
0001
0010
0010
,  // measure 10
0100
0100
1000
0100
,  // measure 11
0100
0010
0010
0001
,  // measure 12
0000
1000
0000
1001
,  // measure 13
0000
0001
0001
0100
,  // measure 14
0000
0101
0000
0001
,  // measure 15
0010
0001
0000
1100
,  // measure 16
0000
1000
0100
1000
,  // measure 17
0000
1010
0000
0010
,  // measure 18
0100
0001
0000
0001
,  // measure 19
0000
1000
1000
1000
,  // measure 20
0000
0010
0000
0100
,  // measure 21
0100
0100
0000
0001
,  // measure 22
0000
1000
0001
1000
,  // measure 23
0000
0001
0000
0010
,  // measure 24
0001
0100
0000
0100
,  // measure 25
0001
0001
0000
1000
,  // measure 26
0000
0010
1000
1000
,  // measure 27
0000
0100
0100
1000
,  // measure 28
1000
0100
0000
0010
,  // measure 29
0010
0001
0001
0010
,  // measure 30
0000
0001
0001
1000
,  // measure 31
0000
0001
1000
0100
,  // measure 32
0100
1000
0000
0010
,  // measure 33
0010
0100
0001
0100
,  // measure 34
0000
0001
1000
0100
,  // measure 35
0010
0001
0100
0010
,  // measure 36
1000
0001
1000
0001
,  // measure 37
1000
0020
0000
0000
,  // measure 38
0000
2030
0000
0000
,  // measure 39
0000
3002
0000
0000
,  // measure 40
0000
0203
0000
0000
,  // measure 41
0300
0001
1000
0001
,  // measure 42
1000
0020
0000
0000
,  // measure 43
0000
0230
0000
0000
,  // measure 44
0000
0302
0000
0000
,  // measure 45
0000
1003
0000
0000
,  // measure 46
0000
0001
0000
0001
,  // measure 47
0000
0001
0000
0001
,  // measure 48
0000
0001
0000
0001
,  // measure 49
0000
0001
0000
0000
,  // measure 50
0000
1000
0000
1000
,  // measure 51
0000
1000
0000
1000
,  // measure 52
0000
1000
0000
1000
,  // measure 53
0000
1000
0000
0000
,  // measure 54
0000
0010
0000
0010
,  // measure 55
0000
0010
0000
0010
,  // measure 56
0000
0010
0000
0010
,  // measure 57
0000
0010
0000
0000
,  // measure 58
0000
0100
0000
0100
,  // measure 59
0000
0100
0000
0100
,  // measure 60
0000
0100
0000
0100
,  // measure 61
0000
0100
0000
0000
,  // measure 62
0000
1001
0000
0000
,  // measure 63
0000
0001
0000
1000
,  // measure 64
0000
0001
0000
0100
,  // measure 65
0000
0010
0000
0000
,  // measure 66
0000
1010
0000
0000
,  // measure 67
0000
1000
0000
0100
,  // measure 68
0000
1000
0000
0001
,  // measure 69
0000
0100
0000
0000
,  // measure 70
0000
0101
0000
0001
,  // measure 71
0000
1000
0000
0010
,  // measure 72
0000
0010
0000
0100
,  // measure 73
0000
0001
0000
1000
,  // measure 74
0000
0110
0000
0010
,  // measure 75
0000
1000
0000
0100
,  // measure 76
0000
1000
0000
0001
,  // measure 77
0000
1000
0001
1000
,  // measure 78
0001
0000
0000
0000
;
