#TITLE:completely exposed;
#SUBTITLE:;
#ARTIST:Jamie Lidell;
#TITLETRANSLIT:;
#SUBTITLETRANSLIT:;
#ARTISTTRANSLIT:;
#CREDIT:aurae;
#BANNER:exposed.png;
#BACKGROUND:exposed-bg.png;
#LYRICSPATH:;
#CDTITLE:!auraesimfilesmix.png;
#MUSIC:exposed.mp3;
#OFFSET:-0.234;
#SAMPLESTART:16.780;
#SAMPLELENGTH:25.960;
#SELECTABLE:YES;
#DISPLAYBPM:79.000;
#BPMS:0.000=79.900,8.000=81.000,9.000=80.000,24.000=78.800,28.000=79.400,32.000=78.800,34.000=77.500,36.000=78.500,40.000=78.800,44.000=81.000,45.000=80.000,46.000=79.500,48.000=77.500,54.000=78.500,55.000=77.000,56.000=80.000,64.000=79.500,88.000=79.000,89.000=79.700,92.000=78.500,100.000=78.000,104.000=79.600,106.000=80.000,108.000=79.500,112.000=78.500,114.000=77.000,116.000=78.500,120.000=79.000,128.000=78.800,132.000=78.500;
#STOPS:;
#BGCHANGES:;

//---------------dance-single - aurae----------------
#NOTES:
     dance-single:
     aurae:
     Hard:
     8:
     0.373,0.352,0.103,0.150,0.240:
0000
0000
0000
0000
,
0000
0000
0000
0000
,
1000
0000
0100
0000
1000
0001
0100
0001
,
0001
0000
1000
0100
1000
0000
0010
0000
1000
0000
0000
0001
0010
0000
0200
0000
,
1000
0000
1000
0000
1300
0100
0010
0001
,
0100
0000
0001
1000
0010
0000
0110
0000
,
1001
0000
0001
0100
0001
0000
0010
0000
0001
0000
0000
0000
0100
0000
0000
0000
,
0010
1000
0010
0000
1000
0000
0100
0000
1000
0000
0001
0000
0100
0000
0100
0000
,
0020
0000
2030
0000
3002
0000
0103
0100
,
0100
0000
0001
0000
0010
0000
0001
0000
1000
0001
1000
0000
0001
0100
0001
0100
,
0001
0100
0010
1000
1000
0000
0101
0001
,
1000
0001
1000
0000
0001
0000
0100
0010
0100
0000
0010
1000
0010
1000
0010
0000
,
0200
0000
0010
0000
0320
0000
1000
0000
2030
0000
0000
0000
3001
0000
0000
0001
,
1000
0000
0000
0000
0000
0000
0000
1000
0100
0000
0000
0000
0000
0000
0000
0100
1000
0000
0000
0000
0000
0000
0000
0000
0002
0000
0000
0000
0000
0000
0000
0000
,
0103
0000
0001
0100
0001
0000
1000
0000
0100
0000
1000
0000
0010
1000
0100
0000
,
0010
0000
0001
1000
0000
0000
1000
0001
0100
0000
0001
0000
0010
0000
0001
0000
,
0100
0000
0000
0001
0000
0000
1000
0000
0000
0010
0000
0000
0100
0000
0000
0010
,
1000
0000
0001
0100
0000
1000
0001
0000
0000
0010
1000
0000
0100
0000
0010
0001
,
0010
0000
0100
0000
1000
0000
0001
0100
0001
0000
1000
0000
0100
1000
0100
0000
,
1000
0001
0100
0001
1000
0010
0010
0100
,
0001
0000
0000
1000
0000
0000
0100
0000
0000
1000
0000
0000
0001
0000
0000
0100
,
0001
0200
0002
0000
0000
0000
0000
0000
0000
0000
0000
0000
0303
0000
0000
0000
,
1001
0000
0001
0000
1100
0000
0100
0010
0001
0000
0100
0000
0100
0000
0000
0000
,
0001
1000
0001
1000
0000
0001
0000
0100
0010
0000
1000
0000
0100
0000
0010
0000
,
0002
0100
0203
0010
0320
0000
1030
0000
,
0100
1000
0100
0000
1000
0000
0001
0000
0100
0001
0100
0000
0001
0000
0001
0000
,
1100
0000
1000
0000
0101
0000
0001
1000
0010
0000
1000
0000
1000
0000
0000
0000
,
0001
0100
0001
0100
0000
0010
0000
1000
0100
0000
0010
0000
0001
0000
1000
0000
,
0020
0100
0230
0001
0302
0000
1003
0000
,
0010
1000
0010
0000
0100
0000
0001
0000
0010
0001
0010
0000
0100
0000
1000
0000
,
0001
0000
0100
0010
1000
0000
0001
0100
0010
0000
1000
0000
1000
0000
0000
0000
,
0100
0010
0001
0010
0000
0100
0000
1000
0001
0000
0100
0000
0101
0000
0001
0000
,
1001
0010
1001
0100
1001
0000
0100
0010
,
0001
1000
0001
1000
,
0100
0000
0000
0000
;

//---------------dance-single - aurae----------------
#NOTES:
     dance-single:
     aurae:
     Medium:
     5:
     0.253,0.224,0.066,0.038,0.019: // measure 1
0000
0000
0000
0000
,  // measure 2
0000
0000
0000
0000
,  // measure 3
1000
0100
0010
0001
,  // measure 4
0100
0001
0100
0000
0001
0000
0001
0000
,  // measure 5
2000
0000
0010
0100
,  // measure 6
3002
0000
0000
0000
1003
0000
0001
0100
,  // measure 7
0010
0000
1000
0010
0100
0000
0100
0000
,  // measure 8
0001
0010
0001
0010
0001
0000
1000
0100
,  // measure 9
0010
0000
0001
0000
1100
0000
0001
1000
,  // measure 10
0100
0010
0010
0000
0001
0100
0100
0001
,  // measure 11
1000
0010
0100
0001
,  // measure 12
1000
0100
1000
0100
1000
0000
0010
0100
,  // measure 13
0010
0000
1000
0001
0010
0000
0001
0100
,  // measure 14
0001
1000
1000
0100
,  // measure 15
1000
0000
0001
0010
0001
0000
1000
0001
,  // measure 16
1000
0000
0010
0100
0001
0000
1000
0100
,  // measure 17
0001
0000
0000
0100
0000
0000
1000
0000
0000
0100
0000
0000
0001
0000
0100
0000
,  // measure 18
1000
0000
0010
0000
0100
0001
0100
0001
,  // measure 19
1000
0000
0010
0100
0010
0000
1000
0100
,  // measure 20
1000
0000
0001
0100
0010
0000
1000
0010
,  // measure 21
0001
0000
0000
0010
0000
0000
1000
0000
0000
0010
0000
0000
0001
0000
0010
0000
,  // measure 22
1000
1100
2002
3003
,  // measure 23
0001
0100
0100
0001
1000
0000
0010
0000
,  // measure 24
1000
0100
1000
0100
1000
0000
0010
0000
,  // measure 25
0100
0000
0001
0000
0010
0001
0100
0001
,  // measure 26
0010
0000
0010
0001
0100
0000
0001
0001
,  // measure 27
0001
0000
1000
0010
1000
0000
0010
0100
,  // measure 28
0100
0001
0100
0001
0100
0000
0001
1000
,  // measure 29
0010
0100
0001
1000
,  // measure 30
0010
0100
0001
0000
1000
0010
0100
0001
,  // measure 31
0010
0000
0010
0001
1000
0100
1000
0000
,  // measure 32
0001
0100
0001
0100
0001
0000
1000
0010
,  // measure 33
0100
0000
0001
0000
1000
0000
0001
0010
,  // measure 34
0011
1001
1100
1001
,  // measure 35
0100
0000
0000
0000
;

//---------------dance-single - aurae----------------
#NOTES:
     dance-single:
     aurae:
     Easy:
     4:
     0.222,0.240,0.132,0.066,0.000: // measure 1
0000
0000
0000
0000
,  // measure 2
0000
0000
0000
0000
,  // measure 3
1000
1000
0001
0001
,  // measure 4
0100
0001
1000
0001
,  // measure 5
0020
0000
0000
0000
,  // measure 6
0031
0001
0001
0000
,  // measure 7
1100
1001
0101
0001
,  // measure 8
1000
1000
0010
0010
,  // measure 9
0200
0302
2003
3001
,  // measure 10
0100
0100
0001
0000
,  // measure 11
0001
0010
0100
1000
,  // measure 12
0100
0000
0100
0000
1000
0100
1000
0000
,  // measure 13
0002
0203
0320
0130
,  // measure 14
0001
1000
1000
0001
,  // measure 15
0101
0000
0001
0010
0001
0000
0001
0010
,  // measure 16
0001
0000
1000
0100
1000
0000
1000
0100
,  // measure 17
1000
0000
1000
0000
1000
0000
1000
0001
,  // measure 18
0001
0001
0001
0001
,  // measure 19
0100
0000
0001
0100
0001
0000
0001
0100
,  // measure 20
0001
0000
1000
0010
1000
0000
1000
0010
,  // measure 21
1000
1000
1000
1000
,  // measure 22
0001
0000
0000
0000
,  // measure 23
1001
0011
1001
1010
,  // measure 24
0010
0010
0010
0000
1000
0000
1000
0100
,  // measure 25
0010
0001
0010
0100
,  // measure 26
1000
1000
1000
0000
0001
0001
0001
0001
,  // measure 27
1000
1100
1001
0101
,  // measure 28
0001
0010
0001
0000
0100
0010
0100
0000
,  // measure 29
0010
0001
1000
0100
,  // measure 30
1000
1000
1000
0000
0001
0001
0001
0001
,  // measure 31
0100
0010
1000
0010
,  // measure 32
1000
1000
1000
0000
0001
0100
0001
0000
,  // measure 33
0010
0000
0001
0000
0001
0000
0100
0001
,  // measure 34
1000
1001
0001
1001
,  // measure 35
0110
0000
0000
0000
;
