#TITLE:akashic record;
#SUBTITLE:;
#ARTIST:TaQ;
#TITLETRANSLIT:;
#SUBTITLETRANSLIT:;
#ARTISTTRANSLIT:;
#CREDIT:aurae;
#BANNER:akashicrecord.png;
#BACKGROUND:akashicrecord-bg.png;
#LYRICSPATH:;
#CDTITLE:!auraelogo_new.png;
#MUSIC:akashicrecord.mp3;
#OFFSET:0.762;
#SAMPLESTART:41.640;
#SAMPLELENGTH:15.880;
#SELECTABLE:YES;
#DISPLAYBPM:121.000;
#BPMS:0.000=90.000,28.000=121.000;
#STOPS:;
#BGCHANGES:;

//---------------dance-single - aurae----------------
#NOTES:
     dance-single:
     aurae:
     Hard:
     9:
     0.463,0.471,0.111,0.009,0.333:
0000
0000
0000
0000
,
0000
0000
0000
0000
,
0000
0000
0000
0000
,
0000
0000
0000
0000
,
0000
0000
0000
0000
,
0000
0000
0000
0000
,
0000
0000
0000
0000
,
1000
0000
0100
0000
1000
0000
0000
0001
0000
0000
0010
0000
0001
0000
0100
0000
,
0001
0000
0010
0000
0001
0000
0000
0100
0000
0000
0010
0000
1000
0000
0100
0000
,
1000
0000
0001
0000
0100
0000
0000
0010
0000
0000
0100
0000
0001
0000
1000
0000
,
0010
0000
1000
0000
0100
0000
1000
0001
1000
0000
0001
0000
0000
0100
0000
0000
,
0101
0000
0000
0001
0010
0000
0001
0000
0100
0000
0010
0000
1000
0000
0010
0000
,
0100
0000
0000
0001
1000
0000
0100
0000
0001
0000
0100
0000
1000
0000
0100
0000
,
0010
0000
0000
0001
0100
0000
0010
0000
1000
0000
0010
0000
0001
0000
0010
0000
,
1000
0000
0000
0100
0010
0000
0001
0000
0100
0000
0000
0000
0101
0000
0000
0000
,
1001
0000
0000
1000
0100
0000
0010
0000
0001
0000
0100
0000
0001
0000
1000
0000
,
0100
0000
0000
1000
0010
0000
0100
0000
0010
0000
1000
0000
0001
0000
0100
0000
,
0001
0000
1000
0001
1000
0000
0100
1000
0100
0000
1000
0000
0000
0001
0000
0000
,
0100
0000
0000
0001
0100
0000
0001
0000
0020
0000
0000
0000
0031
0010
0000
0000
,
1100
0000
0000
1000
0100
0000
0000
0000
1000
0000
0001
0000
0100
0000
0001
0000
,
1000
0000
0000
0000
0000
0000
0000
0000
0001
0100
1000
0100
0001
0000
0100
0000
,
0010
0000
0000
1000
0010
0000
0000
0000
0100
0000
0001
0000
0010
0000
0001
0000
,
0100
0000
0000
0000
0000
0000
0000
0000
0001
0010
0100
0010
0001
0000
0010
0000
,
0100
1000
0001
0100
0010
1000
0100
0001
,
0100
1000
0001
0010
1000
0010
0001
0010
,
0100
0000
1000
0100
0000
0000
0000
1000
0100
0000
1000
0000
0001
0000
0000
0000
,
0010
0000
0001
0010
0000
0000
0000
0001
0010
0000
0001
0000
0000
1000
0001
1000
,
0001
0000
0000
0000
0010
0000
0001
1000
0000
0001
0100
0000
0001
0000
0000
0000
,
0001
0000
0000
0000
0100
0000
0001
1000
0001
0000
0100
0000
0000
0001
0000
0000
,
1000
0000
0000
0000
0100
0000
0010
0001
0000
0010
0100
0000
1000
0000
0000
0000
,
0001
0000
0000
0000
0100
0000
0001
1000
0000
0010
1000
0000
0000
0001
0000
0000
,
0010
0000
0000
0010
0001
0000
0100
0000
0001
0000
1000
0000
0000
0100
0000
0000
,
1000
0000
0010
0100
0010
0000
1000
0000
0001
0000
0100
0000
0000
0001
0000
0000
,
1000
0000
0000
1000
0010
0000
0100
0000
0001
0000
0010
0000
0000
0001
0000
0000
,
0100
0000
0001
0100
0001
0000
1000
0000
0001
0000
0000
0000
1001
0000
0000
0000
,
1010
0000
0000
0010
1000
0000
0001
0000
0100
0000
0100
0000
0001
0000
0010
0000
,
0010
0000
0001
0100
0001
0000
1000
0000
0001
0000
1000
0000
0000
0001
0000
0000
,
0100
0000
0000
0100
0001
0000
1000
0000
0010
0000
0010
0000
0100
0000
0001
0000
,
0001
0000
1000
0010
1000
0000
0100
0000
0010
0000
0001
0000
0000
0100
0000
0000
,
0010
0000
0000
0010
1000
0000
0001
0000
0100
0000
0000
0000
0101
0000
0000
0000
,
0001
0000
1000
0001
1000
0000
0001
0000
0100
0000
0000
0000
0101
0000
0000
0000
,
1001
0000
0001
0010
0001
0000
0000
0000
0001
0000
1000
0000
0100
0000
0000
0000
,
0100
0000
1000
0000
1000
0000
0001
0100
1000
0000
0100
0000
0001
0010
0000
0001
,
0100
0000
0000
0000
0101
0000
0001
0000
1000
0000
0010
0000
1000
0010
0000
1000
,
0100
0000
1000
0000
0001
0000
0100
0000
0001
0000
0010
0000
0001
0100
0000
0001
,
1000
0000
0000
0000
0010
0000
0001
0000
0010
0000
1000
0000
0100
0010
0000
0100
,
1000
0000
0010
0000
0100
0000
0001
0000
0010
0000
0001
0000
1000
0001
0000
0010
,
0001
0000
0000
0000
1001
0000
1000
0000
0010
0000
0100
0000
0010
1000
0000
0100
,
1000
0000
0001
0000
0100
0000
0001
0000
0010
0000
0001
0000
0100
0001
0000
0010
,
0001
0000
0000
0000
0011
0000
0001
0000
1000
0000
0010
0000
1000
0001
0000
1000
,
0100
0000
0000
0000
0100
0000
0010
0000
0001
0000
1000
0000
0001
1000
0001
1000
;

//---------------dance-single - aurae----------------
#NOTES:
     dance-single:
     aurae:
     Medium:
     5:
     0.371,0.376,0.129,0.065,0.000: // measure 1
0000
0000
0000
0000
,  // measure 2
0000
0000
0000
0000
,  // measure 3
0000
0000
0000
0000
,  // measure 4
0000
0000
0000
0000
,  // measure 5
0000
0000
0000
0000
,  // measure 6
0000
0000
0000
0000
,  // measure 7
0000
0000
0000
0000
,  // measure 8
0001
0001
0001
0000
0010
0000
0001
0100
,  // measure 9
0001
0000
0001
0010
0001
1000
0100
1000
,  // measure 10
0001
0000
0100
0001
0100
0000
0010
0100
,  // measure 11
1000
0100
0001
0000
1000
0100
1000
0001
,  // measure 12
0010
0000
0001
0100
0001
1000
0100
0000
,  // measure 13
1000
0001
0010
1000
0010
0100
1000
0000
,  // measure 14
0001
0001
0001
0000
0100
0001
1000
0001
,  // measure 15
0010
0000
0010
0001
1000
0100
0010
0001
,  // measure 16
0100
0100
0100
0000
0010
1000
0100
1000
,  // measure 17
0001
0000
0100
0001
1000
0001
0010
0000
,  // measure 18
0001
0000
1000
0000
0001
0100
0001
0000
,  // measure 19
1000
0100
1000
0010
0100
0000
0100
0000
,  // measure 20
0101
0000
0001
1000
0100
1000
0100
1000
,  // measure 21
0001
0000
0010
0001
0010
0001
0100
0000
,  // measure 22
0001
0000
1000
0001
0100
0001
0100
0001
,  // measure 23
1000
0000
0010
0100
0010
0100
0001
0000
,  // measure 24
0010
0000
0100
0010
0001
0010
0001
0010
,  // measure 25
0100
0000
1000
0100
1000
0100
0010
0000
,  // measure 26
0001
1000
0001
1000
,  // measure 27
0101
1001
1100
1001
,  // measure 28
2001
0000
0010
0000
3010
0000
1000
0010
,  // measure 29
0100
0010
1000
0000
0100
1000
0001
0010
,  // measure 30
0001
0000
0010
0000
0010
0000
0001
0100
,  // measure 31
0001
0000
1000
0100
0010
0000
0001
0000
,  // measure 32
2100
0000
0100
0000
3100
0000
1000
0010
,  // measure 33
0001
0000
0010
1000
0001
0100
0010
0000
,  // measure 34
0100
0000
0001
0000
0010
0001
0100
0001
,  // measure 35
1000
0100
1100
1001
,  // measure 36
0012
0000
0010
0000
0013
0000
0001
0010
,  // measure 37
1000
0000
0010
0001
0100
0010
1000
0100
,  // measure 38
0001
0000
0100
0000
1000
0100
1000
0001
,  // measure 39
0100
0000
0001
0000
1000
0001
0010
0000
,  // measure 40
0100
0000
1000
0001
0100
0001
0100
0000
,  // measure 41
0001
0000
1000
0010
1000
0010
0100
0000
,  // measure 42
0010
1000
0100
0000
0010
0001
0100
0000
,  // measure 43
0001
1000
0001
1000
0001
1000
0100
0000
,  // measure 44
0010
0000
1200
0000
1300
0001
0100
0000
,  // measure 45
0001
0000
2010
0000
3100
0010
0001
0000
,  // measure 46
0100
0000
0012
0000
0103
0010
1000
0000
,  // measure 47
0100
0000
0021
0000
0130
1000
0001
0100
,  // measure 48
0001
0000
1000
0000
0100
1000
0001
0100
,  // measure 49
0010
0000
1000
0100
1000
0001
0010
0100
,  // measure 50
1000
0000
0100
0000
0010
0001
0100
0001
,  // measure 51
1000
0000
0001
0000
1000
0000
0001
1000
;

//---------------dance-single - aurae----------------
#NOTES:
     dance-single:
     aurae:
     Easy:
     2:
     0.161,0.188,0.028,0.018,0.000: // measure 1
0000
0000
0000
0000
,  // measure 2
0000
0000
0000
0000
,  // measure 3
0000
0000
0000
0000
,  // measure 4
0000
0000
0000
0000
,  // measure 5
0000
0000
0000
0000
,  // measure 6
0000
0000
0000
0000
,  // measure 7
0000
0000
0000
0000
,  // measure 8
0001
0001
0001
0000
,  // measure 9
1000
1000
1000
0000
,  // measure 10
0100
0100
0100
0000
,  // measure 11
0100
0000
1000
0000
,  // measure 12
0001
0001
0001
0000
,  // measure 13
1000
1000
1000
0000
,  // measure 14
0010
0010
0010
0000
,  // measure 15
0010
0000
1000
0000
,  // measure 16
0100
0100
0100
0000
,  // measure 17
0010
0010
0010
0000
,  // measure 18
0001
0001
0001
0000
,  // measure 19
1000
0000
0001
0000
,  // measure 20
2000
0000
0001
0000
,  // measure 21
0001
0000
3001
0000
,  // measure 22
0002
0000
0100
0000
,  // measure 23
0100
0000
0103
0000
,  // measure 24
0010
0000
1000
0000
,  // measure 25
0010
0000
1000
0000
,  // measure 26
0100
0000
0000
0000
,  // measure 27
0100
0000
0000
0000
,  // measure 28
1100
0000
1000
1000
,  // measure 29
1000
0000
0001
0010
,  // measure 30
0001
0000
0100
0100
,  // measure 31
0100
0000
0001
0100
,  // measure 32
0001
0000
1000
1000
,  // measure 33
1000
0000
0010
0100
,  // measure 34
0010
0000
0100
0100
,  // measure 35
0100
0000
0010
0000
,  // measure 36
1001
0000
0001
0001
,  // measure 37
0001
0000
1000
0001
,  // measure 38
1000
0000
0001
0001
,  // measure 39
0001
0000
0100
0001
,  // measure 40
0100
0000
0100
0100
,  // measure 41
0100
0000
0010
1000
,  // measure 42
0100
0000
1000
0000
,  // measure 43
0001
1000
0001
0000
,  // measure 44
1001
0000
0001
0001
,  // measure 45
0001
0000
1000
1000
,  // measure 46
1000
0000
0100
0100
,  // measure 47
0100
0000
1000
0001
,  // measure 48
0010
0000
0010
0010
,  // measure 49
0010
0000
0001
0001
,  // measure 50
0001
0000
1000
1000
,  // measure 51
1000
0000
0001
0100
;
