#TITLE:Vituperator;
#SUBTITLE:;
#ARTIST:THE HIRSCH EFFEKT;
#TITLETRANSLIT:;
#SUBTITLETRANSLIT:;
#ARTISTTRANSLIT:;
#CREDIT:aurae;
#BANNER:vituperator.png;
#BACKGROUND:vituperator-bg.png;
#LYRICSPATH:vituperator.lrc;
#CDTITLE:!auraelogo_new.png;
#MUSIC:vituperator.mp3;
#OFFSET:-0.151;
#SAMPLESTART:36.080;
#SAMPLELENGTH:15.800;
#SELECTABLE:YES;
#DISPLAYBPM:180.000;
#BPMS:0.000=180.000,148.000=185.000,154.000=170.000,156.000=179.000,160.000=180.000,176.000=179.000,190.000=180.000;
#STOPS:;
#BGCHANGES:;

//---------------dance-single - ----------------
#NOTES:
     dance-single:
     :
     Hard:
     9:
     0.728,0.776,0.576,0.653,0.221:
0000
0000
0000
0000
,
0000
0000
0000
0000
,
0000
0000
0000
0000
,
0000
0000
0000
0000
,
0000
0000
0000
0000
,
0000
0000
0000
0000
,
0000
0000
0000
0000
,
1000
0010
0100
0010
1000
0000
0000
1000
,
0100
1000
0010
1000
0000
0001
0010
0001
,
0100
0010
1000
0001
0100
0001
0010
0100
,
1000
0001
0100
0010
1000
0100
1000
0001
,
0100
0000
0000
0001
0100
0001
0010
0100
,
0010
0001
1000
0100
1000
0010
0100
0010
,
1000
0100
1000
0001
0100
0001
1000
0001
,
2100
0000
3001
0000
0102
0000
1003
0020
,
1000
0130
0010
0201
,
0310
0000
1020
0000
1030
0002
0100
0000
,
0103
0001
0001
0000
2001
0000
3010
0000
,
0120
0000
1030
0010
0100
0000
0001
0000
,
1000
0000
0001
1000
0001
0100
0001
0010
,
0100
1100
0000
1001
0000
0001
2000
0000
,
3001
0000
0000
0000
0202
0000
0303
0000
0001
0100
0001
0100
0001
0000
0100
0000
,
0001
0000
0100
0000
0010
0000
1000
0000
0010
0000
0100
0000
,
0010
0000
0000
1000
0000
0000
0010
0000
0000
1000
0000
0000
0010
0000
0000
0000
0000
0000
1000
0000
0000
0000
0000
0000
0100
0000
0000
0000
0000
0000
0000
0000
0010
0000
0000
0000
0000
0000
0000
0000
0001
0000
0000
0000
0000
0000
0000
0000
,
0010
0000
0000
0000
0022
0000
0033
0000
0001
1000
0001
1000
0001
0000
1000
0000
,
0010
0000
0100
0000
0001
0000
1000
0000
0100
0000
1000
0000
,
0010
0000
0000
0100
0000
0000
0010
0000
0000
0100
0000
0000
0010
0000
0000
0000
0000
0000
0100
0000
0000
0000
0000
0000
0001
0000
0000
0000
0000
0000
0000
0000
1000
0000
0000
0000
0000
0000
0000
0000
0100
0000
0000
0000
0000
0000
0000
0000
,
1000
0000
0000
0000
2200
0000
3300
0000
1000
0001
1000
0001
1000
0000
0001
0000
,
0010
0000
0001
0000
0100
0000
0001
0000
0010
0000
0100
0000
,
1000
0000
0000
0100
0000
0000
1000
0000
0000
0100
0000
0000
1000
0000
0000
0000
0000
0000
0100
0000
0000
0000
0000
0000
1000
0000
0000
0000
0000
0000
0000
0000
0100
0000
0000
0000
0000
0000
0000
0000
0010
0000
0000
0000
0000
0000
0000
0000
,
0001
0000
0000
0000
0202
0000
0303
0000
0001
1000
0001
1000
0001
0000
1000
0000
,
0010
0000
0100
0000
0001
0000
1000
0000
0100
0000
1000
0000
,
0020
1000
1000
0100
,
1000
0000
0100
0000
1000
0000
0130
0010
,
2001
0001
0010
0001
,
3010
0000
1000
0000
0001
0000
0020
0000
0000
0030
0000
0000
,
0022
0033
2002
3003
,
1002
0003
1200
0300
,
2002
3003
0220
0330
,
0101
0100
1001
0000
,
1000
0000
0001
0000
0100
0000
0101
0000
0000
0001
0000
0000
,
1001
1000
1010
0010
,
0100
0000
0010
0000
1000
0000
1100
0000
0000
1001
0000
0000
,
0120
0230
0320
0030
,
1010
0000
1000
0100
0010
0001
1000
0010
,
0100
0001
1000
0001
0200
0000
0301
0000
,
0101
0100
0001
0010
0001
1000
0100
1000
,
0010
0100
0010
1000
0200
0000
1300
0100
,
1000
0001
0100
0001
0000
1000
0001
0010
,
0100
1000
0200
0000
0300
0100
1000
0001
,
0100
0101
0000
1001
0000
1000
1010
0000
,
2002
0000
0000
3003
0202
0000
0303
0220
,
0000
0330
0101
2002
,
0000
3003
2020
0000
3030
0220
0000
0000
,
0330
0000
0000
1010
0000
0000
0010
1000
0100
1000
0001
0010
,
0002
0000
0003
0202
0000
0000
0303
0000
,
1001
0000
2020
0000
0000
3030
2002
0000
,
3003
2002
0000
0000
3003
0000
0110
0000
,
0100
0001
0010
0010
0001
1000
0001
0100
,
0010
1000
0100
1000
1000
0001
1000
0100
,
1000
1000
0010
0100
0010
1000
0001
0100
,
0001
0010
0010
0001
1000
0100
0010
0010
,
0001
1000
0100
1000
0001
0100
0010
0100
,
0100
0001
1000
0010
0100
0100
0010
1000
,
0100
1000
0010
1000
0001
1000
2000
0000
,
3001
1000
0001
0010
0001
0100
0010
1000
,
0100
1000
1000
0100
1000
0010
0100
0010
,
1000
0001
0100
0001
0010
0001
0100
0001
,
1000
0100
1000
0010
0100
0000
0001
0100
,
0101
0000
0001
1000
0100
0000
0100
1000
,
1010
0000
1001
0000
0101
0000
0001
1000
,
0100
1000
0010
0000
0100
0000
0010
1000
,
0100
1000
1001
0000
0210
0000
0301
0000
,
0102
1003
1002
0103
,
0120
1030
2001
3100
,
0120
0031
1002
0103
,
0120
1030
2002
0000
,
3003
0000
0000
0000
;

//---------------dance-single - ----------------
#NOTES:
     dance-single:
     :
     Medium:
     7:
     0.488,0.551,0.211,0.441,0.115:
0000
0000
0000
0000
,
0000
0000
0000
0000
,
0000
0000
0000
0000
,
0000
0000
0000
0000
,
0000
0000
0000
0000
,
0000
0000
0000
0000
,
0000
0000
0000
0000
,
0001
0000
0010
0000
2000
0000
3000
0001
,
0000
0100
0000
2000
0000
3000
0001
0000
,
0010
0000
2000
0000
3000
0010
0000
0001
,
0100
0000
0001
1000
0010
0000
1000
0000
,
0200
0000
0300
1000
0000
0010
0000
0200
,
0000
0300
0001
0000
0100
0000
0020
0000
,
0030
1000
0000
0010
1000
0100
1000
0000
,
0010
1000
0010
0000
1000
0100
1000
0001
,
0000
0001
0010
0001
0010
0000
0001
0000
,
0100
0001
0100
0000
0001
0010
0000
0001
,
0010
0100
1000
0000
0010
0000
1000
0001
,
0100
0000
0100
0001
0000
0001
1000
0001
,
0100
0000
0010
0000
1000
0010
0100
0000
,
0000
0001
0000
0001
0000
1000
0010
0000
,
1010
1010
2000
0000
,
3001
0000
1000
0000
0001
0000
1000
0000
0001
0000
1000
0000
,
0020
0000
0000
0000
0000
0000
1030
0000
0010
0000
0100
0000
,
0101
0011
2000
0000
,
3001
0000
1000
0000
0001
0000
1000
0000
0001
0000
1000
0000
,
0200
0000
0000
0000
0000
0000
0310
0000
0001
0000
0010
0000
,
1100
1001
0020
0000
,
0031
0000
0010
0000
0100
0000
1000
0000
0100
0000
0010
0000
,
0200
0000
0000
0000
0000
0000
1300
0000
0001
0000
0100
0000
,
0010
1010
0002
0000
,
1003
0000
0010
0000
0100
0000
0010
0000
1000
0000
0001
0000
,
0200
0000
0302
0000
,
2003
0000
0000
0000
3020
0000
0030
0010
,
0200
0000
0302
0000
,
1003
0000
0100
0000
0010
0000
0001
0000
0000
0011
0000
0000
,
1001
0000
0010
0000
,
2000
3000
0000
0000
0010
0000
0000
0000
,
2020
3030
1001
0000
,
0011
0001
1000
0000
,
1000
0100
0010
0000
,
0001
0100
0010
0000
,
0010
1000
0100
1000
,
0001
0010
0001
0000
,
0001
1000
0010
1000
,
0100
1000
0010
1010
,
1000
0001
0010
0001
0001
0100
0000
0100
,
0001
0000
1000
0000
1001
0000
0001
0100
,
0010
0000
0010
0100
0000
0000
0100
0000
,
0001
1001
0010
1001
,
0000
0001
0000
0001
0000
1000
0010
0000
,
2010
0000
0000
0000
3002
0000
0000
0203
,
0000
0000
0302
2003
,
0000
0000
3020
0000
0000
0230
0000
0000
,
0000
0302
0003
0000
,
0020
0000
0000
0032
0000
0000
0000
0000
,
2003
3200
0000
2300
,
0000
3002
0000
0000
0000
0000
0023
0000
,
0031
0000
0010
0010
0001
0000
0001
1000
,
0100
1000
0010
1000
,
0010
0010
0100
0000
0010
1000
0100
0000
,
1000
0000
0001
0000
1000
0000
0100
0100
,
1000
0000
0010
1000
0100
1000
0001
0000
,
0001
0100
0001
0000
0100
0100
0010
0000
,
1000
0010
0100
0001
0100
0001
1000
0000
,
0001
0100
0010
0000
1000
0001
0100
0001
,
0010
0000
0001
1000
0100
0000
1000
0001
,
1000
0100
1000
0000
0010
0100
0010
0000
,
1000
1000
0001
0010
,
0022
0000
0033
0000
1001
0000
0001
1000
,
0100
0000
0100
1000
0020
0000
0030
0000
,
1000
0000
0010
1000
0010
0010
1000
0000
,
2200
3300
1001
0001
,
2000
0000
3010
0100
,
0020
0000
1030
0001
,
0200
0000
0301
1000
,
0020
1030
1001
0000
;

//---------------dance-single - ----------------
#NOTES:
     dance-single:
     :
     Easy:
     4:
     0.243,0.404,0.106,0.154,0.000:
0000
0000
0000
0000
,
0000
0000
0000
0000
,
0000
0000
0000
0000
,
0000
0000
0000
0000
,
0000
0000
0000
0000
,
0000
0000
0000
0000
,
0000
0000
0000
0000
,
0010
0000
0010
0000
,
0010
0000
0010
0010
,
0000
0010
0000
0010
,
0000
0000
1000
0000
,
1000
0000
0000
0001
0000
0000
0000
0000
,
0001
0001
0000
0100
,
0000
0001
0000
0000
,
1001
0000
0000
0000
0001
0000
0000
0100
,
0000
0000
0000
0001
,
0000
0000
1000
0000
0000
0010
0000
0000
,
0000
0010
1000
0000
,
0100
0000
0000
1000
0000
0000
0000
0000
,
0000
0100
0000
0000
,
0000
0100
0000
0000
0000
0000
0000
0000
,
0001
0000
1001
0000
,
1000
0000
1000
0000
,
0020
0000
0130
0000
,
0001
0000
1001
0000
,
0001
0000
0100
0000
,
0002
0000
0000
0003
1000
0000
0000
0000
,
1010
0000
0000
0000
0200
0000
0000
0300
,
0010
0000
1000
0000
,
2002
0000
3003
0000
,
0001
0000
0200
0000
,
0310
0000
1000
0000
,
0020
0000
0000
0000
,
0000
0000
0000
0000
0000
0000
0000
0030
,
0200
0000
0000
0000
,
0300
0000
0000
0000
,
1001
0000
0100
0000
,
0010
0000
1000
0000
,
0001
0000
0100
0000
,
0001
1000
0001
0000
,
1001
0001
1000
0000
,
1000
0001
0100
0010
,
0100
0010
0100
0000
,
1001
1000
0100
0000
,
0100
0000
0000
0000
1000
0000
0000
0100
,
0000
0000
0000
1001
,
0000
0000
0001
0000
0000
0100
0000
0000
,
0000
0001
0001
0000
,
0010
0000
0000
0001
0000
0000
0000
0000
,
0000
1000
0000
0100
,
0000
1000
0000
0001
0000
0001
1000
0000
,
1000
0000
0000
0000
0100
0000
0000
1000
,
0000
0000
0001
0100
,
0000
0000
0010
0000
0000
0100
0000
0000
,
0000
0001
1000
0000
,
0001
0000
0000
1000
0000
0000
0000
0000
,
0100
1000
0000
0001
,
0000
0100
0000
0000
0000
0000
0001
0000
,
1000
0000
0001
0000
,
0100
0000
0001
0010
,
0000
0001
0000
1000
,
0000
0100
1000
0000
,
0001
0000
0100
0000
,
0001
1000
0000
0010
,
0000
1000
0000
0100
,
1000
0000
1000
0000
,
0001
0001
0001
0001
,
0000
0010
0000
0001
,
1000
0001
0100
0000
,
0001
0000
0100
0000
,
0010
0000
1000
0010
,
1000
0000
1100
0000
,
1001
0000
0001
0200
,
0302
0000
1003
0020
,
2030
0000
3100
2000
,
3002
0000
0203
0301
,
0020
0000
0030
0000
;
