#TITLE:TODAY'S SUPERNATURAL;
#SUBTITLE:;
#ARTIST:ANIMAL COLLECTIVE;
#TITLETRANSLIT:;
#SUBTITLETRANSLIT:;
#ARTISTTRANSLIT:;
#CREDIT:aurae;
#BANNER:supernatural.png;
#BACKGROUND:supernatural-bg.png;
#LYRICSPATH:;
#CDTITLE:!auraesimfilesmix.png;
#MUSIC:supernatural.mp3;
#OFFSET:-0.277;
#SAMPLESTART:19.000;
#SAMPLELENGTH:17.560;
#SELECTABLE:YES;
#DISPLAYBPM:194.000;
#BPMS:0.000=194.000,16.000=193.000,82.000=197.000,91.000=193.000,106.000=190.000,139.000=192.000,154.000=188.000,172.000=198.000,232.000=202.000,247.000=194.000,250.000=194.000,277.000=193.000,282.000=180.000,286.000=168.000,289.000=199.000,292.000=317.000,296.000=333.000,300.000=414.999,304.000=489.998,308.000=479.998,316.000=554.998,368.500=538.578,369.000=536.178,369.500=528.978,370.000=519.378,370.500=511.378,371.000=503.379,371.500=496.179,372.000=482.579,372.500=476.979,373.000=471.379,373.500=466.579,374.000=462.579,374.500=460.179,375.000=456.179,375.500=437.780,376.000=428.980,376.500=419.380,377.000=412.980,377.500=396.180,378.000=373.781,378.500=356.981,379.000=344.181,379.500=329.781,380.000=316.181,380.500=304.982,381.000=294.582,381.500=285.782,382.000=278.582,382.500=269.782,383.000=263.382,383.500=253.782,384.000=247.382,384.500=243.382,385.000=240.182,385.500=236.182,386.000=232.982,386.500=230.582,387.000=228.182,387.500=224.982,388.000=221.782,388.500=217.782,389.000=204.762,389.500=196.762,390.000=189.562,390.500=184.762,391.000=181.562,391.500=178.362,392.000=175.962,392.500=172.762,393.000=168.762,393.500=168.342,394.000=159.142,394.500=151.942,395.000=148.742,395.500=143.942,396.000=134.342;
#STOPS:;
#BGCHANGES:-1.350=supernatural.avi=1.000=1=1=0,
400.000=supernatural-bg.png=1.000=1=0=0,
99999=-nosongbg-=1.000=0=0=0 // don't automatically add -songbackground-
;

//---------------dance-single - aurae----------------
#NOTES:
     dance-single:
     aurae:
     Hard:
     9:
     0.487,0.614,0.177,0.071,0.000:
0000
0000
0000
0000
,
0000
0000
0000
0000
,
0000
0000
0000
0000
,
0000
0000
0000
0000
0000
0000
0000
1000
,
0010
0000
0000
0000
,
0000
0000
0000
0000
0100
0000
0001
1000
,
0100
1000
0010
0000
0100
0000
0001
0000
,
0010
0000
0100
1000
0001
1000
0100
0000
,
1000
0000
0010
0000
0100
0000
0001
1000
,
0001
0000
0010
0000
0001
0100
0010
1000
,
0100
0000
0010
0001
0100
0010
1000
0000
,
0001
0000
0100
0000
0001
0000
1000
0010
,
0100
0000
0010
0000
1000
0100
1000
0100
,
1000
0001
0100
0101
,
0001
0000
0010
0000
1100
0000
1000
0001
,
0100
0001
0010
0000
0000
0000
0000
0000
,
0000
0000
0000
1001
,
0010
0100
1000
0010
0100
0000
0010
1000
,
0001
0000
0100
0000
0001
0100
1000
0000
,
0100
0001
0010
0100
1000
0000
0010
0100
,
0001
1000
0010
1000
0100
0000
1000
0001
,
0100
0000
0001
0000
1000
0010
0001
0000
,
0010
0000
1000
0100
1000
0001
0100
0000
,
0001
0000
0010
0001
0010
0000
0100
0000
,
1000
0000
1001
0000
0001
0010
0001
0000
,
0100
0000
0001
1000
0001
0000
1100
0000
,
0010
0100
1001
0010
,
0001
0101
1000
0010
,
1000
0000
0001
0100
0010
0000
0100
0000
,
0001
1000
0100
0000
1000
0000
0001
0000
,
0101
0001
1000
1010
,
0010
0000
0100
0001
0010
0000
0001
0000
,
1000
0100
1000
0001
0100
0000
0001
0010
,
0100
0000
1000
0000
0010
0100
0001
0000
,
0100
0010
1000
0010
,
0100
0001
0100
0000
0001
0000
1000
0010
,
0001
0010
0100
0001
,
1000
0100
0001
0000
0100
0000
0010
0000
,
0001
0000
1000
0000
0001
0000
0100
0001
,
1000
0000
0001
0000
0010
0001
0100
0000
,
0010
0000
1000
0000
0100
1000
0001
0000
,
0100
0000
0001
1000
0001
1000
0001
0000
,
0100
0000
0001
0000
1000
0100
2000
0000
,
3010
0000
1000
0010
1000
0001
0010
0000
,
0001
0000
0100
0000
0001
0000
1000
0001
,
1000
0000
0001
0100
0001
0100
0010
0000
,
2020
3030
0000
2002
,
3003
0000
0000
0000
0011
0000
0010
0100
,
1000
0000
0001
0000
0100
0001
1000
0000
,
0100
0000
1000
0010
0100
0010
1000
0000
,
0100
0010
0001
0000
1001
0000
0100
0000
,
1000
0001
1000
0000
0010
0000
1000
0001
,
0010
0000
0001
1000
0010
0100
0010
0000
,
1000
0010
1000
0100
1000
0000
0001
0000
,
0100
0000
0101
0000
0001
1000
0100
0000
,
1000
0010
0100
0010
,
1000
0010
1000
0001
0020
0000
0001
0000
,
0031
0000
0010
0000
0100
1000
0001
0000
,
1001
0010
0001
0100
,
0001
0000
1000
0000
0010
1000
0010
0000
,
0100
0000
0001
1000
0100
0000
1000
0000
,
0010
1000
0010
0100
0001
0100
0010
0000
,
0000
0000
0000
0000
0101
0000
0001
1000
,
0001
1000
0010
0000
0100
0000
0001
1000
,
0100
0000
1000
0010
1000
0010
0100
0000
,
0010
0000
0010
0000
1000
0001
0100
0001
,
1000
0100
1000
0001
,
0011
0000
0001
0100
0010
0000
1010
0000
,
0010
1000
0100
0000
0010
0000
0001
0100
,
0001
0100
0010
0000
0000
0000
0000
0000
,
0000
0000
1100
0000
,
0000
0000
0101
0000
,
0000
0001
0000
0000
,
0100
0000
0000
0000
,
0010
0000
0000
0000
,
1000
0000
0000
0000
,
0001
0000
0000
0000
,
0100
0000
0010
0000
,
0000
0100
0000
0000
,
0001
0000
0000
1000
,
0000
0010
0000
0100
,
0000
0001
1000
0001
,
1000
0001
1000
0001
,
1000
0001
1000
0001
,
1000
0002
2000
0000
,
0000
0000
0000
0000
,
0000
0000
0000
0000
,
0000
0000
0000
0000
,
0000
0000
0000
0000
,
0000
0000
0000
0000
,
0000
0000
0000
0000
,
0000
0000
0000
0000
,
0000
0000
0000
0000
,
0000
0000
0000
0000
,
0000
0000
0000
0000
,
0000
0000
0000
0000
,
0000
0000
0000
0000
,
0000
0000
0000
0000
,
0000
0000
0000
0000
,
3003
0000
0000
0000
;

//---------------dance-single - aurae----------------
#NOTES:
     dance-single:
     aurae:
     Medium:
     6:
     0.334,0.526,0.106,0.097,0.000: // measure 1
0000
0000
0000
0000
,  // measure 2
0000
0000
0000
0000
,  // measure 3
0000
0000
0000
0000
,  // measure 4
0000
0000
0000
0000
,  // measure 5
0000
0000
0000
0000
,  // measure 6
0000
0000
0100
0010
,  // measure 7
0001
0100
0010
1000
,  // measure 8
0200
0000
1300
0002
,  // measure 9
0000
0103
0010
1000
,  // measure 10
1000
0100
1000
0001
,  // measure 11
0100
0010
1000
0001
,  // measure 12
0010
0001
0100
0010
,  // measure 13
1000
0100
1000
0001
,  // measure 14
0100
0000
0100
0001
,  // measure 15
1000
0100
1000
0000
,  // measure 16
1000
0010
0000
0000
,  // measure 17
0000
0000
0000
0100
,  // measure 18
0001
0001
1000
0100
,  // measure 19
1000
0020
0000
1030
,  // measure 20
0200
0000
0310
0001
,  // measure 21
0100
0001
1000
0100
,  // measure 22
0100
1000
0010
0010
,  // measure 23
0100
0001
0010
0001
,  // measure 24
0100
0010
1000
0000
,  // measure 25
1000
0001
0000
0001
,  // measure 26
0100
0000
0100
0010
,  // measure 27
0000
0000
1000
0000
0100
0000
0000
1000
,  // measure 28
0000
0001
0100
0100
,  // measure 29
0001
0000
0000
1000
0000
0000
0010
0000
,  // measure 30
0100
0000
0100
0000
0001
0000
0000
0010
,  // measure 31
0000
0100
1000
1000
,  // measure 32
0010
0000
0000
0100
0000
0000
0001
0000
,  // measure 33
1000
0000
0100
0000
1001
0000
0000
0001
,  // measure 34
0100
0010
1000
0100
,  // measure 35
1000
0000
0001
0100
0001
0000
1000
0000
,  // measure 36
0010
0000
0100
0000
0100
0000
0001
0010
,  // measure 37
0100
1000
0001
0100
,  // measure 38
0101
0001
1000
1100
,  // measure 39
1000
0001
1001
0000
,  // measure 40
0001
0100
0100
0010
,  // measure 41
2000
0001
0001
0001
,  // measure 42
3001
0001
0002
1000
,  // measure 43
1000
1000
1003
0000
,  // measure 44
0110
0000
0001
0100
,  // measure 45
0010
1000
0100
1000
,  // measure 46
0001
0000
0010
0000
0000
0100
0000
0000
,  // measure 47
1100
0000
0000
1001
,  // measure 48
0000
0000
0000
0000
0011
0000
0010
0001
,  // measure 49
0010
0000
0100
0000
0000
1000
0000
0000
,  // measure 50
0010
0000
0000
0100
0001
0000
1000
0000
,  // measure 51
0001
1000
0100
0000
0010
0000
0000
0001
,  // measure 52
0000
0100
0010
1000
,  // measure 53
0001
0000
0000
0100
0000
0000
0010
0000
,  // measure 54
0100
0001
1000
0010
,  // measure 55
0010
1000
0100
0100
,  // measure 56
0010
0001
0100
0010
,  // measure 57
1000
0001
0200
0000
,  // measure 58
0301
2000
0000
3010
,  // measure 59
0200
0000
1300
0001
,  // measure 60
0010
1000
0100
1000
,  // measure 61
1100
1000
0001
0101
,  // measure 62
0100
0010
1010
1001
,  // measure 63
0000
0000
0001
0010
,  // measure 64
0001
0100
0010
0000
1000
0000
0100
0000
,  // measure 65
1000
0000
0001
0100
0000
0001
0100
0000
,  // measure 66
0010
0010
1000
0100
,  // measure 67
0100
1000
0001
0010
,  // measure 68
0001
1000
0010
0100
,  // measure 69
0010
1000
0100
0000
,  // measure 70
1000
0001
0000
0000
,  // measure 71
0000
0000
1000
0000
,  // measure 72
0000
0000
0001
0000
,  // measure 73
0000
0100
0000
0000
,  // measure 74
0001
0000
0000
0000
,  // measure 75
1000
0000
0000
0000
,  // measure 76
0001
0000
0000
0000
,  // measure 77
1000
0000
0000
0000
,  // measure 78
0001
0000
0100
0000
,  // measure 79
0000
0010
0000
0000
,  // measure 80
1000
0000
0000
0001
,  // measure 81
0000
1000
0000
0002
,  // measure 82
0000
2000
0000
0000
,  // measure 83
0000
0000
0000
0000
,  // measure 84
0000
0000
0000
0000
,  // measure 85
0000
0000
0000
0000
,  // measure 86
0000
0000
0000
0000
,  // measure 87
0000
0000
0000
0000
,  // measure 88
0000
0000
0000
0000
,  // measure 89
0000
0000
0000
0000
,  // measure 90
0000
0000
0000
0000
,  // measure 91
0000
0000
0000
0000
,  // measure 92
0000
0000
0000
0000
,  // measure 93
0000
0000
0000
0000
,  // measure 94
0000
0000
0000
0000
,  // measure 95
0000
0000
0000
0000
,  // measure 96
0000
0000
0000
0000
,  // measure 97
0000
0000
0000
0000
,  // measure 98
0000
0000
0000
0000
,  // measure 99
0000
0000
0000
0000
,  // measure 100
3003
0000
0000
0000
;

//---------------dance-single - aurae----------------
#NOTES:
     dance-single:
     aurae:
     Easy:
     3:
     0.194,0.307,0.115,0.044,0.000: // measure 1
0000
0000
0000
0000
,  // measure 2
0000
0000
0000
0000
,  // measure 3
0000
0000
0000
0000
,  // measure 4
0000
0000
0000
0000
,  // measure 5
0000
0000
0000
0000
,  // measure 6
0000
0000
0010
0000
,  // measure 7
0010
0001
0000
0001
,  // measure 8
1000
0000
1000
0100
,  // measure 9
0000
0100
1000
0000
,  // measure 10
1000
0001
0000
0000
,  // measure 11
0100
0000
0000
0001
,  // measure 12
0000
0000
0010
0000
,  // measure 13
0000
0001
0000
0000
,  // measure 14
1000
0000
0000
0001
,  // measure 15
0000
0000
1000
0000
,  // measure 16
0000
1001
0000
0000
,  // measure 17
0000
0000
0000
0010
,  // measure 18
0000
0010
1000
0000
,  // measure 19
1000
0100
0000
0100
,  // measure 20
1000
0000
1000
0001
,  // measure 21
0000
0001
0010
0000
,  // measure 22
0000
0001
0000
0000
,  // measure 23
0100
0000
0000
0010
,  // measure 24
0000
0000
1000
0000
,  // measure 25
0000
0100
0000
0000
,  // measure 26
1000
0000
0000
0001
,  // measure 27
0000
0000
1100
0000
,  // measure 28
0000
1001
0000
0000
,  // measure 29
0101
0000
0000
1001
,  // measure 30
0000
0000
1100
0000
,  // measure 31
0000
1001
0000
0000
,  // measure 32
0101
0000
0000
1001
,  // measure 33
0000
0000
1000
0000
,  // measure 34
1000
0010
0000
0010
,  // measure 35
1000
0000
1000
0001
,  // measure 36
0000
0001
0100
0000
,  // measure 37
0100
0001
0000
0001
,  // measure 38
1000
0000
1000
0010
,  // measure 39
0000
0010
1000
0000
,  // measure 40
0000
0100
0000
0000
,  // measure 41
1000
1000
1000
1000
,  // measure 42
0000
0000
0001
0001
,  // measure 43
0001
0001
0000
0000
,  // measure 44
0100
0000
0000
0100
,  // measure 45
0000
0000
1000
0000
,  // measure 46
0000
0100
0000
0000
,  // measure 47
1001
0000
0000
0110
,  // measure 48
0000
0000
1001
0000
,  // measure 49
0000
0001
0000
0000
,  // measure 50
0100
0000
0100
0010
,  // measure 51
0000
0010
0100
0000
,  // measure 52
0100
0001
0000
0001
,  // measure 53
1000
0000
0000
0001
,  // measure 54
0000
0000
0100
0000
,  // measure 55
0100
0001
0000
0001
,  // measure 56
1000
0000
0000
0100
,  // measure 57
0000
0000
0020
0000
,  // measure 58
0000
0032
0000
0003
,  // measure 59
0200
0000
0300
0002
,  // measure 60
0000
0003
1000
0000
,  // measure 61
1000
0001
0000
0001
,  // measure 62
1000
0000
0001
1000
,  // measure 63
0000
0000
0001
0000
,  // measure 64
0100
0000
0001
0000
,  // measure 65
0100
0000
0000
0001
,  // measure 66
0000
0000
1000
0000
,  // measure 67
0000
0010
0000
1000
,  // measure 68
0100
0000
1000
0001
,  // measure 69
0000
0100
0001
0000
,  // measure 70
0000
1001
0000
0000
,  // measure 71
0000
0000
0100
0000
,  // measure 72
0000
0000
0100
0000
,  // measure 73
0000
0100
0000
0000
,  // measure 74
0100
0000
0000
0000
,  // measure 75
0100
0000
0000
0000
,  // measure 76
0100
0000
0000
0000
,  // measure 77
0100
0000
0000
0000
,  // measure 78
0100
0000
0100
0000
,  // measure 79
0000
0100
0000
0000
,  // measure 80
0100
0000
0000
0100
,  // measure 81
0000
0100
0000
0100
,  // measure 82
0000
0200
0000
0000
,  // measure 83
0000
0000
0000
0000
,  // measure 84
0000
0000
0000
0000
,  // measure 85
0000
0000
0000
0000
,  // measure 86
0000
0000
0000
0000
,  // measure 87
0000
0000
0000
0000
,  // measure 88
0000
0000
0000
0000
,  // measure 89
0000
0000
0000
0000
,  // measure 90
0000
0000
0000
0000
,  // measure 91
0000
0000
0000
0000
,  // measure 92
0000
0000
0000
0000
,  // measure 93
0000
0000
0000
0000
,  // measure 94
0000
0000
0000
0000
,  // measure 95
0000
0000
0000
0000
,  // measure 96
0000
0000
0000
0000
,  // measure 97
0000
0000
0000
0000
,  // measure 98
0000
0000
0000
0000
,  // measure 99
0000
0000
0000
0000
,  // measure 100
0300
0000
0000
0000
;
