#TITLE:THUNDER;
#SUBTITLE:;
#ARTIST:THE PRODIGY;
#TITLETRANSLIT:;
#SUBTITLETRANSLIT:;
#ARTISTTRANSLIT:;
#CREDIT:;
#BANNER:thunder.png;
#BACKGROUND:thunder-bg.png;
#LYRICSPATH:;
#CDTITLE:!auraelogo_new.png;
#MUSIC:thunder.mp3;
#OFFSET:-0.113;
#SAMPLESTART:21.520;
#SAMPLELENGTH:21.500;
#SELECTABLE:YES;
#DISPLAYBPM:134.000;
#BPMS:0.000=134.000;
#STOPS:;
#BGCHANGES:;

//---------------dance-single - aurae----------------
#NOTES:
     dance-single:
     aurae:
     Easy:
     3:
     0.222,0.247,0.101,0.119,0.000:
0000
0000
0000
0000
,
0000
0000
0000
0000
,
0000
0000
0000
0000
,
0000
0000
0000
0000
,
0000
0000
0000
0000
,
0000
0000
0000
0000
,
0000
0000
0000
0000
,
0000
0000
0000
0000
,
1000
0000
1000
0000
,
0001
0001
0001
0000
,
0100
0000
0001
0000
,
0100
0000
0200
0000
,
0301
0000
0001
0000
,
1000
0001
1000
1000
,
0010
0000
1000
0000
,
0010
1000
0010
0010
,
0100
0000
0001
0000
,
0100
0001
0100
0100
,
0001
1000
0001
0000
,
1000
0001
1000
0001
,
0200
0300
0200
0300
,
0100
0010
0100
0010
,
2000
3000
2000
3000
,
0002
0000
0000
0000
,
1003
1000
1000
0000
,
0001
0001
0001
0000
,
0100
0001
0100
0001
,
1000
0001
1000
0000
,
0001
0001
0001
0000
,
0010
0010
0010
0000
,
0001
0010
0001
0010
,
0100
1000
0100
0000
,
0100
0100
1001
0000
,
0010
1000
0010
0000
,
0010
0010
1001
0000
,
0010
0001
0010
0000
,
0001
0001
0110
0000
,
1000
1000
0110
0000
,
1000
0001
1000
0020
,
0000
0030
0020
0000
,
0130
0000
0010
0000
,
1010
0000
1001
0000
,
0101
0000
0001
0000
,
1000
0001
1000
1000
,
0001
0000
0011
0000
,
0101
0000
1001
0000
,
1010
0000
1000
0000
,
0010
0010
1000
0010
,
2000
0000
0000
0000
,
3002
0000
0000
0000
,
0203
0000
0000
0000
,
0302
0000
2003
0000
,
3001
0001
0001
0000
,
1000
0001
1000
0100
,
1000
0010
1000
0000
,
0010
0010
0100
0010
,
1000
0100
1000
0000
,
0001
0001
0100
0001
,
0010
0001
0010
0000
,
0010
1000
0010
1000
;

//---------------dance-single - aurae----------------
#NOTES:
     dance-single:
     aurae:
     Medium:
     6:
     0.370,0.413,0.147,0.129,0.023: // measure 1
0000
0000
0000
0000
,  // measure 2
0000
0000
0000
0000
,  // measure 3
0000
0000
0000
0000
,  // measure 4
0000
0000
0000
0000
,  // measure 5
0000
0000
0000
0000
,  // measure 6
0000
0000
0000
0000
,  // measure 7
0000
0000
0000
0000
,  // measure 8
0000
0000
0000
0002
,  // measure 9
1003
0010
0000
0010
,  // measure 10
1000
0100
1000
0000
,  // measure 11
0001
0100
0001
0000
,  // measure 12
1000
0000
2002
3003
,  // measure 13
1000
0000
0110
0000
1000
0001
0100
0000
,  // measure 14
0001
1000
0100
0000
1000
0001
0010
0000
,  // measure 15
0001
0000
0110
0000
1000
0001
0010
0000
,  // measure 16
0001
1000
0010
0000
1000
0100
0010
0001
,  // measure 17
0010
0000
1001
0000
1000
0001
0100
0000
,  // measure 18
0001
1000
0100
0000
1000
0001
0100
0000
,  // measure 19
0001
0000
1001
0000
0010
1000
0010
1000
,  // measure 20
0100
1000
0001
0000
0100
0001
0100
0001
,  // measure 21
0100
0000
0100
0000
0001
0100
0001
0000
,  // measure 22
1000
0000
1000
0000
0001
0100
0001
0100
,  // measure 23
0100
0000
0100
0000
0010
1000
0010
0000
,  // measure 24
2000
0000
3002
0000
,  // measure 25
1003
0000
0101
0000
1000
0001
1000
0000
,  // measure 26
0001
0100
0001
0010
0100
0010
0100
0000
,  // measure 27
0010
0000
0011
0000
0001
1000
0010
0000
,  // measure 28
1000
0001
0100
0001
0010
0000
0100
0000
,  // measure 29
1000
0000
0110
0000
1000
0001
0100
0000
,  // measure 30
0001
1000
0100
0010
0001
0010
0100
0000
,  // measure 31
1000
0000
0010
1000
0010
0000
1000
0000
,  // measure 32
0100
1000
0100
0000
0200
0000
0000
0000
,  // measure 33
1300
0000
0000
0100
0000
0000
1000
0000
0100
0000
0000
0000
1000
0000
0000
0000
,  // measure 34
0001
0000
0100
0001
0100
0000
0001
1000
,  // measure 35
0001
0000
0000
1000
0000
0000
0010
0000
1000
0000
0000
0000
0010
0000
0000
0000
,  // measure 36
0100
0010
0100
0000
0010
1000
0010
0000
,  // measure 37
0100
0000
0000
0001
0000
0000
0100
0000
0001
0000
0000
0000
1000
0000
0000
0000
,  // measure 38
0001
1000
0001
0000
0010
0000
1001
0000
,  // measure 39
0100
0000
0010
1000
0010
1000
0100
0000
,  // measure 40
0000
0000
0000
0000
2002
0000
0000
3003
,  // measure 41
1001
0000
0000
1000
0000
0000
0001
0000
,  // measure 42
0100
0000
0000
0000
0001
1000
0001
1000
,  // measure 43
0010
0000
0000
1000
0000
0000
0100
0000
,  // measure 44
1000
0000
0010
1000
0010
0000
0100
0000
,  // measure 45
0010
0000
0000
0100
0000
0000
0001
0000
,  // measure 46
0100
0000
0000
0000
0001
0100
0001
0100
,  // measure 47
0010
0000
0000
1000
0000
0010
1000
0000
,  // measure 48
0200
0000
0320
0000
,  // measure 49
0031
0100
0000
0100
,  // measure 50
0002
0000
2003
0000
,  // measure 51
3020
0000
0000
0000
0000
0000
0000
0000
1030
0000
0000
0010
0000
0000
1000
0000
,  // measure 52
0010
0000
0000
1000
0000
0000
0010
0000
2000
0000
0000
0000
0000
0000
0000
0000
,  // measure 53
3001
0000
1001
0000
1000
0001
0100
0000
,  // measure 54
0001
0100
0010
1000
0100
0010
0001
0000
,  // measure 55
1000
0000
0011
0000
0100
0001
0100
0000
,  // measure 56
0001
1000
0100
1000
0010
0000
1010
0000
,  // measure 57
1001
0000
0011
0000
0001
1000
0100
0000
,  // measure 58
1000
0001
0100
0010
1000
0010
0100
0000
,  // measure 59
0001
0000
1000
0010
1000
0100
1000
0000
,  // measure 60
0001
0010
0100
1000
0100
0010
0001
0010
;

//---------------dance-single - aurae----------------
#NOTES:
     dance-single:
     aurae:
     Hard:
     8:
     0.445,0.523,0.138,0.101,0.175: // measure 1
0000
0000
0000
0000
,  // measure 2
0000
0000
0000
0000
,  // measure 3
0000
0000
0000
0000
,  // measure 4
0000
0000
0000
0000
,  // measure 5
0000
0000
0000
0000
,  // measure 6
0000
0000
0000
0000
,  // measure 7
0000
0000
0000
0000
,  // measure 8
0000
0000
0000
1010
,  // measure 9
0220
0000
0000
0000
0030
0000
0300
0001
,  // measure 10
2000
0000
0000
0001
0000
0000
3020
0000
0000
0000
0000
0000
0030
0000
0000
0000
,  // measure 11
1000
0000
0000
0001
0000
0000
1000
0000
0010
0000
0000
1000
0000
0000
0100
0000
,  // measure 12
0010
0000
0000
0001
0000
0000
0100
0000
0010
0000
0000
0000
0000
0000
0000
0000
,  // measure 13
1001
0000
0000
1000
0001
0000
1000
0000
0010
0000
0000
1000
0010
0000
0100
0000
,  // measure 14
0001
0000
0000
0100
0001
0000
0100
0000
0010
0000
1000
0000
0001
0000
0000
0000
,  // measure 15
0101
0000
0000
0001
0100
0000
0001
0000
1000
0000
0000
0100
1000
0000
0100
0000
,  // measure 16
0010
0000
0000
0001
0010
0000
0001
0000
1000
0000
0001
0000
1001
0000
0000
0000
,  // measure 17
1100
0000
0000
1000
0010
0000
1000
0000
0100
0000
0000
0010
0001
0000
1000
0000
,  // measure 18
0010
0000
0000
0100
0001
0000
1000
0000
0100
0000
1000
0000
0010
0000
0000
0000
,  // measure 19
1000
0000
0100
0000
1000
0000
0010
0000
0100
0010
0000
0100
0010
0000
1000
0000
,  // measure 20
0100
0010
0001
1000
0010
0100
0001
0000
,  // measure 21
0011
0000
0001
1000
0000
0000
1000
0000
,  // measure 22
0100
0000
0000
0000
1000
0000
0010
0000
0000
0000
0010
0000
0000
0100
0000
0000
,  // measure 23
0001
0000
0010
0100
0000
0000
0010
0000
,  // measure 24
0001
1000
0001
1000
0010
0001
0010
0000
,  // measure 25
1010
0000
1000
0000
0010
0000
0000
1000
0000
0000
0001
0000
0010
0000
0000
0000
,  // measure 26
0100
1000
0001
0000
0100
0001
0100
0000
,  // measure 27
1001
0000
0001
0000
1000
0000
0000
0001
0000
0000
0010
0000
0001
0000
0000
0000
,  // measure 28
0001
1000
0010
1000
0001
1000
0100
0000
,  // measure 29
0100
0000
0010
0000
0001
0000
0000
0100
0000
0000
0010
0000
1000
0000
0000
0000
,  // measure 30
0100
1000
0001
0000
0100
0001
1000
0000
,  // measure 31
1100
0000
0001
0100
0001
1000
0100
0000
,  // measure 32
0100
1000
0010
0100
0001
0010
0100
0000
,  // measure 33
1000
0000
0001
0000
0010
0000
0000
0001
0000
0010
0001
0000
1000
0000
0000
0000
,  // measure 34
0100
1000
0100
0001
0100
1000
0100
0000
,  // measure 35
1000
0000
0001
0000
0100
0000
0000
0001
0000
1000
0001
0000
0100
0000
0000
0000
,  // measure 36
0010
1000
0010
0001
0010
1000
0100
0000
,  // measure 37
1100
0000
1000
0000
0001
0000
0000
0010
0000
0001
0100
0000
0010
0000
0000
0000
,  // measure 38
1000
0010
1000
0100
1000
0010
0200
0000
,  // measure 39
0301
0000
0100
0001
1000
0100
0001
0000
,  // measure 40
0000
0000
0210
0000
,  // measure 41
0310
0000
0001
0010
0000
0000
0001
0000
,  // measure 42
1000
0000
0000
0000
0001
0000
0000
0000
1000
0000
0001
0000
0000
0010
0000
0000
,  // measure 43
0100
0000
1000
0010
0000
0000
0100
0000
,  // measure 44
0001
0010
0001
1000
0100
1000
0001
0000
,  // measure 45
0101
0000
0001
1000
0000
0000
0010
0000
,  // measure 46
1000
0000
0000
0000
0010
0000
0000
0000
1000
0000
0010
0000
0000
1000
0000
0000
,  // measure 47
0100
0000
0010
0001
0000
0000
0100
0000
,  // measure 48
0001
0010
0001
1000
0010
0100
0001
1000
,  // measure 49
0200
1000
0000
1300
,  // measure 50
0002
0003
0200
0300
,  // measure 51
0001
0000
0000
0100
0000
0000
0001
0000
0001
0000
0000
1000
0000
0000
0100
0000
,  // measure 52
0010
0000
0000
0001
0000
0000
1000
0000
0200
0000
0000
0000
0300
0000
0000
0000
,  // measure 53
1100
0000
1000
0000
0010
0000
1000
0100
0000
1000
0100
0000
0010
0000
0001
0000
,  // measure 54
1000
0001
0100
0010
1000
0000
1000
0010
,  // measure 55
0001
0000
0000
0010
0000
0000
1000
0010
0000
1000
0010
0000
0100
0000
0001
0000
,  // measure 56
0010
0100
1000
0000
0100
0010
0001
0000
,  // measure 57
1001
0000
0001
0000
1000
0000
0001
0010
0000
0001
0010
0000
0100
0000
1000
0000
,  // measure 58
0010
0100
0001
0100
0010
1000
0100
0000
,  // measure 59
2000
0000
0000
0000
3001
0000
0010
0001
0010
0000
0001
0000
1000
0000
0000
0000
,  // measure 60
0001
0100
0010
1000
0100
0010
0001
0010
;
