#TITLE:THE WORDS THAT MAKETH MURDER;
#SUBTITLE:;
#ARTIST:PJ HARVEY;
#TITLETRANSLIT:;
#SUBTITLETRANSLIT:;
#ARTISTTRANSLIT:;
#CREDIT:aurae;
#BANNER:words.png;
#BACKGROUND:words-bg.png;
#LYRICSPATH:words.lrc;
#CDTITLE:!auraelogo_new.png;
#MUSIC:words.mp3;
#OFFSET:-0.049;
#SAMPLESTART:39.200;
#SAMPLELENGTH:15.180;
#SELECTABLE:YES;
#DISPLAYBPM:158.000;
#BPMS:0.000=157.000,8.000=158.000,24.000=157.000,40.000=158.000,96.000=159.000,104.000=158.000,144.000=158.120,158.000=158.500,167.000=158.080,172.000=159.020,176.000=158.800,192.000=158.000,200.000=157.000,208.000=158.000,217.000=158.500,230.000=158.000,264.000=158.160,274.000=158.000;
#STOPS:;
#BGCHANGES:-6.750=words-bg.png=1.000=0=0=1,
-6.500=words.avi=1.000=0=0=0,
284.000=words-bg.png=1.000=1=0=1,
99999=-nosongbg-=1.000=0=0=0 // don't automatically add -songbackground-
;

//---------------dance-single - aurae----------------
#NOTES:
     dance-single:
     aurae:
     Easy:
     4:
     0.268,0.412,0.027,0.090,0.000:
0000
0000
0000
0000
,
0000
0000
0000
0000
,
0001
1000
0000
1000
,
0001
1000
0000
1000
,
0000
0010
0000
0100
,
0000
0010
0000
1000
,
1000
0000
0010
0000
,
0100
0010
0100
0100
,
0100
0001
0000
0001
,
0000
1000
0000
1000
,
0001
0000
0001
0000
,
0100
0001
0100
0000
,
0100
0010
0000
1000
,
0000
0001
0000
1000
,
0100
1000
1000
0000
,
0010
1000
0100
1000
,
0001
0100
0000
0100
,
0000
0001
0000
1000
,
0001
0000
0100
0000
,
0001
0100
0100
0001
,
0100
0001
0000
1000
,
0000
0010
0000
0100
,
0010
0000
0010
1000
,
1000
0000
0000
0010
0000
0000
0000
0000
,
1000
0000
1000
0000
,
0001
0100
0100
0000
,
1001
0000
0110
0000
,
0002
2003
3002
2003
,
3001
0000
1000
0000
,
0010
0100
0100
0000
,
0010
0000
1000
0000
,
0002
2003
3002
2003
,
3001
0000
0100
0000
,
0001
0001
0001
0000
,
0010
0010
0000
0010
,
0100
0000
0001
1000
,
0100
0000
0100
0000
,
1000
1000
1000
0000
,
0010
1000
0010
0010
,
0100
0000
0000
0010
0000
0000
0000
0000
,
1000
0000
1000
0000
,
0100
1000
0001
0000
,
0100
0001
0001
0100
,
0001
0000
0000
1000
0000
0000
0000
0000
,
0001
0100
0100
0001
,
1000
0010
1000
0000
,
0010
1000
1000
0000
,
0100
1000
0100
0000
,
0001
0100
0100
0001
,
1000
0010
0010
0000
,
0001
0100
0001
0010
,
0001
0100
0001
0000
,
1000
0000
0001
0000
,
0100
0000
0010
0000
,
0020
0000
0000
0000
,
2030
0000
0000
0000
0000
0000
0000
3000
,
0001
0100
0001
0000
,
1000
1000
1000
1000
,
0001
0000
0100
0001
,
0100
0000
0001
1000
,
0010
0010
0010
0100
,
0010
1000
1000
0100
,
1000
0000
0100
0000
,
1000
0000
0001
0100
,
0100
0001
0001
0010
,
0001
1000
0001
0000
,
0001
0100
0000
0100
,
0001
0100
0001
0000
,
0001
1000
0000
0100
,
1000
0010
1000
0100
,
1001
0000
0000
0000
;

//---------------dance-single - aurae----------------
#NOTES:
     dance-single:
     aurae:
     Medium:
     6:
     0.483,0.507,0.326,0.235,0.000:
0000
0000
0000
0000
,
0000
0000
0000
0000
,
1000
0000
0001
1000
0001
0000
0100
0000
,
0001
0000
1000
0001
1000
0000
0010
0000
,
1000
0202
0303
2002
,
3003
2020
3030
1001
,
0010
0001
0100
0001
,
1000
0000
0001
1000
0001
0000
0000
0000
,
0001
2200
3300
2002
,
3003
0022
0033
1001
,
1000
0010
0100
0100
,
0010
0000
1000
0000
0100
1000
0001
0000
,
1000
0220
0330
0202
,
0303
2002
3003
1010
,
0010
0000
1000
0001
0100
0000
0001
1000
,
0001
0000
0010
0000
0001
0010
0001
0000
,
0010
0022
0033
0202
,
0303
2002
3003
1100
,
1000
0000
0001
0100
0001
0000
0010
0000
,
0001
0010
0010
0001
,
0100
1001
0010
1001
,
0100
0000
0001
0000
1000
0001
0100
0001
,
0100
0000
0100
0001
0100
0000
0001
0000
,
1000
0100
0010
0001
,
0010
0000
1001
0000
0100
0010
1000
0000
,
0010
1000
0001
1000
0001
0000
0000
0000
,
0010
1000
1000
0100
,
1010
1001
0101
0100
,
0001
1000
0001
0000
0100
0001
0001
0000
,
1000
0010
0100
0010
1000
0000
0000
0000
,
0010
0100
0001
0001
,
0011
0110
1100
0100
,
0010
0001
1000
0000
0001
1000
0010
0000
,
0100
0010
1000
0100
1000
0000
0001
0000
,
0001
0100
0100
0001
,
1000
0000
0010
0000
0010
0000
1000
0010
,
0100
0000
0001
0000
,
1000
0000
0001
0000
0001
0000
1000
0010
,
0100
0010
1000
0010
,
1010
0000
1000
0001
0100
0000
0000
0000
,
0010
1001
0100
0001
,
1000
0001
0100
0001
0010
0000
0010
0001
,
0010
0001
0100
0100
,
0001
0000
1000
0001
0100
0000
0000
0000
,
1000
0000
0010
0010
1000
0000
0001
0000
,
0100
0100
0001
0000
1000
0000
0001
0000
,
1000
0100
1000
0010
0100
0000
0010
0000
,
0010
1000
0001
0000
0101
0000
1001
0000
,
1010
0000
0010
1000
0001
0000
0100
0001
,
0010
0010
0001
0100
,
0001
1000
1000
0000
0100
1000
0000
1000
,
0001
0000
0001
0100
0001
0000
0010
0000
,
0010
0001
0001
0100
,
0001
0000
1000
0000
0010
0000
1000
0001
,
0200
0301
0100
0100
,
0002
0000
1003
0000
0001
1000
0001
0100
,
0010
0000
1000
0000
1000
0010
1000
0000
,
0100
0000
0100
1000
0100
0000
1000
0000
,
0001
0001
0100
0100
,
0010
0000
1000
0000
0001
0100
0001
1000
,
0010
0000
0100
0000
0010
1000
0001
0100
,
0001
0000
1000
0000
1000
0000
0001
0100
,
0001
0010
0001
0100
,
0010
0000
1000
0000
1000
0000
0010
0100
,
0010
1001
1001
0010
,
0100
0000
0001
1000
0100
1000
0001
0100
,
0001
0000
1001
0000
1000
0000
0010
0100
,
0010
0000
0100
0000
0100
0010
1000
0100
,
1000
0000
0011
0000
0101
0000
0001
1000
,
0100
0000
1000
0010
0100
0000
0010
0000
,
1001
0000
0000
0000
;

//---------------dance-single - aurae----------------
#NOTES:
     dance-single:
     aurae:
     Hard:
     8:
     0.553,0.514,0.280,0.217,0.018: // measure 1
0000
0000
0000
0000
,  // measure 2
0000
0000
0000
0000
,  // measure 3
1001
0000
0001
1000
0010
0000
0010
0000
,  // measure 4
1000
0000
0010
1000
0100
1000
0100
0000
,  // measure 5
1000
0101
0100
1001
,  // measure 6
0001
1010
1000
1001
,  // measure 7
0001
0000
0010
0001
0010
0000
0001
0010
,  // measure 8
0100
0000
1000
0001
0100
0000
0010
0000
,  // measure 9
0010
0000
1000
0100
0100
0000
0010
0001
,  // measure 10
0001
1000
0100
1000
0001
1000
0010
0100
,  // measure 11
0010
0000
1000
0100
1000
0000
0001
0000
,  // measure 12
1010
0000
1001
0000
0001
0100
0001
0010
,  // measure 13
0001
0000
1000
0010
0010
0000
0100
0001
,  // measure 14
0001
1000
0010
0100
0010
1000
0001
1000
,  // measure 15
0100
0000
1001
0000
0010
1000
0001
0100
,  // measure 16
0001
0000
1000
0000
0010
0100
0010
0000
,  // measure 17
0100
0000
0000
0000
0000
0000
0000
0010
1000
0000
0000
0000
0001
0000
0000
0000
0100
0000
0000
0000
0000
0000
0000
0000
0100
0000
0000
0000
0001
0000
0000
0000
,  // measure 18
0010
0000
0000
0000
0000
0000
0000
0100
1000
0000
0000
0000
0001
0000
0000
0000
0010
0000
0000
0000
0100
0000
0000
0000
1000
0000
0000
0000
0000
0000
0000
0000
,  // measure 19
0002
0000
0013
0001
0100
0000
0100
0001
,  // measure 20
1000
0110
1010
1001
,  // measure 21
0001
0000
0000
0000
0000
0000
0000
1000
0100
0000
0000
0000
1000
0000
0000
0000
0001
0000
0000
0000
0000
0000
0000
0000
0100
0000
0000
0000
0000
0000
0000
0000
,  // measure 22
0010
0000
0000
0000
0000
0000
0000
1000
0001
0000
0000
0000
1000
0000
0000
0000
0001
0000
0000
0000
0010
0000
0000
0000
0010
0000
0000
0000
0001
0000
0000
0000
,  // measure 23
0010
0000
0001
1000
0010
0000
1010
0000
,  // measure 24
1001
0000
0100
0001
1000
0001
0010
0000
,  // measure 25
0001
0000
1000
0000
0010
1000
0001
0000
,  // measure 26
1000
0100
1000
0100
1000
0000
0000
0000
,  // measure 27
0010
0000
1001
0001
0100
0000
0001
0000
,  // measure 28
2000
3020
0230
0302
,  // measure 29
1003
0000
0010
1000
0100
1000
0001
0000
,  // measure 30
0010
0100
1000
0010
0200
0000
0300
0000
,  // measure 31
0001
0000
1100
1000
0001
0000
0100
0000
,  // measure 32
0002
0023
0032
2003
,  // measure 33
3010
1000
0001
0000
0010
0001
1000
0000
,  // measure 34
0100
1000
0001
0010
0001
1000
0100
0010
,  // measure 35
0200
0000
1000
0000
,  // measure 36
0310
0001
0100
0100
,  // measure 37
1001
0000
0101
0001
,  // measure 38
1000
0001
0000
0001
0100
0000
0100
0001
,  // measure 39
1000
0010
0100
0100
,  // measure 40
0001
0000
1000
0001
1000
0000
0110
0000
,  // measure 41
1001
0100
1010
0001
,  // measure 42
1000
0100
1000
0001
0100
0000
0001
1000
,  // measure 43
0100
1000
0010
0010
,  // measure 44
1000
0000
0100
1000
0200
0000
0300
0000
,  // measure 45
0100
0000
1000
0100
0010
0000
0001
0000
,  // measure 46
1000
0001
0020
0000
0032
0000
0203
0000
,  // measure 47
0301
0010
0100
1000
0001
1000
0100
0000
,  // measure 48
1000
0010
1000
0000
0110
0000
1001
0000
,  // measure 49
0101
0000
0100
0001
1000
0000
0100
1000
,  // measure 50
0200
2300
3020
0230
,  // measure 51
0301
0100
0001
0000
0001
1000
0000
1000
,  // measure 52
0010
0000
0010
1000
0100
1000
0100
0000
,  // measure 53
1000
0001
1000
0010
,  // measure 54
0100
0010
1000
0010
0100
0001
1000
0100
,  // measure 55
2000
0000
3010
0000
0010
1000
0001
0000
,  // measure 56
0200
0000
0301
0000
0100
0001
1000
0001
,  // measure 57
0100
0000
0010
1000
0010
0000
0100
0001
,  // measure 58
1000
0100
1000
0000
0110
0000
1001
0000
,  // measure 59
1100
0000
1000
0010
0100
0000
0010
1000
,  // measure 60
0100
0000
1000
0000
0001
0010
0100
1000
,  // measure 61
0100
2000
0001
3010
,  // measure 62
0001
1000
0001
0100
0010
0000
0110
0000
,  // measure 63
1001
0000
0010
0000
0100
0001
1000
0001
,  // measure 64
0010
0000
0010
0010
0001
0010
0100
0000
,  // measure 65
1000
0000
1000
0000
0100
1000
0100
1000
,  // measure 66
0001
0000
0010
0001
1000
0100
1000
1000
,  // measure 67
0100
0000
1001
0000
0010
1000
0001
0000
,  // measure 68
0100
0000
1001
0000
0010
0001
0100
0000
,  // measure 69
0001
1000
0100
1000
0010
0000
0100
0010
,  // measure 70
1000
0000
0010
0100
0010
0000
0100
0000
,  // measure 71
2002
0000
0000
0000
,  // measure 72
3003
0000
0000
0000
;
