#TITLE:TERRA INCOGNITA;
#SUBTITLE:;
#ARTIST:Juliette Lewis;
#TITLETRANSLIT:;
#SUBTITLETRANSLIT:;
#ARTISTTRANSLIT:;
#GENRE:;
#CREDIT:aurae;
#BANNER:terra.png;
#BACKGROUND:terra-bg.png;
#LYRICSPATH:terra.lrc;
#CDTITLE:!auraelogo_new.png;
#MUSIC:terra.mp3;
#OFFSET:-0.041;
#SAMPLESTART:33.760;
#SAMPLELENGTH:14.620;
#SELECTABLE:YES;
#DISPLAYBPM:129.000:133.000;
#BPMS:0.000=129.000
,71.000=86.000
,72.000=133.000
,200.500=134.000
,203.500=133.000
;
#STOPS:
;
#BGCHANGES:0.000=terra.avi=1.000=1=0=0=StretchNoLoop==CrossFade==,
237.000=terra-bg.png=1.000=0=0=1=====,
99999=-nosongbg-=1.000=0=0=0 // don't automatically add -songbackground-
;
#KEYSOUNDS:;
#ATTACKS:;

//---------------dance-single - ----------------
#NOTES:
     dance-single:
     :
     Hard:
     7:
     0.480,0.422,0.187,0.178,0.009,336.000,21.000,20.000,0.000,0.000,0.000,0.480,0.422,0.187,0.178,0.009,336.000,21.000,20.000,0.000,0.000,0.000:
0000
0000
0000
0000
,
0000
0000
0000
0000
,
0000
0000
0000
0000
,
0001
0200
0000
0301
0000
1000
0001
0020
,
0000
0031
0000
1000
0100
2000
0000
3010
,
0000
1000
0001
0200
0000
0301
0000
0001
,
1000
0001
0000
1001
0000
0001
1000
1000
,
0010
1000
0000
0001
0100
0100
0010
0100
,
0000
0100
0001
0001
1000
0010
0000
0010
,
1000
1000
0001
0010
0000
0010
0001
0020
,
0000
0031
0000
0000
0001
1000
0100
0000
,
1100
0000
1000
0001
0010
0000
0001
0100
,
0001
1000
0010
0010
1000
0000
0100
1000
,
0000
0001
1000
0001
0100
0001
0000
0101
,
0000
0000
0001
1000
0000
1000
0010
0000
,
0010
1000
0001
0100
0000
0100
0010
1000
,
0100
0010
0001
0100
0001
1000
0000
1001
,
0000
0001
0011
0022
0000
0000
0033
0000
,
0101
0000
0001
1000
0010
0000
0010
1000
,
0100
1000
0100
1000
0000
1000
0001
0000
,
0001
0100
0001
0000
0010
0100
1000
0100
,
1000
0001
0010
0001
0011
0000
0110
0000
,
1100
1000
0100
1000
0000
1000
0001
0100
,
0001
0000
0010
0001
0100
0010
0100
0010
,
1000
0000
1000
0001
0000
0001
0100
0010
,
1000
0000
1000
0010
1000
0001
0010
0000
,
0011
0000
0001
0100
0000
0100
0001
1000
,
0010
0000
1000
0100
0000
1000
0010
0100
,
0010
0000
0010
1000
0010
1000
1000
0001
,
0100
0000
0100
0001
1000
0000
0100
1000
,
0001
0100
0000
0001
0000
0100
0001
1000
,
1000
0000
0001
0000
1000
0001
0100
0100
,
0001
0000
0001
1000
0010
0000
0010
1000
,
0001
0000
0001
1000
0002
0000
0000
0000
,
0103
0100
0100
0100
0000
0000
0001
0000
,
1000
0001
1000
0001
0100
0000
0001
0000
,
1000
0000
0010
1000
0010
0000
1000
0100
,
1000
1100
1001
0001
,
1000
1000
1000
1000
0000
0001
1000
0001
,
0100
0000
0001
0000
1000
0010
1000
0000
,
0001
0000
0010
0001
0100
0010
1000
0100
,
1000
0000
0001
0100
0001
0001
1000
0010
,
0100
0000
0010
2000
0001
0000
3100
0000
,
1100
0000
1001
0000
0001
0100
0001
0001
,
0010
0000
0100
0000
0010
0001
1000
0100
,
0010
0000
0001
0010
1000
0010
0100
1000
,
0010
0000
0000
1000
0000
0000
0001
0000
0000
0000
0001
0000
1000
0000
0100
0000
,
0100
0000
1000
0001
0001
0100
0001
0100
,
0020
0000
1030
0100
0020
0000
0031
0100
,
0020
0000
1030
0001
0020
0000
0031
1000
,
0100
1000
0200
0000
1300
0000
1000
0001
,
0200
0000
0301
0000
0001
1000
0200
0000
,
1300
0000
1000
0010
0200
0000
0310
0000
,
0010
0100
0010
0000
0200
0000
0000
0000
0301
0000
0000
0000
0001
0000
1000
0000
,
0002
0000
1003
0000
0100
1000
0200
0000
,
1300
0000
0001
0100
0001
0010
0100
1000
,
0010
0100
0010
0100
0000
0101
0000
1001
,
0000
0001
1000
0100
0000
1100
0000
1010
,
0000
1000
0001
0010
0001
0100
0001
0001
,
1000
1001
1001
0000
0000
0000
0000
0000
;

//---------------dance-single - Blank----------------
#NOTES:
     dance-single:
     :
     Medium:
     6:
     0.419,0.422,0.187,0.285,0.000,276.000,21.000,32.000,0.000,0.000,0.000,0.419,0.422,0.187,0.285,0.000,276.000,21.000,32.000,0.000,0.000,0.000: // measure 0
0000
0000
0000
0000
,  // measure 1
0000
0000
0000
0000
,  // measure 2
0000
0000
0000
0000
,  // measure 3
0100
0000
1000
0100
1000
0000
0001
0200
,  // measure 4
0000
0000
0301
0100
0001
0000
1000
0000
,  // measure 5
1001
0000
0001
0010
0000
0001
0000
0000
,  // measure 6
1000
0100
0000
0010
0000
0000
0001
0010
,  // measure 7
0001
0000
0100
0001
0100
0000
0100
0010
,  // measure 8
1000
0010
1000
0001
0000
0200
0000
0000
,  // measure 9
0301
0100
0000
0001
0000
0000
1000
0100
,  // measure 10
0000
1000
0000
0000
1000
0001
0100
0000
,  // measure 11
0001
0000
1000
0000
1000
0010
0100
0100
,  // measure 12
0001
0000
0100
0000
0101
0000
0001
1000
,  // measure 13
0000
1000
0100
1000
0100
0010
0000
0001
,  // measure 14
0000
0000
0001
2000
0000
3001
0200
0000
,  // measure 15
0302
0000
0003
0001
0000
1000
0020
0000
,  // measure 16
1030
0010
0100
0100
0010
1000
0001
1000
,  // measure 17
0000
0000
0001
1000
0000
0000
0000
0000
,  // measure 18
0001
0000
0100
0001
0010
0000
0010
0001
,  // measure 19
0100
0000
0100
0000
0001
1000
0001
1000
,  // measure 20
0001
0000
0000
0000
0001
0100
1000
0000
,  // measure 21
0100
0000
0010
1000
0100
0000
0010
0001
,  // measure 22
0100
0000
0001
0000
1000
0001
0100
0000
,  // measure 23
0100
0000
0001
0000
1000
0001
0010
0001
,  // measure 24
1000
0000
0000
0000
0001
1000
0100
1000
,  // measure 25
0010
0000
0010
1000
0100
0000
1100
0000
,  // measure 26
1100
0000
0000
1000
0000
0001
0010
0001
,  // measure 27
0100
0000
0001
0000
0100
0001
1000
0100
,  // measure 28
0010
0000
0001
0100
0010
0000
1000
0100
,  // measure 29
0010
0000
0010
0100
1000
0000
1000
0001
,  // measure 30
1000
0000
1000
0001
0000
0001
0100
0000
,  // measure 31
0202
0000
0000
0000
0303
0000
0001
0100
,  // measure 32
0202
0303
2002
3003
,  // measure 33
2020
3030
2200
3300
,  // measure 34
1000
0100
1000
0100
0000
0000
1000
0000
,  // measure 35
1000
0001
0001
0000
,  // measure 36
0100
0001
0100
0000
0001
0000
0001
0010
,  // measure 37
2000
3020
0032
2003
,  // measure 38
3100
1000
0100
1000
0000
0000
1000
0000
,  // measure 39
1000
0010
0010
0000
,  // measure 40
0100
0010
1000
0000
0010
0000
0100
0001
,  // measure 41
1000
0001
0010
0001
,  // measure 42
0100
0000
0001
0100
0010
0000
1000
0010
,  // measure 43
0100
0000
0100
0000
0010
1000
0001
1000
,  // measure 44
0001
0000
0001
0100
0010
0000
0010
0000
,  // measure 45
2000
0000
3002
0000
1003
0001
1000
0000
,  // measure 46
0202
0000
0303
0022
0000
0033
0001
0010
,  // measure 47
0100
0000
0100
0000
0010
0001
1000
0001
,  // measure 48
2000
0000
3010
0100
0002
0000
0013
0100
,  // measure 49
2000
0000
3010
0100
0002
0000
1003
0001
,  // measure 50
1000
0001
1000
0000
1001
0000
0000
0001
,  // measure 51
0100
0000
0101
0000
0000
0010
1000
0000
,  // measure 52
1010
0000
0000
1000
0100
0000
1100
0000
,  // measure 53
0000
1000
0001
0000
1001
0000
0000
0001
,  // measure 54
0010
0000
0011
0000
0000
0100
1000
0000
,  // measure 55
1100
0000
0000
0100
0010
0000
0220
0000
,  // measure 56
0330
0010
0100
1000
0000
1001
0000
1001
,  // measure 57
0000
0100
0000
0010
0001
0010
0001
0100
,  // measure 58
0000
0100
0000
0001
1000
0001
0000
1000
,  // measure 59
0010
0100
0001
0000
0000
0000
0000
0000
;

//---------------dance-single - Blank----------------
#NOTES:
     dance-single:
     :
     Easy:
     3:
     0.183,0.184,0.036,0.018,0.000,138.000,4.000,2.000,0.000,0.000,0.000,0.183,0.184,0.036,0.018,0.000,138.000,4.000,2.000,0.000,0.000,0.000: // measure 0
0000
0000
0000
0000
,  // measure 1
0000
0000
0000
0000
,  // measure 2
0000
0000
0000
0000
,  // measure 3
0001
0000
0001
0001
,  // measure 4
0000
0001
1000
0000
,  // measure 5
1000
1000
0000
1000
,  // measure 6
0001
0000
0000
1000
,  // measure 7
0000
1000
1000
0000
,  // measure 8
1000
0010
0000
0010
,  // measure 9
1000
0000
1000
0010
,  // measure 10
0000
0000
0100
0000
,  // measure 11
0100
0001
0000
0001
,  // measure 12
0100
0000
0100
0001
,  // measure 13
0000
1000
0001
0000
,  // measure 14
0000
0001
0000
0001
,  // measure 15
1000
0000
1000
0010
,  // measure 16
0000
0010
1000
0000
,  // measure 17
1000
0001
0000
0000
,  // measure 18
0001
0000
0100
0001
,  // measure 19
0100
0000
0001
0001
,  // measure 20
0001
0000
0001
1000
,  // measure 21
1010
0000
1001
0000
,  // measure 22
1001
0000
1000
0100
,  // measure 23
1000
0000
1000
0000
,  // measure 24
1000
0000
0010
1000
,  // measure 25
1000
1000
1000
0000
,  // measure 26
0001
0000
0100
0001
,  // measure 27
0100
0000
0001
0001
,  // measure 28
0001
0000
1000
0000
,  // measure 29
0001
0000
1000
1000
,  // measure 30
0001
0000
0100
0000
,  // measure 31
0010
0000
0000
0010
,  // measure 32
1000
0000
0001
0000
,  // measure 33
1000
0000
0001
0000
,  // measure 34
0200
0000
0000
0000
,  // measure 35
0301
0000
0001
0000
,  // measure 36
1000
0000
0000
0000
,  // measure 37
1000
0100
1000
0100
,  // measure 38
2000
0000
0000
0000
,  // measure 39
3001
0000
0000
0000
,  // measure 40
0010
0000
0001
0000
,  // measure 41
0010
0000
0010
0010
,  // measure 42
0001
0000
0100
0100
,  // measure 43
0100
0000
0001
1000
,  // measure 44
0001
0000
0001
1000
,  // measure 45
1000
1000
0001
1000
,  // measure 46
0001
0000
1000
1000
,  // measure 47
1000
0000
0000
0010
,  // measure 48
1000
0000
0010
0000
,  // measure 49
0100
0000
0010
0000
,  // measure 50
0000
1000
0000
0000
0001
0000
0000
1000
,  // measure 51
0000
0000
0001
0000
0000
1000
0000
0000
,  // measure 52
0001
0000
0000
1000
0000
0000
0001
0000
,  // measure 53
0000
0100
0000
0000
0001
0000
0000
0100
,  // measure 54
0000
0000
0001
0000
0000
0100
0000
0000
,  // measure 55
0001
0000
0000
0100
0000
0000
0000
0000
,  // measure 56
0000
0100
0000
0000
0010
0000
0000
1000
,  // measure 57
0000
0000
0010
0000
0000
1000
0000
0000
,  // measure 58
0010
0000
0000
1000
0000
0000
0100
0000
,  // measure 59
0000
1001
0000
0000
0000
0000
0000
0000
;
