#TITLE:Somebody That I Used To Know;
#SUBTITLE:;
#ARTIST:Gotye;
#TITLETRANSLIT:;
#SUBTITLETRANSLIT:;
#ARTISTTRANSLIT:;
#GENRE:;
#CREDIT:;
#MENUCOLOR:;
#METERTYPE:DDR;
#BANNER:somebody.png;
#BACKGROUND:somebody-bg.png;
#LYRICSPATH:;
#CDTITLE:!auraelogo_new.png;
#MUSIC:somebody.mp3;
#OFFSET:-1.860;
#SAMPLESTART:81.855;
#SAMPLELENGTH:22.340;
#SELECTABLE:YES;
#LISTSORT:;
#DISPLAYBPM:129.000;
#BPMS:0.000=129.000;
#STOPS:;
#BGCHANGES:-4.000=somebody.avi=1.000=1=0=0,
99999=-nosongbg-=1.000=0=0=0 // don't automatically add -songbackground-
;
#ATTACKS:;

//---------------dance-single - aurae----------------
#NOTES:
     dance-single:
     aurae:
     Easy:
     2:
     0.173,0.205,0.070,0.000,0.000:
0000
0000
0000
0000
,
0000
0000
0000
0000
,
0000
0000
0000
0000
,
0001
0000
1000
0000
,
0001
0000
1000
0000
,
0100
0000
0100
0000
,
1000
0000
1000
0000
,
0001
0000
1000
0000
,
0001
0000
1000
0000
,
0010
0000
0010
0000
,
0010
0000
0000
0000
,
0010
0000
1000
0000
,
0001
0001
0001
0000
,
1000
0000
0100
0000
,
0010
0010
0010
0000
,
0001
0000
1000
0000
,
0001
0000
0100
0000
,
0100
0000
0000
0000
,
0000
0000
0000
0000
,
0001
0001
0001
0000
,
1000
1000
1000
0000
,
0010
1000
0001
0000
,
0010
0001
1000
0000
,
0100
0100
0100
0000
,
1000
1000
1000
0000
,
0001
1000
0100
0000
,
1000
0100
0010
0000
,
0100
0000
1001
0000
,
0100
0000
1001
0000
,
0100
0000
1001
0000
,
0100
0000
1001
0000
,
0010
0000
1001
0000
,
0010
0000
1001
0000
,
0010
0000
1001
0000
,
1001
0000
0000
0000
,
0001
0001
0001
0000
,
1000
0000
0001
0000
,
0100
0100
0100
0000
,
0001
1000
0001
1000
,
0001
0000
1000
0000
,
0010
0000
1000
1000
,
0010
0000
0010
0000
,
1000
0001
1000
0000
,
1000
1000
1000
0000
,
0001
0000
0100
0000
,
0001
0100
0001
0000
,
1000
0100
1000
0000
,
1000
0000
0001
0000
,
0100
0000
0100
0000
,
0001
0010
0100
1000
,
0001
1000
0100
0000
,
1000
0000
0000
0000
,
0001
0001
0001
0000
,
1000
0000
0010
0000
,
1000
0010
1000
0000
,
0001
0000
1000
0000
,
0001
0000
1000
0000
,
0100
0000
0100
0000
,
1000
0000
0001
1000
;

//---------------dance-single - aurae----------------
#NOTES:
     dance-single:
     aurae:
     Medium:
     5:
     0.336,0.384,0.078,0.061,0.000:
0000
0000
0000
0000
,
0000
0000
0000
0000
,
0000
0000
0000
0000
,
0010
0001
0001
0010
,
0001
0000
0001
0000
1000
0000
0100
1000
,
0100
1000
1000
0000
,
0010
1000
1000
0000
,
0001
0100
0100
0001
,
1000
0000
0010
0000
0100
0000
0010
1000
,
0010
1000
1000
0000
,
0100
1000
1000
0001
,
1000
0000
1000
0100
1000
0000
1000
0100
,
1000
0010
1000
0000
,
0010
0000
0100
0010
1000
0010
0100
0000
,
0010
1000
1000
0000
,
0001
0000
0100
0001
0100
0000
0001
0010
,
0001
0000
0000
0001
1000
0001
0000
0100
,
0001
0000
0000
0001
1000
0000
0000
1000
,
0100
0000
1000
0000
0001
0000
0001
0100
,
0001
0000
1000
0010
1000
0000
0100
0000
,
1000
0100
1000
0010
1000
0000
0010
0100
,
0010
0020
2030
3200
,
1300
0000
0001
0000
0100
0000
0100
0001
,
0100
0000
0001
0000
0001
0000
0010
0001
,
0010
0000
0001
0000
1000
0001
0100
0001
,
0100
0002
2003
3200
,
1300
0010
1000
0000
,
0001
0101
1000
1100
,
1000
0000
0010
1000
0100
0000
1000
0000
,
0001
0101
1000
1100
,
1000
0010
0100
0000
0100
0000
0000
0000
,
0100
0101
0001
1001
,
1000
0010
0100
0000
0100
0000
0010
1000
,
0100
1000
0001
0100
,
0002
0000
0000
0003
,
1000
0000
0001
0000
0001
0100
0001
1000
,
0100
0000
1000
0010
1000
0000
0100
0000
,
0100
0000
1000
0100
1000
0000
0001
0100
,
0001
0000
1000
0000
1000
0001
1000
0001
,
0100
0000
0001
1000
0001
0000
1000
0100
,
1000
1000
1000
0000
,
0010
1000
0100
0000
0100
1000
0100
0000
,
1000
1000
0001
0000
,
0001
0000
0100
0001
0100
0000
0001
0000
,
1000
0000
0000
1000
0001
0000
0001
0100
,
0001
0000
1000
0000
1000
0010
1000
0100
,
1000
1000
0100
0010
,
0001
0000
0001
0010
0001
0000
0001
0100
,
0001
0000
0100
0000
0010
0000
0010
1000
,
0100
0000
1000
0100
1000
0001
0001
0000
,
0100
0001
0100
0000
,
0001
0000
1000
0100
1000
0000
0000
1000
,
0010
0000
0010
1000
0100
0000
0100
1000
,
0001
0001
0100
0100
,
0010
1000
0001
0000
,
0001
0000
0000
0001
1000
0000
0000
1000
,
0100
0100
1000
0000
,
1000
0000
0000
1000
0010
0000
0010
0000
,
0100
1100
1001
1001
;

//---------------dance-single - aurae----------------
#NOTES:
     dance-single:
     aurae:
     Hard:
     7:
     0.450,0.436,0.227,0.192,0.009:
0000
0000
0000
0000
,
0000
0000
0000
0000
,
0000
0000
0000
0000
,
0000
0000
0001
0010
0010
0001
0001
0000
,
0010
0000
0001
0000
1000
0000
0100
1000
,
0100
0000
1000
0001
0100
0000
0010
0000
,
0010
0000
1000
0001
0001
1000
0001
0000
,
0100
0000
0001
1000
1000
0100
0010
0000
,
0001
0000
1000
0000
0100
0000
1000
0001
,
0100
0001
0100
0100
,
0010
0010
1000
0001
1000
0001
0001
2000
,
0010
0000
0010
0000
3100
0000
0010
1000
,
0100
1000
2002
3003
,
0001
0010
0010
0001
0001
0000
1000
0000
,
0100
1000
2002
3003
,
0100
0000
0001
0000
0010
0001
0100
0001
,
1000
0000
0000
1000
0001
0100
0000
0001
,
2000
3000
0002
0003
,
2000
0000
3000
0000
0002
0000
0003
0001
,
0100
0000
0101
0001
1000
0000
0010
1000
,
0100
0000
1000
1000
0010
0000
0100
0010
,
1000
0000
0001
0001
0010
0010
0001
0100
,
0010
0000
0010
1000
0100
1000
1000
0100
,
1000
0000
0101
0000
0001
0010
0001
0000
,
0100
0010
0010
0000
1000
0000
0001
2000
,
0100
0000
0100
0000
3001
0000
1000
0001
,
0010
0000
0000
0000
0001
0000
1000
0001
,
0100
0000
1001
0100
0010
0000
1001
0010
,
0100
0000
1001
0100
0010
0000
1001
0010
,
1000
0000
0110
0001
1000
0000
0110
1000
,
0001
0000
0110
0001
1000
0010
0010
0100
,
0001
0000
1100
0001
0010
0000
1100
0010
,
0001
0010
0000
0001
0100
0000
0100
0100
,
0001
1000
0010
0100
0100
0010
1000
0001
,
0200
0002
0000
0000
0000
0000
0303
0000
,
1001
0000
1100
1000
1000
0001
0100
0010
,
1000
0000
1000
0001
0010
0000
0010
0001
,
0100
0000
0101
0001
0010
0010
0001
0100
,
0010
1000
1000
0100
1000
0020
0000
1030
,
0010
0000
0110
0000
0100
0001
0001
1000
,
0100
0000
0100
1000
0001
0000
0100
0010
,
0010
0000
1000
0000
0010
1000
0001
0001
,
0100
0101
2002
3003
,
1000
0000
0010
1000
1000
0001
0001
0100
,
0020
0000
1030
0010
0100
0000
0100
0001
,
1000
0000
0000
0000
0001
0000
0010
0000
0010
0000
0000
0001
1000
0000
0001
0000
,
0100
0000
0100
0000
0001
0000
1000
0000
1000
0000
0000
0010
0000
0000
1000
0000
,
0100
0000
1100
1000
0001
0001
1000
0001
,
0200
0000
0310
0100
0002
0000
0003
0000
,
0001
1000
1000
0010
0100
0010
1000
0100
,
1000
0000
1001
0000
0101
0000
0001
1000
,
0020
0000
1000
0000
0130
0000
1000
0010
,
0100
0000
1010
0000
1100
0000
1000
0001
,
0200
0000
0001
0000
0310
0000
0001
0100
,
1000
1100
0202
0303
,
0001
0000
0001
1000
1000
0000
1000
0010
,
0010
0000
0100
0000
0010
1000
0001
0000
,
0001
1000
1000
0010
0100
0010
0010
1000
,
0100
0000
1000
0001
0100
0001
1000
0010
;
