#TITLE:Romance in the Club;
#SUBTITLE:;
#ARTIST:OTTO VON SCHIRACH;
#TITLETRANSLIT:;
#SUBTITLETRANSLIT:;
#ARTISTTRANSLIT:;
#CREDIT:;
#BANNER:romance.png;
#BACKGROUND:romance-bg.png;
#LYRICSPATH:romance.lrc;
#CDTITLE:!auraelogo_new.png;
#MUSIC:romance.mp3;
#OFFSET:-0.211;
#SAMPLESTART:49.040;
#SAMPLELENGTH:17.120;
#SELECTABLE:YES;
#BPMS:0.000=140.000;
#STOPS:;
#BGCHANGES:;

//---------------dance-single - aurae----------------
#NOTES:
     dance-single:
     aurae:
     Easy:
     2:
     0.247,0.287,0.178,0.089,0.000: // measure 1
0000
0000
0000
0000
,  // measure 2
0000
0000
0000
0000
,  // measure 3
0000
0000
0000
0000
,  // measure 4
0000
0000
0000
0000
,  // measure 5
0000
0000
0000
0000
,  // measure 6
0000
0000
0000
0000
,  // measure 7
0000
1001
0100
0000
,  // measure 8
0100
0001
0001
0000
,  // measure 9
0001
1000
1000
0000
,  // measure 10
1000
0001
0001
0000
,  // measure 11
0001
0000
1000
1000
,  // measure 12
1000
0000
0001
0001
,  // measure 13
0001
0000
1000
0001
,  // measure 14
0001
0000
0001
0000
,  // measure 15
0010
0010
0001
0000
,  // measure 16
0001
0001
1000
0000
,  // measure 17
1000
1000
0010
0000
,  // measure 18
0010
0010
2000
0000
,  // measure 19
0000
3000
0010
0010
,  // measure 20
0010
0000
0100
0100
,  // measure 21
0100
0000
0010
1000
,  // measure 22
1000
0000
0001
0001
,  // measure 23
0001
0000
2000
3000
,  // measure 24
2000
3000
2000
3000
,  // measure 25
1000
0000
0001
0001
,  // measure 26
0001
0000
0001
0001
,  // measure 27
0100
0000
0100
0001
,  // measure 28
0100
0000
0001
0100
,  // measure 29
0001
0000
0100
0100
,  // measure 30
0100
0000
0100
0100
,  // measure 31
0010
0000
0010
1000
,  // measure 32
1000
0000
1000
0100
,  // measure 33
1000
0000
0002
0003
,  // measure 34
0002
0003
0002
0003
,  // measure 35
0001
0001
0001
0000
,  // measure 36
1100
0000
1000
0001
,  // measure 37
1000
0000
0010
1000
,  // measure 38
0010
1000
0010
0010
,  // measure 39
0020
0030
1000
0000
,  // measure 40
0101
0000
1000
0001
,  // measure 41
1000
0000
0001
0010
,  // measure 42
0001
0001
0010
0001
,  // measure 43
0020
0030
0010
1001
,  // measure 44
0000
1001
0000
1001
,  // measure 45
0000
0100
0001
0100
,  // measure 46
0001
0000
1000
0001
,  // measure 47
1000
0000
0010
1001
,  // measure 48
0000
1001
0000
1001
,  // measure 49
0000
0100
1000
0100
,  // measure 50
1000
0000
0001
1000
,  // measure 51
0001
0001
1000
0110
,  // measure 52
0000
0110
0000
0110
,  // measure 53
0000
1000
0001
1000
,  // measure 54
0001
0000
0001
1000
,  // measure 55
0001
0000
0001
0110
,  // measure 56
0000
0110
0000
0110
,  // measure 57
0000
1000
0001
1000
,  // measure 58
0001
0000
1001
1001
,  // measure 59
1001
0000
0000
0000
;

//---------------dance-single - aurae----------------
#NOTES:
     dance-single:
     aurae:
     Medium:
     5:
     0.374,0.487,0.188,0.059,0.000: // measure 1
0000
0000
0000
0000
,  // measure 2
0000
0000
0000
0000
,  // measure 3
0000
0000
0000
0000
,  // measure 4
0000
0000
0000
0000
,  // measure 5
0000
0000
0000
0000
,  // measure 6
0000
0000
0000
0000
,  // measure 7
0000
0000
0110
0000
0100
0000
0001
0100
,  // measure 8
0001
0000
0000
0000
1000
0000
0010
1000
,  // measure 9
0010
0000
1010
0000
1000
0000
0001
0100
,  // measure 10
0001
0000
0000
0000
0001
0000
0010
0001
,  // measure 11
0010
0000
0011
0000
0001
0100
0001
0000
,  // measure 12
1000
0100
0010
0100
,  // measure 13
0001
0000
0010
0000
0100
1000
0100
1000
,  // measure 14
0100
1000
0100
0010
,  // measure 15
1000
0001
1000
0000
0001
0000
0100
0000
,  // measure 16
0001
0000
0001
0000
1000
0000
0100
1000
,  // measure 17
0100
1000
0001
1000
,  // measure 18
0010
0000
1000
0000
1000
0000
0010
0100
,  // measure 19
0020
0030
0100
0001
,  // measure 20
0100
0100
0010
1000
,  // measure 21
0100
1000
0100
0000
1000
0000
0010
0000
,  // measure 22
1000
0001
0100
0100
,  // measure 23
0100
0000
0001
1000
,  // measure 24
0001
1000
0001
1000
,  // measure 25
0001
0000
0000
0000
1000
0000
0010
1000
,  // measure 26
0000
0010
1000
0000
1000
0000
0001
0100
,  // measure 27
0000
0000
0001
0000
1000
0000
0001
0100
,  // measure 28
0000
0000
0001
0000
1000
0000
0001
0100
,  // measure 29
0001
0000
1001
0000
1000
0000
0010
1000
,  // measure 30
0000
0010
1000
0000
0100
0000
1000
0100
,  // measure 31
0000
0000
1000
0000
0001
0000
0100
0001
,  // measure 32
0000
0000
1000
0000
0001
0100
0001
0000
,  // measure 33
0100
0001
0100
0000
1001
0000
1001
0000
,  // measure 34
1001
1001
1001
1001
,  // measure 35
1001
0000
0100
0000
1001
0000
1000
0001
,  // measure 36
0100
0000
0002
0000
1003
0000
0001
1000
,  // measure 37
0001
0000
0000
0000
0001
0000
1000
0100
,  // measure 38
0010
2000
3010
1000
,  // measure 39
1000
1000
0010
0000
0100
0000
0001
1000
,  // measure 40
0010
0000
1000
0000
0001
0010
0100
0000
,  // measure 41
0001
0000
0100
0100
0100
0000
0001
0100
,  // measure 42
0001
0000
1000
0000
0001
0010
0001
0010
,  // measure 43
0001
0110
1001
0100
,  // measure 44
1001
0100
1001
0100
,  // measure 45
1000
0001
0100
0000
0001
0000
1000
0000
,  // measure 46
0001
0000
1000
0000
0001
0100
0002
0000
,  // measure 47
2003
3000
1001
0010
,  // measure 48
1001
0010
1001
0010
,  // measure 49
0001
1000
0100
0000
1000
0000
0001
0000
,  // measure 50
0100
0000
0001
0000
1000
0001
0100
0000
,  // measure 51
0001
0001
0001
0000
0001
0000
0100
0001
,  // measure 52
0100
0001
0100
0000
0001
0000
0010
0000
,  // measure 53
0001
0000
0010
0000
0100
0000
1000
0100
,  // measure 54
1000
0100
1000
0000
0001
0000
0001
0000
,  // measure 55
0020
0000
0030
0000
0100
0000
0001
0100
,  // measure 56
0001
0100
0001
0000
1000
0000
0100
0000
,  // measure 57
1000
0100
0001
0000
1000
0001
1000
0000
,  // measure 58
0001
1000
0001
0000
0010
0000
0010
0000
,  // measure 59
0010
0000
0000
0000
;

//---------------dance-single - aurae----------------
#NOTES:
     dance-single:
     aurae:
     Hard:
     8:
     0.508,0.487,0.425,0.109,0.044: // measure 1
0000
0000
0000
0000
,  // measure 2
0000
0000
0000
0000
,  // measure 3
0000
0000
0000
0000
,  // measure 4
0000
0000
0000
0000
,  // measure 5
0000
0000
0000
0000
,  // measure 6
0000
0000
0000
0000
,  // measure 7
0000
0000
1001
0000
0101
0000
0001
0010
,  // measure 8
0100
0000
0001
0000
1000
0000
0010
1000
,  // measure 9
0100
0000
1001
0000
1000
0010
0001
0010
,  // measure 10
0100
1000
0100
1000
0010
0000
0100
0001
,  // measure 11
0010
0000
0101
0000
1001
0000
1000
0010
,  // measure 12
0001
1000
0100
0000
0001
0100
0001
1000
,  // measure 13
0010
0000
1001
0000
0010
1000
0010
1000
,  // measure 14
0100
0000
1000
0001
0010
0000
0100
0000
,  // measure 15
1000
1000
0010
0000
1000
0001
0010
0100
,  // measure 16
1000
0001
0010
0001
0001
0000
0100
0001
,  // measure 17
0010
0000
0110
0000
1100
0000
1000
0001
,  // measure 18
0100
0001
1000
0100
1000
0000
0010
1000
,  // measure 19
0001
0000
0001
0100
0100
0001
0100
0001
,  // measure 20
0010
0000
1100
0000
0100
0000
0010
0001
,  // measure 21
0100
0000
1010
0000
1000
0001
0010
0001
,  // measure 22
0001
0100
0001
0010
0001
0000
0100
0000
,  // measure 23
0001
1000
0001
0000
1100
0000
1100
0000
,  // measure 24
1010
1010
1100
1100
,  // measure 25
1010
0000
0000
0000
0001
0000
1000
0100
,  // measure 26
1000
0000
0100
0010
0001
0000
0001
0010
,  // measure 27
0000
0010
0001
0010
0100
0000
0100
1000
,  // measure 28
0001
0000
1000
0000
1000
0001
0101
0000
,  // measure 29
1000
0001
0101
0000
1001
0000
1000
0010
,  // measure 30
1000
0001
0000
0001
0010
0000
0001
0000
0010
0000
0000
0000
0001
0000
1000
0000
,  // measure 31
0000
0010
1000
0001
0100
0000
0001
0010
,  // measure 32
0100
0000
1000
0000
0010
1000
0101
0000
,  // measure 33
1000
0001
1000
0000
0101
0000
0101
0000
,  // measure 34
0011
0011
0101
0101
,  // measure 35
0011
0000
1001
0000
1100
0000
1000
0010
,  // measure 36
1000
0000
1001
0000
0001
0100
0001
0010
,  // measure 37
0001
0000
0010
0010
0100
0000
1000
0100
,  // measure 38
1000
0000
0000
0000
0110
0000
0000
0000
1000
0000
0010
1000
0010
0000
1000
0000
,  // measure 39
0001
0001
0100
0000
0101
0000
1000
0001
,  // measure 40
0100
0000
0011
0000
0001
0010
0100
0010
,  // measure 41
0100
0000
0010
0010
1000
0000
0100
1000
,  // measure 42
0100
0000
0000
0000
1000
0000
0000
0000
0001
0100
0001
0100
0001
0000
1000
0000
,  // measure 43
0100
1100
1000
0011
,  // measure 44
1000
0000
0000
0000
0011
0000
0000
0000
0100
0000
0000
0000
0011
0000
0000
0100
,  // measure 45
0001
1000
0001
0000
1000
0100
1000
0001
,  // measure 46
0010
0001
0100
0010
2000
0000
3200
0000
,  // measure 47
2300
3001
0001
1100
,  // measure 48
0001
0000
0000
0000
1100
0000
0000
0000
1000
0000
0000
0000
0101
0000
0000
0100
,  // measure 49
0001
0100
0010
0000
1000
0001
0100
0001
,  // measure 50
0010
0001
1000
0100
2000
0000
3002
0000
,  // measure 51
1003
1000
0010
0000
0100
0001
2000
0000
,  // measure 52
3010
0000
0100
0000
0020
0000
1000
0000
0130
0000
0000
0000
1001
0000
0000
0001
,  // measure 53
1000
0001
0100
0000
0001
0010
0100
1000
,  // measure 54
0100
1000
0001
0010
0200
0000
2300
0000
,  // measure 55
3010
1000
0001
0000
0100
0010
2000
0000
,  // measure 56
3010
0000
1000
0000
0002
0000
0010
0000
0103
0000
0000
0000
0101
0000
0000
0001
,  // measure 57
1000
0001
0100
0000
0001
0001
1000
0100
,  // measure 58
1000
0010
0100
0000
0001
0010
0100
0000
,  // measure 59
1000
0000
0000
0000
;
