#TITLE:RIGHT NOW;
#SUBTITLE:;
#ARTIST:PSY;
#TITLETRANSLIT:;
#SUBTITLETRANSLIT:;
#ARTISTTRANSLIT:;
#CREDIT:aurae;
#BANNER:rightnow.png;
#BACKGROUND:rightnow-bg.png;
#LYRICSPATH:;
#CDTITLE:!auraelogo_new.png;
#MUSIC:rightnow.mp3;
#OFFSET:-0.039;
#SAMPLESTART:53.240;
#SAMPLELENGTH:11.540;
#SELECTABLE:YES;
#DISPLAYBPM:125.000;
#BPMS:0.000=125.000;
#STOPS:;
#BGCHANGES:0.000=rightnow.avi=1.000=1=0=0,
227.000=rightnow-bg.png=1.000=0=0=1,
99999=-nosongbg-=1.000=0=0=0 // don't automatically add -songbackground-
;

//---------------dance-single - aurae----------------
#NOTES:
     dance-single:
     aurae:
     Hard:
     8:
     0.451,0.443,0.296,0.035,0.096:
0000
0000
0000
0000
,
0000
0000
0000
0000
,
0000
0000
0000
0000
,
0000
0000
0000
0000
,
1000
0100
1000
0100
1000
0000
0100
0010
,
0001
0100
0001
0100
0001
0000
0010
0001
,
0100
0000
0100
0000
0010
1000
0100
0010
,
0100
0000
0010
0001
1000
0001
0100
0000
,
0001
1000
0100
1000
0010
0010
0100
0000
,
0010
1000
0100
1000
0001
0001
0010
0000
,
0100
1000
0100
0000
1100
0000
1000
0001
,
0100
0000
0001
0010
0001
0001
1000
0000
,
0101
0000
0001
1000
0100
0100
0010
0000
,
0001
0100
0010
1000
0001
0001
0100
0000
,
0010
1000
0100
0000
0010
0001
0100
0010
,
1000
0100
1000
0001
0100
0001
1000
0000
,
0010
1000
0101
0000
0001
0100
1010
0000
,
0010
1000
0001
0100
0010
0001
0010
1000
,
0100
0000
1100
1000
0001
0000
0001
0100
,
0010
0000
0000
0000
1010
0000
0000
0000
1001
0000
0000
0001
0000
0100
0000
0001
,
0010
0001
0100
0000
0010
1000
0100
1000
,
0001
0001
1000
0100
1000
0010
0100
0010
,
1000
0000
0001
0100
1000
0000
0100
0001
,
0010
0000
0000
0001
0000
0000
1000
0000
0000
0100
0000
0000
1100
0000
0000
0000
,
1001
0000
0001
0010
1000
0010
0001
0100
,
0010
0000
0010
1000
0100
1000
0001
0000
,
0101
0000
0001
1000
1010
0000
1000
0001
,
0010
0000
0000
0001
0100
0000
0010
0000
1000
0000
0000
0000
1010
0000
0000
0000
,
0110
0000
0010
0100
0001
0010
1000
0010
,
0001
0000
0100
0001
0010
0001
1000
0000
,
0011
0000
0100
1000
1100
0000
1000
0001
,
1001
0000
0000
1000
0010
0000
0100
0000
0001
0000
0000
0000
0101
0000
0000
0000
,
0011
0000
0000
0001
0100
0000
0001
0000
0010
0001
0000
0000
0100
0000
0001
0000
,
1000
0000
0000
0010
1000
0000
0100
0000
1000
0010
0000
0000
1000
0000
0100
0000
,
2000
0000
0000
0000
,
0000
0000
0000
3000
,
0100
0100
0010
0010
0001
1000
0001
0100
,
0010
1000
0100
1000
0001
0100
0001
0010
,
0100
0100
0010
0010
0001
1000
0100
1000
,
1010
0000
0000
0000
1001
0000
0000
0000
0101
0000
0000
0001
0000
1000
0000
0010
,
0100
0010
1000
1000
0100
0100
0010
0001
,
1000
0000
0001
0100
0001
0010
0100
0010
,
0001
0000
0100
0010
1000
0010
1000
0100
,
1000
0000
0000
0010
0000
0000
0100
0000
0000
0001
0000
0000
0101
0000
0000
0000
,
0110
0000
0010
1000
0100
1000
0001
0100
,
0010
0000
1000
0100
0001
0100
1000
0000
,
1010
0000
1000
0001
0101
0000
0100
0010
,
0100
0000
0000
0010
1000
0000
0010
0000
1000
0000
0000
0000
1010
0000
0000
0000
,
0110
0000
0010
0100
0001
0010
1000
0010
,
0001
0000
0100
0001
0010
0001
1000
0000
,
0011
0000
0100
1000
1100
0000
1000
0001
,
1001
0000
0000
1000
0010
0000
0100
0000
0001
0000
0000
0000
1001
0000
0000
0000
,
1010
0000
0000
0010
0100
0000
0001
0000
0100
0010
0000
0000
0100
0000
0001
0000
,
1000
0000
0000
0100
0010
0000
0100
0000
0010
0001
0000
0000
0100
0000
0010
0000
,
0200
0000
0000
0000
,
0300
0000
0000
0110
,
2002
0000
3003
0000
;

//---------------dance-single - aurae----------------
#NOTES:
     dance-single:
     aurae:
     Medium:
     5:
     0.336,0.369,0.113,0.017,0.039: // measure 1
0000
0000
0000
0000
,  // measure 2
0000
0000
0000
0000
,  // measure 3
0000
0000
0000
0000
,  // measure 4
0000
0000
0000
0000
,  // measure 5
0001
1000
0100
1000
,  // measure 6
0001
0000
0010
0000
0001
0000
0100
0001
,  // measure 7
0100
0000
0001
0000
1000
0000
0100
1000
,  // measure 8
0100
0000
1000
0100
1000
0000
0000
0000
,  // measure 9
0010
0000
0100
0000
0010
0000
1000
0001
,  // measure 10
0100
0000
0001
0000
0100
0000
0001
1000
,  // measure 11
0100
0000
0010
0001
0100
0000
0010
1000
,  // measure 12
0100
0000
0010
0001
1000
0001
1000
0000
,  // measure 13
0001
0000
0010
0001
0100
0000
0100
0000
,  // measure 14
0010
0000
1000
0100
1000
0000
1000
0000
,  // measure 15
0001
0100
0001
0000
1000
0100
1000
0000
,  // measure 16
0001
0000
0100
0001
0100
0000
0001
0000
,  // measure 17
0010
0001
0010
0001
0010
0000
0001
0000
,  // measure 18
1000
0001
1000
0000
0001
0000
0100
0000
,  // measure 19
0010
1000
0100
0010
,  // measure 20
0001
0000
1000
0000
0100
0000
1000
0001
,  // measure 21
1000
0001
1000
0000
0100
0010
0100
0000
,  // measure 22
0010
0001
1000
0001
,  // measure 23
0100
0010
1000
1001
,  // measure 24
1001
0000
0000
0010
,  // measure 25
1000
0000
0100
1000
0001
0000
0100
0000
,  // measure 26
0001
0000
0100
0001
0100
0000
0001
0000
,  // measure 27
1000
0000
0010
1000
0010
0000
0010
1000
,  // measure 28
0001
0000
0001
0100
0001
0000
0101
0000
,  // measure 29
0101
0000
0100
0010
0100
0000
0010
0000
,  // measure 30
1000
0000
0100
1000
0010
0000
0100
0000
,  // measure 31
0001
0000
1000
0010
1000
0000
0010
1000
,  // measure 32
0010
0000
0100
0000
0010
0000
1000
0001
,  // measure 33
1000
0000
0000
1000
0000
0000
0001
0000
0000
0001
0000
0000
1000
0000
0000
0000
,  // measure 34
0100
0000
0000
0100
0000
0000
0010
0000
0000
0010
0000
0000
0100
0000
0000
0000
,  // measure 35
0010
0000
0000
0000
,  // measure 36
0000
0000
0000
0000
,  // measure 37
0010
0001
0010
0001
0010
0000
0001
1000
,  // measure 38
0100
0000
0100
1000
0010
1000
0010
0000
,  // measure 39
0100
0010
0100
0000
0010
1000
0010
0000
,  // measure 40
1010
0000
0000
0000
1010
0000
0000
0000
1001
0000
0000
1001
0000
0000
0000
0000
,  // measure 41
0000
0000
0101
0000
0001
0100
0001
0100
,  // measure 42
0010
0000
1000
0100
1000
0000
0001
1000
,  // measure 43
0100
0000
0010
0001
1000
0000
0100
1000
,  // measure 44
0010
0000
0100
0001
0010
0001
0010
0000
,  // measure 45
0011
0000
0001
1000
0100
1000
0001
0000
,  // measure 46
0100
0000
0010
1000
0100
1000
0010
0000
,  // measure 47
0100
0000
0001
1000
0100
0000
1000
0001
,  // measure 48
0010
0001
0010
0001
0100
0000
0101
0000
,  // measure 49
1001
0000
1000
0100
1000
0000
0010
0000
,  // measure 50
0100
0000
0010
1000
0100
0000
1000
0000
,  // measure 51
0001
0000
0010
0001
0100
0000
0100
0001
,  // measure 52
1000
0000
0001
1000
0001
1000
0100
0000
,  // measure 53
1000
0000
0000
1000
0000
0000
0010
0000
0000
0010
0000
0000
0100
0000
0000
0000
,  // measure 54
0001
0000
0000
0001
0000
0000
1000
0000
0000
1000
0000
0000
0010
0000
0000
0000
,  // measure 55
0100
0000
0000
0000
,  // measure 56
0000
0000
0000
0010
,  // measure 57
2002
0000
3003
0000
;

//---------------dance-single - aurae----------------
#NOTES:
     dance-single:
     aurae:
     Easy:
     2:
     0.172,0.195,0.087,0.035,0.000: // measure 1
0000
0000
0000
0000
,  // measure 2
0000
0000
0000
0000
,  // measure 3
0000
0000
0000
0000
,  // measure 4
0000
0000
0000
0000
,  // measure 5
0010
0010
0010
0000
,  // measure 6
0010
0010
0010
0000
,  // measure 7
1000
0000
0001
0001
,  // measure 8
0001
0000
1000
0000
,  // measure 9
0100
0100
0100
0000
,  // measure 10
0010
0010
0010
0000
,  // measure 11
0001
0000
0001
0000
,  // measure 12
1000
1000
1000
0000
,  // measure 13
0001
0001
0001
0000
,  // measure 14
0100
0100
0100
0000
,  // measure 15
0010
0000
0010
0000
,  // measure 16
1000
0000
1000
1000
,  // measure 17
0000
1000
0000
0001
,  // measure 18
0000
0100
0000
0100
,  // measure 19
0001
0001
1000
1000
,  // measure 20
0001
0000
1000
0000
,  // measure 21
0000
0000
0001
0001
,  // measure 22
0001
0000
1000
1000
,  // measure 23
1000
0000
0010
0000
,  // measure 24
1001
0000
0000
0000
,  // measure 25
1001
0000
0001
0001
,  // measure 26
0001
0000
1000
1000
,  // measure 27
1000
0000
0010
0000
,  // measure 28
0100
0000
0001
0000
,  // measure 29
1001
0000
1000
1000
,  // measure 30
1000
0000
0001
0001
,  // measure 31
0001
0000
0010
0000
,  // measure 32
0100
0000
0000
0100
,  // measure 33
0100
0000
0100
0000
,  // measure 34
0100
0000
0100
0000
,  // measure 35
2002
0000
0000
0000
,  // measure 36
0000
0000
0000
3003
,  // measure 37
0001
0000
0001
0000
,  // measure 38
1000
1000
1000
1000
,  // measure 39
0100
0000
0100
0000
,  // measure 40
0010
0010
0010
0000
,  // measure 41
0000
0011
0000
0001
,  // measure 42
0000
0001
0000
1000
,  // measure 43
0000
0010
0010
0010
,  // measure 44
0010
0000
0000
0000
,  // measure 45
0110
0000
0010
0010
,  // measure 46
0010
0000
0100
0100
,  // measure 47
0100
0000
0001
0000
,  // measure 48
1000
0000
0100
0000
,  // measure 49
0110
0000
0001
0001
,  // measure 50
0001
0000
1000
1000
,  // measure 51
1000
0000
0100
0000
,  // measure 52
0010
0000
0001
0010
,  // measure 53
0001
0000
0001
0000
,  // measure 54
1000
0000
1000
0001
,  // measure 55
2002
0000
0000
0000
,  // measure 56
0000
3003
0000
0110
,  // measure 57
1001
0000
0000
0000
;
