#TITLE:PRETENTIOUS FRIENDS;
#SUBTITLE:;
#ARTIST:modeselektor;
#TITLETRANSLIT:;
#SUBTITLETRANSLIT:;
#ARTISTTRANSLIT:;
#CREDIT:aurae;
#BANNER:pretentious.png;
#BACKGROUND:pretentious-bg.png;
#LYRICSPATH:;
#CDTITLE:!auraesimfilesmix.png;
#MUSIC:pretentious.mp3;
#OFFSET:0.023;
#SAMPLESTART:28.540;
#SAMPLELENGTH:19.020;
#SELECTABLE:YES;
#DISPLAYBPM:101.000;
#BPMS:0.000=100.800,80.000=99.000,81.000=100.800;
#STOPS:;
#BGCHANGES:;

//---------------dance-single - aurae----------------
#NOTES:
     dance-single:
     aurae:
     Hard:
     9:
     0.478,0.471,0.273,0.026,0.222:
0000
0000
0000
0000
,
0000
0000
0000
0000
,
0000
0000
0000
0000
,
0000
0000
0000
0000
0000
0000
0000
0000
0000
0001
0010
0001
0100
0001
0000
0000
,
0101
0000
1001
1000
0010
0100
0010
1000
,
0100
0000
1000
0000
0001
0000
0001
0000
0100
0000
0010
0000
1000
0100
0000
0100
,
1000
0000
0000
0000
1000
0000
0100
0000
1000
0001
1000
0000
0001
0000
0010
0000
,
0010
0000
0001
0000
0100
0000
0010
0000
1000
0000
0100
0000
0001
0100
0000
1000
,
0010
0000
0000
0000
1010
0000
0010
0000
0100
0000
0001
0000
0100
0001
0000
0000
,
0010
0000
0001
0100
0001
0000
1000
0000
0100
1000
0100
0000
1000
0000
0010
0000
,
0100
0000
0001
0000
0100
0000
0001
0000
1000
0100
1000
0000
0010
1000
0000
0001
,
0100
0001
1000
0100
1000
0010
0100
0010
,
1001
0000
0100
0010
1000
0100
1000
1000
,
0001
0000
0010
0000
0001
0000
0100
0001
0010
0000
0100
0000
1000
0001
0100
0000
,
0001
0000
0000
0000
1000
0000
0100
0000
1000
0010
1000
0000
0010
0000
0100
0000
,
0001
0010
0010
0001
0100
0010
1000
0100
,
1100
0000
0000
0000
1001
0000
0001
0010
0001
0000
0100
0000
0010
0000
1000
0000
,
0100
0000
0100
0000
1000
0000
0001
0000
0010
0001
0100
0000
0010
0000
1000
0000
,
1010
0000
0000
0000
1001
0000
1000
0000
0010
0100
0010
0000
1000
0000
0100
0000
,
0010
0000
0001
0000
0100
0001
0000
1000
0100
0000
1000
0000
0001
0100
0000
0010
,
0100
0000
0000
0000
0001
0000
0000
0000
1000
0000
0100
0000
0000
1000
0000
0000
,
0001
0000
0000
0000
0100
0000
0000
0000
0001
0000
1000
0010
1000
0000
0000
0000
,
0010
0110
0100
0101
,
1001
0000
0000
0000
1100
0000
0000
0000
1001
0000
0000
0010
0001
0010
0000
0000
,
1100
0000
0000
1000
0100
0000
1000
0001
0100
0000
0010
0000
0010
0000
1000
0000
,
0001
0000
0100
0100
0001
0010
0001
1000
,
0010
0100
0110
0101
0001
1000
1010
1001
,
0001
0000
0101
0000
0110
0000
0010
0000
1000
0000
0001
0000
0000
1000
0000
0000
,
0001
0000
0000
0000
0101
0000
0001
0100
0010
0000
1000
0000
0100
0000
1000
0000
,
0001
0000
0010
0001
0100
0010
0010
1000
,
0100
1000
0100
0000
1000
0000
0001
0000
0100
0000
0001
0000
0100
0001
0000
0001
,
1000
0010
0100
0010
1000
1000
0100
0010
,
0002
0000
1003
0001
0100
0001
1100
0000
,
0001
0100
0010
0100
0001
1000
0100
0000
,
1000
0010
0100
0010
1000
0100
0010
0001
,
0100
0010
1000
0001
1100
0001
1010
0000
,
1001
0010
0001
0100
0010
0100
0100
0001
,
1000
0100
1000
0010
0100
0010
0010
1000
,
0001
0100
0001
0000
1000
0000
0010
0000
1000
0000
0001
1000
0010
0000
1000
0000
,
0100
0000
0010
0001
0100
0000
0010
0000
1000
0000
0000
0000
1001
0000
0000
0000
,
0002
0000
0000
0000
0103
0001
0100
0001
0100
0001
0100
0001
0100
0000
0010
0000
,
1000
0100
1000
0000
0101
0000
0000
0001
1000
0000
0010
0000
0010
0000
0100
0000
,
0001
0000
1000
0000
1000
0000
0000
0000
0100
0000
1000
0000
0000
0010
0000
0000
,
0100
0010
1000
0001
0100
0001
0101
0000
,
2000
0000
0000
0000
3010
1000
0010
1000
0010
1000
0010
1000
0010
0000
0100
0000
,
0001
1000
0001
0000
0100
0000
0001
0000
0001
0000
0010
0000
0001
0000
1000
0100
,
1000
0000
0010
0000
0010
0000
1000
0100
1000
0000
0001
0000
0001
0000
0100
0000
,
0001
0000
1100
0000
1001
0001
0101
0100
,
1001
0000
0000
0000
;

//---------------dance-single - aurae----------------
#NOTES:
     dance-single:
     aurae:
     Medium:
     6:
     0.373,0.348,0.111,0.000,0.000: // measure 1
0000
0000
0000
0000
,  // measure 2
0000
0000
0000
0000
,  // measure 3
0000
0000
0000
0000
,  // measure 4
0000
0000
0000
0000
,  // measure 5
0001
0100
0100
0010
1000
0000
0100
1000
,  // measure 6
0001
0001
0100
0010
0010
1000
0100
1000
,  // measure 7
0001
0000
0100
0000
0001
0010
0001
1000
,  // measure 8
0100
0100
1000
0010
0010
0000
0100
0010
,  // measure 9
1000
0000
1100
1000
0001
0100
0100
0000
,  // measure 10
0001
0100
0010
1000
0100
0010
0001
0100
,  // measure 11
0010
0000
1100
0001
0001
1000
0100
1000
,  // measure 12
0010
0000
0010
0100
0010
0100
0001
0100
,  // measure 13
0010
0000
1000
0001
0001
0010
0010
0001
,  // measure 14
0100
0000
0001
1000
0100
1000
0010
0010
,  // measure 15
0100
0001
1000
0000
0100
1000
1000
0001
,  // measure 16
0010
0000
0010
0001
0100
0100
0001
1000
,  // measure 17
0100
0000
1100
1000
0001
0010
0001
0100
,  // measure 18
0010
0010
1000
0001
0100
0010
0100
0001
,  // measure 19
0010
0000
0001
0100
0001
1000
0100
1000
,  // measure 20
0001
0010
0010
0001
0100
0010
0100
0100
,  // measure 21
0001
0000
1100
0000
0001
0010
0001
0000
,  // measure 22
0100
0000
1010
0000
1000
0100
1000
0000
,  // measure 23
0001
0000
0101
0000
1000
0010
1000
0000
,  // measure 24
0100
0000
0011
0000
0001
0010
0001
1000
,  // measure 25
0001
0000
0100
0001
1000
1000
0100
1000
,  // measure 26
0010
0100
0001
0000
1000
0100
1000
0001
,  // measure 27
0010
0001
0100
0001
0010
0001
0100
0001
,  // measure 28
1000
0010
1000
0100
1000
0010
1000
0100
,  // measure 29
0010
0000
0011
0000
0001
0100
0010
1000
,  // measure 30
0100
0000
1000
0001
0100
0001
1000
0000
,  // measure 31
0010
0100
0100
0001
0010
0001
1000
0000
,  // measure 32
1000
0001
0001
0100
0010
0010
1000
0001
,  // measure 33
0100
0000
0001
1000
0100
1000
0010
0000
,  // measure 34
0100
0001
0010
0001
0100
0000
0001
1000
,  // measure 35
0100
0000
1000
0010
0100
0010
1000
0000
,  // measure 36
0001
0100
0100
0001
1000
0010
1000
0010
,  // measure 37
1000
0000
0100
0000
0010
0001
0100
0000
,  // measure 38
0001
1000
0100
1000
0010
0000
0100
0001
,  // measure 39
0010
0000
0001
1000
1000
0001
0100
0001
,  // measure 40
0010
0000
0100
1000
0001
0000
1001
0000
,  // measure 41
0101
0000
0001
1000
0001
1000
0001
1000
,  // measure 42
0100
1000
1000
0000
0010
1000
0100
1000
,  // measure 43
0001
0000
0100
0001
1000
0000
0010
1000
,  // measure 44
0100
0000
0010
0000
0001
0100
0001
0000
,  // measure 45
1001
0000
1000
0001
1000
0001
1000
0001
,  // measure 46
0010
0100
1000
0000
0010
1000
0100
1000
,  // measure 47
0001
0000
0010
0001
1000
0000
0100
1000
,  // measure 48
0001
0100
0001
1100
,  // measure 49
0101
0000
0000
0000
;

//---------------dance-single - aurae----------------
#NOTES:
     dance-single:
     aurae:
     Easy:
     3:
     0.188,0.205,0.085,0.000,0.000: // measure 1
0000
0000
0000
0000
,  // measure 2
0000
0000
0000
0000
,  // measure 3
0000
0000
0000
0000
,  // measure 4
0000
0000
0000
0000
,  // measure 5
0010
0001
0001
0010
,  // measure 6
0001
1000
1000
0100
,  // measure 7
1000
0001
1000
1000
,  // measure 8
0010
0100
0010
1000
,  // measure 9
0001
0100
0100
0001
,  // measure 10
1000
1000
0010
1000
,  // measure 11
0100
1000
0001
0001
,  // measure 12
0100
0001
1001
0000
,  // measure 13
0001
0000
0001
0010
,  // measure 14
0010
0001
1000
0100
,  // measure 15
1000
0000
0010
0100
,  // measure 16
0010
1000
0100
0100
,  // measure 17
1001
0000
0001
0100
,  // measure 18
0100
0010
1000
0100
,  // measure 19
1001
0000
0001
0010
,  // measure 20
0001
1000
1000
0100
,  // measure 21
1000
0000
1000
0000
,  // measure 22
1000
0000
1000
0001
,  // measure 23
0010
0000
0010
0000
,  // measure 24
0001
0001
0001
0001
,  // measure 25
1100
0000
1000
0100
,  // measure 26
0010
0001
0100
0010
,  // measure 27
1000
0001
1000
0001
,  // measure 28
1000
0001
1000
0000
,  // measure 29
0001
0100
0100
0010
,  // measure 30
1000
0100
0010
0001
,  // measure 31
0100
0001
0000
0001
,  // measure 32
1000
0010
0010
0010
,  // measure 33
0110
0000
0010
0000
,  // measure 34
1000
0000
0001
0000
,  // measure 35
0100
0001
0000
1000
,  // measure 36
0001
1000
0000
0001
,  // measure 37
0010
0000
0010
0001
,  // measure 38
0100
0000
0010
1000
,  // measure 39
0100
0000
1000
0001
,  // measure 40
0100
0000
0100
0100
,  // measure 41
0100
0001
0100
0001
,  // measure 42
0100
0001
0000
1000
,  // measure 43
0010
0000
0010
0000
,  // measure 44
1010
0000
1001
0000
,  // measure 45
0100
0000
1000
1000
,  // measure 46
0001
1000
0001
0000
,  // measure 47
0100
0000
0001
0000
,  // measure 48
0101
0000
1001
1001
,  // measure 49
0100
0000
0000
0000
;
