#TITLE:ONE CLICK HEADSHOT;
#SUBTITLE:;
#ARTIST:FEED ME;
#TITLETRANSLIT:;
#SUBTITLETRANSLIT:;
#ARTISTTRANSLIT:;
#CREDIT:aurae;
#BANNER:headshot.png;
#BACKGROUND:headshot-bg.png;
#LYRICSPATH:;
#CDTITLE:!auraelogo_new.png;
#MUSIC:headshot.mp3;
#OFFSET:-0.331;
#SAMPLESTART:52.660;
#SAMPLELENGTH:17.400;
#SELECTABLE:YES;
#DISPLAYBPM:110.000;
#BPMS:0.000=110.000,67.000=220.000,68.000=110.000,102.000=220.000,102.500=110.000,106.500=240.000,108.000=110.000,110.000=220.000,110.500=110.000,118.000=220.000,118.500=110.000,131.000=660.004,132.000=109.980,200.000=100.000;
#STOPS:67.000=0.280
,102.000=0.140
,106.500=0.140
,107.000=0.140
,107.500=0.140
,110.000=0.140
,118.000=0.140
,131.000=0.080
,131.083=0.040
,131.167=0.080
,131.250=0.040
,131.333=0.060
,131.417=0.040
,131.500=0.060
,131.583=0.040
,131.667=0.020
,200.000=0.040
,200.063=0.020
,200.125=0.020
,200.188=0.040
,200.250=0.020
,200.313=0.060
,200.375=0.020
,200.438=0.040
,200.500=0.020
,200.563=0.040
,200.625=0.020
,200.688=0.040
,200.750=0.020
,200.875=0.020
,201.000=0.040
;
#BGCHANGES:;

//---------------dance-single - aurae----------------
#NOTES:
     dance-single:
     aurae:
     Challenge:
     11:
     0.774,0.907,0.307,0.740,0.776: // measure 1
0000
0000
0000
0000
,  // measure 2
0000
0000
0000
0000
,  // measure 3
0000
0000
0000
0000
,  // measure 4
0000
0000
0000
0000
,  // measure 5
0000
0000
0000
0000
0000
0000
0000
0000
1001
0000
0000
0001
1000
0001
0100
0000
,  // measure 6
0001
1000
0100
1000
0010
0000
0100
0001
,  // measure 7
0010
0001
0001
0000
0001
1000
0010
1001
,  // measure 8
0100
0000
0101
0000
0001
0100
0010
1000
,  // measure 9
0100
0000
0100
0000
1000
0000
0001
0000
1000
0100
1000
0000
0100
0000
1001
0000
,  // measure 10
0020
0001
1000
0031
,  // measure 11
0002
0000
0000
0000
1000
0000
0000
0000
0100
0000
0000
0000
1003
0000
0001
1000
,  // measure 12
0002
0000
0100
0000
0010
0000
1003
0001
,  // measure 13
0200
0000
0000
0000
0001
0000
0000
0000
0010
0000
0000
0000
0301
0000
0100
0001
,  // measure 14
2000
0000
0010
0000
0100
0000
3010
1000
,  // measure 15
0001
0001
1000
0001
0100
0010
0010
1000
,  // measure 16
0100
1000
1000
0001
1000
0001
1000
0001
,  // measure 17
0100
0000
0000
0000
0001
0000
0000
0000
1000
0000
0000
0000
0001
0000
0000
0000
0010
0000
0000
0000
0100
0000
0000
0000
1000
0000
0000
0000
0010
0000
0000
0000
1000
0000
0000
0000
0001
0000
0000
0000
0100
0000
0000
0000
0001
0000
0000
0000
0020
0030
0000
0000
0000
0000
0000
0000
0000
0000
0000
0000
0000
0000
0000
0000
,  // measure 18
2002
0000
3003
0000
0001
0010
0100
0010
0001
0010
0100
0010
0100
0010
0100
0010
,  // measure 19
0002
0000
2003
0000
3100
1000
0020
0030
1010
0000
0010
0100
0001
0000
0110
0000
,  // measure 20
2002
0000
3003
0000
0001
0100
1000
0100
0010
0100
1000
0100
1000
0100
0010
0100
,  // measure 21
0002
0000
2003
3000
1001
0000
0220
0330
0002
0000
1003
0001
0100
0002
2003
0000
,  // measure 22
3002
0000
0000
0000
1003
0001
0010
0001
0100
0001
1000
0001
1000
0001
0010
0001
,  // measure 23
0200
0000
0010
0000
0301
0100
0020
0030
2000
0000
3001
0100
0001
0000
2002
3003
,  // measure 24
0202
0000
0000
0303
0001
1000
0100
1000
0010
1000
0001
1000
0001
1000
0100
1000
,  // measure 25
0010
0100
0001
0100
0010
1000
0000
0001
0000
0001
1000
0200
2000
0000
3300
0000
,  // measure 26
0022
0000
0000
0033
0001
0010
0010
0010
0001
0000
0101
0000
0010
1000
0100
1000
,  // measure 27
0100
1000
0010
1000
0001
1000
0100
1000
0010
0100
0220
0330
0202
0303
2002
3003
,  // measure 28
0220
0000
0000
0330
0001
0010
0010
0010
0100
0000
2002
3003
0010
1000
0100
1000
,  // measure 29
0001
0100
0010
0100
0001
1000
0010
1000
0010
0010
1000
0001
0000
1000
0001
1000
,  // measure 30
0200
0000
0000
0300
1000
0100
0100
0100
0010
0000
0011
0000
0001
1000
0100
1000
,  // measure 31
0010
1000
0001
1000
0100
1000
0010
1000
0002
0003
0022
0033
2001
0000
3010
0000
,  // measure 32
2020
0000
0000
3030
1000
0010
0010
0010
1000
0000
1001
0000
1000
0001
0100
0000
,  // measure 33
0001
0010
0001
0100
0010
1000
0100
1000
0001
0100
0010
1000
0001
0000
0000
0000
,  // measure 34
2002
0000
0000
3003
1000
0100
0010
0001
0100
0010
1000
0100
0010
0001
0010
0100
,  // measure 35
2000
0000
0000
3000
1000
0001
0200
0000
0301
0000
0010
0001
0100
0001
2000
0000
,  // measure 36
3002
0000
0000
0003
0001
1000
0010
0100
0001
0100
0010
1000
0100
0010
0001
0100
,  // measure 37
0010
0000
0101
0000
0010
1000
0100
0000
1100
0000
1000
0001
0100
0001
0020
0000
,  // measure 38
0032
0000
0000
0000
0000
0000
0003
0000
1000
0000
0010
0000
0100
0000
0001
0000
1000
0001
1000
0000
0100
0000
0010
0000
0001
0000
0100
0000
0001
0000
1000
0000
,  // measure 39
0200
0000
0000
0000
1300
0010
0200
0300
0010
0000
0100
0010
0001
0010
0100
0020
,  // measure 40
2000
0000
0000
0000
0000
0000
3030
0000
0010
0000
1000
0000
0001
0000
0100
0000
0001
0100
0001
0100
0001
0000
0010
0000
0001
0000
0100
0000
0010
0000
0100
0000
,  // measure 41
0002
0000
1003
0000
0010
1000
0002
0003
1000
0000
0001
1000
0100
0000
0010
0001
,  // measure 42
2000
0000
0000
0000
0000
0000
0000
0000
0000
3000
0000
0000
0101
0000
0000
0001
0000
0000
0100
0000
0000
0001
0000
0000
0020
0000
0000
0000
0000
0000
0130
0000
0000
0000
0000
0000
0010
0000
0000
0000
0001
0000
0000
0000
1000
0000
0000
0000
,  // measure 43
0100
0000
0000
1000
0000
0000
0010
0000
0000
0100
0000
0000
0001
0000
0100
0000
0001
0000
0010
0000
0001
0000
0100
0000
0020
0000
0000
0000
0000
0000
2030
0000
0000
0000
0000
0000
3100
0000
0000
0000
0000
0000
1001
0000
0000
0000
0000
0000
,  // measure 44
0220
0000
0000
0330
0101
0001
0010
0001
2000
0000
3010
0000
0100
0001
1000
0100
,  // measure 45
0010
0001
0100
0010
1000
0001
0010
0100
1000
0100
1000
0100
0000
0010
0001
0100
,  // measure 46
0020
0000
0000
0030
0100
0001
0001
0001
1000
0000
0100
0000
0010
0100
1000
0001
,  // measure 47
0100
0000
0010
0000
0100
0010
0100
0000
0001
0000
1000
0000
0001
1000
0001
1000
0001
0000
0000
0000
0001
0000
0200
0000
0310
0000
0000
0000
0202
0000
0303
0000
,  // measure 48
2002
0000
0000
3003
0001
0100
0100
0100
2000
3000
0220
0330
0001
0010
0001
0010
,  // measure 49
0100
1000
0010
0100
0001
0100
0001
0100
0010
1000
0100
0010
0001
0100
0001
1000
,  // measure 50
0020
0000
0000
0000
0000
0000
1030
0200
0002
0000
0000
0000
0000
0000
0000
0000
,  // measure 51
0000
0000
0000
0000
0000
0000
0000
0000
0000
0000
0000
0000
0000
0000
0000
0000
0000
0303
0000
0000
0000
0000
0000
0000
0000
0000
0000
0000
0000
0000
0000
0000
0000
0000
0000
0000
0000
0000
0000
0000
0000
0000
0000
0000
0000
0000
0000
0000
0000
0000
0000
0000
0000
0000
0000
0000
0000
0000
0000
0000
0000
0000
0000
0000
;

//---------------dance-single - aurae----------------
#NOTES:
     dance-single:
     aurae:
     Hard:
     8:
     0.447,0.544,0.271,0.126,0.185:
0000
0000
0000
0000
,
0000
0000
0000
0000
,
0000
0000
0000
0000
,
0000
0000
0000
0000
,
0000
0000
0000
0000
0000
0000
0000
0000
0110
0000
0000
0000
0001
1000
0001
0000
,
0010
0000
1100
0100
0010
0000
0001
1000
,
0000
1000
0100
1000
1000
0001
1001
0000
,
1000
0000
0101
0001
1000
0000
0010
1000
,
0100
0010
0001
0000
0001
0100
0101
0000
,
1002
0000
0000
0003
,
2001
0000
0000
3000
,
1020
0000
0000
0030
,
0201
0000
0000
0300
,
0102
0100
0100
1003
,
2001
0001
0001
3100
,
1200
1000
1000
0310
,
0001
0010
0001
0010
0001
0010
0001
0000
,
1000
0000
0100
1000
0001
0010
1000
0001
,
0100
0000
0010
0001
0000
1001
0000
0101
,
1000
0000
0010
1000
0001
0100
1000
0001
,
0010
0000
0010
0000
1000
0000
1000
0000
0100
0000
1000
0001
1000
0000
0001
0000
,
1001
0000
0010
0001
1000
0010
0001
0010
,
0100
0010
0000
1010
0000
1001
0000
0011
,
0100
0000
1000
0001
0010
0001
1000
0010
,
0200
0302
2003
3001
,
0110
0000
0000
0000
0010
0100
0010
0000
0100
0000
0000
0000
0001
0100
0001
0000
,
0100
0001
1000
0000
1000
0001
0100
0001
,
0010
0000
0000
0000
0010
0001
0010
0000
0100
0000
0000
0000
1000
0100
1000
0000
,
0001
0100
0010
1000
0010
0000
0000
0000
,
0101
0000
0000
0000
1000
0010
1000
0000
0100
0000
0000
0000
0010
0001
0010
0000
,
0001
1000
0100
0010
0001
0100
0010
0010
,
1000
0000
0000
0000
0001
1000
0001
0000
0100
0000
0000
0000
0001
0100
0001
0000
,
0010
0000
0001
0000
1000
0000
0010
1000
0001
0000
0100
0000
0001
0000
0000
0000
,
1001
0000
0000
0000
0001
1000
0001
1000
0001
0000
0000
0000
0100
0000
0010
0000
,
1000
0000
0100
1000
0001
0010
0010
0001
,
0100
0000
0000
0000
0001
0100
0001
0100
0001
0000
0000
0000
1000
0000
0001
0000
,
0010
0000
0000
0000
0010
0000
0001
0000
0100
0000
0001
0100
0001
0000
1000
0000
,
0100
0000
0000
0000
1000
0100
1000
0100
1000
0000
0001
0000
0100
0001
0100
0001
,
0200
0000
0301
0010
0001
1000
0100
1000
,
0010
0000
0000
0000
0100
0010
0100
0010
0100
0000
0010
0000
1000
0010
1000
0010
,
1000
0100
0010
0001
0100
0000
0101
0000
,
1001
0000
0000
0000
0000
0000
0000
0000
0000
0000
0000
0000
0001
0000
0000
0010
0000
0000
0001
0000
0000
0010
0000
0000
0001
0000
0000
0000
0000
0000
0100
0000
0000
0000
0000
0000
0010
0000
0000
0000
1000
0000
0000
0000
0010
0000
0000
0000
,
1000
0000
0000
0100
0000
0000
1000
0000
0001
0000
1000
0000
0001
0000
0000
0100
0000
0000
0101
0000
0000
0101
0000
0000
,
1001
0000
0000
0000
0010
0001
0010
0001
0010
0000
0100
0000
1000
0100
1000
0100
,
1000
0000
0010
0000
0100
0001
0100
0001
0100
0000
0000
0000
0000
0000
0000
0000
,
0101
0000
0000
0000
0001
1000
0001
1000
0100
0000
1000
0000
0010
1000
0010
1000
,
0001
0200
0301
0200
0310
0100
0101
0011
,
1001
0000
1000
0010
0100
0010
1000
0100
,
1000
1000
0001
0001
0100
0001
0100
0010
,
0100
0000
0000
0000
0000
0000
0001
0100
0020
0000
0000
0000
0000
0000
0000
0000
,
0000
0030
0000
0000
;

//---------------dance-single - aurae----------------
#NOTES:
     dance-single:
     aurae:
     Medium:
     5:
     0.302,0.340,0.235,0.244,0.000:
0000
0000
0000
0000
,
0000
0000
0000
0000
,
0000
0000
0000
0000
,
0000
0000
0000
0000
,
0000
0000
0000
0000
,
1000
0010
0010
0100
,
0001
0001
1000
0000
,
0001
0010
0010
0001
,
0100
0100
0010
0000
,
2020
0000
3030
0000
,
2002
0000
3003
0000
,
0202
0000
0303
0000
,
2002
0000
3003
0000
,
0220
0000
0330
0000
,
0022
0000
0033
0000
,
2200
0000
3300
0000
,
2002
0000
0000
3003
,
1001
1000
1000
0001
,
1001
0001
1000
0000
,
0101
0001
0001
0100
,
0101
0100
0100
0000
,
0010
1000
1000
0001
,
0100
0100
0002
0003
,
1000
0001
0001
0010
,
0002
0203
2300
3020
,
1030
0000
1000
0010
1000
0000
0010
1000
,
0010
0101
0001
1000
,
0001
0000
0100
0001
0100
0000
0001
0100
,
0001
0000
1000
0000
0010
1000
0010
1000
,
0010
0000
1000
0001
1000
0000
0001
1000
,
0001
0100
0101
1001
,
0110
0000
0010
0100
0010
0000
0100
0010
,
0100
0010
0100
0010
0100
0010
0100
0000
,
1001
0002
1000
0100
,
0013
0000
0010
0100
1000
0000
0001
1000
,
0010
2000
0001
0010
,
3100
0000
1000
0001
0010
0010
0001
0100
,
0010
0000
1000
0010
1000
0000
0010
1000
,
0010
0100
0101
1001
,
0110
0000
0010
0100
0010
0000
1000
0010
,
1000
1000
1000
1000
,
0012
0000
0103
0001
0100
0000
0002
0000
,
0103
0000
0001
1000
0001
1000
0001
1000
,
0100
0000
0010
0001
0010
0000
0100
1000
,
0100
0000
1000
0010
0200
0000
0300
0000
,
0100
0000
0101
0001
0100
0000
0101
0001
,
1000
0000
1001
1000
0010
0000
1010
0000
,
1001
0000
0001
0100
0001
0000
0100
0001
,
0100
0010
1000
0001
,
0200
0000
0000
0000
,
0000
0300
0000
0000
;

//---------------dance-single - aurae----------------
#NOTES:
     dance-single:
     aurae:
     Easy:
     2:
     0.201,0.227,0.036,0.117,0.000:
0000
0000
0000
0000
,
0000
0000
0000
0000
,
0000
0000
0000
0000
,
0000
0000
0000
0000
,
0000
0000
0000
0000
,
0001
0001
0001
0000
,
1000
1000
1000
1000
,
0100
0100
0100
0000
,
0010
0010
0010
0010
,
0002
0000
0000
0003
,
0002
0000
0000
0003
,
2000
0000
0000
3000
,
2000
0000
0000
3000
,
0020
0000
0000
0030
,
0200
0000
0000
0300
,
0002
0000
0020
0000
,
0000
0000
0033
0000
,
0001
0001
1000
1000
,
0100
0100
1000
1000
,
0010
0010
1000
1000
,
0001
0001
0100
0000
,
0001
0001
1000
1000
,
0100
0100
0010
0010
,
0001
0001
0100
0100
,
0010
0000
0000
0000
,
0010
1000
0010
0010
,
1000
1000
0001
0001
,
0100
0100
0001
0001
,
0010
0100
1000
0000
,
1000
0001
0001
0100
,
0100
0001
0010
0100
,
1000
0001
0001
1000
,
0100
0000
0000
0100
,
1100
0001
0001
0001
,
1000
0010
0100
0100
,
0011
1000
1000
1000
,
0001
0100
0001
0000
,
0011
1000
1000
1000
,
0100
1000
0010
0000
,
1010
0100
0100
0100
,
0001
0001
1000
1000
,
0020
0030
0100
0100
,
0001
0001
0010
0010
,
0200
0300
1000
1000
,
0001
0100
0001
0000
,
0020
0130
1000
0001
,
0100
0010
1000
0001
,
0200
0301
0001
1000
,
0100
0100
0100
0100
,
2000
0000
0000
0000
,
0000
3000
0000
0000
;
