#TITLE:MY NAME IS SKRILLEX;
#SUBTITLE:(Skrillex remix);
#ARTIST:SKRILLEX;
#TITLETRANSLIT:;
#SUBTITLETRANSLIT:;
#ARTISTTRANSLIT:;
#GENRE:;
#CREDIT:;
#MENUCOLOR:;
#METERTYPE:DDR;
#BANNER:skrillexrmx.png;
#BACKGROUND:skrillexrmx-bg.png;
#LYRICSPATH:;
#CDTITLE:!auraelogo_new.png;
#MUSIC:skrillexrmx.mp3;
#OFFSET:-1.900;
#SAMPLESTART:26.275;
#SAMPLELENGTH:15.020;
#SELECTABLE:YES;
#LISTSORT:;
#DISPLAYBPM:128.000;
#BPMS:0.000=128.000,52.000=64.000,56.000=128.000,166.000=131.480,167.000=128.000;
#STOPS:166.000=0.240
,166.500=0.240
;
#BGCHANGES:;
#ATTACKS:;

//---------------dance-single - aurae----------------
#NOTES:
     dance-single:
     aurae:
     Easy:
     2:
     0.209,0.253,0.081,0.163,0.000:
0000
0000
0000
0000
,
0000
0000
0000
0000
,
0000
0000
0000
0000
,
0010
0000
0000
0000
0000
1000
0000
0000
,
0001
0000
0100
0100
,
0001
0000
0000
0000
0000
1000
0000
0000
,
0100
0000
1000
1000
,
0020
0000
0000
0000
,
2030
0000
3000
0000
,
0002
0000
0000
0000
,
0203
0000
0300
0000
,
0020
0000
0000
0000
,
2030
0000
3000
0000
,
0002
0000
2003
3000
,
1000
1000
1000
0000
,
0001
0100
0100
0001
,
0010
0000
0010
0000
,
0001
0001
0100
0001
,
1000
1000
0001
1000
,
0001
0100
0100
0000
,
0001
0000
0001
0000
,
0010
0001
0100
1000
,
0010
0000
1000
0000
,
0001
0000
0100
0100
,
0001
0000
0001
0000
,
1000
0000
0010
1000
,
0100
0100
1000
1000
,
0001
0001
0100
0000
,
0200
0000
0000
0000
,
0302
0000
0003
0000
,
1001
1001
0000
0000
,
1000
0001
0100
0010
,
0010
0100
0001
1000
,
0002
0003
2000
3000
,
1001
1001
0000
0000
,
0001
0010
0100
1000
,
0100
0010
0001
1000
,
0020
0030
0200
0300
,
0110
0110
0000
0000
,
0010
1000
1000
0001
,
0100
0001
0010
0100
,
0010
0000
0000
0000
2002
3003
1000
0000
,
0000
0000
0000
0001
0000
0000
0100
0000
,
0000
0100
0001
1000
,
0000
0000
0000
0001
0000
0000
0010
0000
,
0010
0001
1000
0001
,
0000
0000
0000
0100
0000
0000
0010
0000
,
0000
0010
0100
0010
,
0000
1000
0000
0001
,
0000
0010
0000
1001
;

//---------------dance-single - aurae----------------
#NOTES:
     dance-single:
     aurae:
     Medium:
     6:
     0.433,0.455,0.224,0.193,0.020:
0000
0000
0000
0000
,
0000
0000
0000
0000
,
0000
0000
0000
0000
,
0001
0001
0000
0000
1000
0010
0010
0000
,
0100
0100
0000
0000
0001
1000
0001
1000
,
0000
1000
0010
0010
1000
0001
0100
0000
,
0001
0001
1000
0000
0001
0000
0200
0000
,
0301
0000
1000
0000
,
0010
0000
0000
0000
0010
1000
0000
0000
,
1010
0000
1001
0000
,
0101
0000
0000
0000
0001
0010
0000
0000
,
0010
0001
0000
0001
0100
0001
0000
0001
,
1000
0001
0000
0001
1000
0010
0000
0000
,
0100
0101
1001
0220
,
0330
0000
0110
0000
0001
0100
0001
0001
,
1000
1000
1000
1000
0010
0100
0002
0000
,
1003
0000
0001
0000
0001
0000
0000
1000
0000
0000
0001
0000
0000
0100
0000
0100
,
0010
0000
0101
0000
1001
0000
1000
0001
,
0100
0100
1001
0000
0001
1000
0000
0010
,
0100
0100
0100
0100
0001
1000
0100
0000
,
1000
0000
1000
0000
0001
0000
0001
0000
0100
0000
0001
0000
0100
0000
0010
1000
,
0020
0000
0000
0030
2000
0000
0000
3000
0002
0000
0000
0003
0010
0000
0000
0000
,
0011
0000
0001
0000
0100
0001
1000
0000
,
1000
0010
0100
0000
0100
0010
1000
1000
,
0001
1000
0100
0000
1000
0010
0100
0000
,
0010
1000
1000
0000
0001
0100
0001
0010
,
0001
0010
0100
0000
0010
0001
1000
0000
,
0100
1000
0100
0000
1000
1000
0001
0200
,
0020
0000
0000
0000
,
0000
0000
0330
0000
,
1001
0000
1001
0000
0001
0010
0010
0100
,
0010
0001
1000
0100
1000
0001
0020
0000
,
1030
1000
1001
0000
0001
0001
0101
0000
,
0200
0000
0302
0000
1003
0001
1000
0010
,
0110
0000
0110
0000
0010
1000
1000
0001
,
0100
0001
0010
0100
1000
0100
2000
0000
,
3001
0001
0011
0000
0010
0100
1100
0000
,
2000
0000
3002
0000
1003
0010
0100
0010
,
1010
0000
1001
0000
0001
0100
0100
0001
,
1000
0100
0010
0001
0010
0001
0100
0000
,
0100
0001
1000
0000
1000
0010
0100
0010
,
2000
0000
3000
0000
1000
0001
1000
1000
,
0001
0000
0001
0100
0100
0000
0001
0001
,
1000
0000
0010
1000
0100
1000
0001
0100
,
0100
0100
0001
1000
1000
0000
0001
0100
,
0010
0000
0010
1000
0100
1000
0001
0001
,
0100
0000
0001
1000
1000
0000
0100
1000
,
0010
1000
0100
0100
1000
0100
2000
0000
,
3000
0002
0003
0200
,
0300
0000
0010
1000
0010
0000
1001
0000
;

//---------------dance-single - aurae----------------
#NOTES:
     dance-single:
     aurae:
     Hard:
     9:
     0.627,0.708,0.518,0.508,0.208:
0000
0000
0000
0000
,
0000
0000
0000
0000
,
0000
0000
0000
0000
,
0001
0010
0010
0000
0001
1000
0010
0000
,
1000
0010
0010
0000
1000
0100
1000
0001
,
0000
0001
0100
0100
0010
1000
1000
0010
,
0100
0000
0100
0000
0001
0000
0000
0000
1000
0000
0000
0000
0001
1000
0001
1000
,
0020
0000
2030
0000
,
3002
0000
0000
0000
0203
0002
0303
0000
,
0020
0000
2030
0000
,
3002
0000
0000
0000
2003
0200
3300
0000
,
2000
0001
3002
0100
,
0203
0000
0010
0000
0320
2000
3030
0000
,
2002
0000
3003
0000
0202
0000
0303
0000
2002
0000
3003
0000
2000
0002
3003
0000
,
0010
0000
0000
0001
0000
0000
1000
0000
0000
0000
0000
0000
0011
0000
0000
0000
0000
0000
0000
0000
0000
0000
0000
0000
0200
0000
0000
0000
0000
0000
0000
0000
0000
0000
0000
0000
0301
0000
0000
0000
0000
0000
0100
0000
0001
0000
0100
0000
,
0001
0000
0000
1000
0000
0000
0001
0000
0000
0100
0000
0000
0010
0000
0000
1000
0010
1000
0010
0000
0000
0100
0000
0000
,
0101
0000
1001
0000
1000
0000
0010
1000
0001
0000
0100
0000
0000
1001
0000
0001
,
1000
0100
0010
0001
1000
0010
0100
0001
0010
0000
0001
0000
1000
0002
0000
0000
,
1003
0001
0100
0000
0020
0000
0000
0000
1030
0000
1010
0000
1000
0000
0110
0000
,
0010
0000
0000
0010
0000
0000
1000
0000
0000
1000
0000
0000
0001
0000
0000
1000
0001
1000
0001
0000
0000
0100
0000
0000
,
0011
0000
1001
0000
1010
0000
0110
0000
1001
0000
0001
0000
0010
0000
0001
1000
,
0010
0000
0000
0010
1000
0000
0000
1000
0001
0000
0000
0001
1000
0001
1000
0010
,
0100
0001
0100
0000
0101
0100
0001
0000
,
1000
0010
0100
0000
0001
1000
1000
0110
,
1000
0110
1000
0000
0010
1000
0001
0000
,
0100
0001
0001
0100
1000
0001
0010
1001
,
0010
1001
0101
0000
0001
1000
1000
0000
,
0100
1000
0010
0000
0010
0100
0010
1001
,
0100
1001
0010
0000
0001
0100
0010
0010
,
2000
0000
0000
0000
3002
0200
0303
0000
,
0101
0000
0000
1000
0000
0000
0101
0000
0000
0000
0000
0000
0001
0000
0000
0001
0000
0000
1000
0000
0000
1000
0010
1000
,
0100
0000
0000
1000
0000
0000
0010
0000
0000
0100
0000
0000
0100
0000
0000
0001
0100
0001
0020
0000
0000
0030
0000
0000
,
1010
1001
0020
0030
0011
1001
0200
0300
,
0002
0000
1000
0000
0103
1000
0010
0000
2000
0000
0001
0000
3020
0000
0030
0000
,
1010
0000
0000
0000
0000
0000
0001
0000
0000
0000
0000
0000
1010
0000
0000
0000
0000
0000
0000
0000
0000
0000
0000
0000
1000
0000
0000
0010
0000
0000
0100
0000
0000
0000
0000
0000
0010
0000
0000
0000
0000
0000
1000
0000
0001
0000
1000
0000
,
0010
0000
0000
0100
0000
0000
0010
0000
0000
1000
0000
0000
0001
0000
0000
0100
0001
1000
0020
0000
0000
0030
0000
0000
,
1010
1001
0202
0303
0011
1001
2200
3300
,
2001
0000
3010
0100
0102
0000
2003
3000
,
0011
0010
1001
0000
1000
0010
1001
0000
,
1000
0000
0000
0001
0000
0000
0001
0000
0000
0100
0000
0000
0100
0000
0000
0010
1000
0001
0020
0000
0000
0030
0000
0000
,
0011
0110
0202
0303
1001
1010
0220
0330
,
2002
0000
0000
3003
1001
0110
0001
0100
,
0100
0010
1000
1000
0010
0100
1000
0100
,
0010
0000
1000
0000
0100
0000
0100
0000
0010
0000
0001
0010
0100
0000
0010
0000
,
0001
0001
0100
0001
1000
0010
0010
1000
,
0010
0000
0010
1000
0100
0000
0010
0000
0001
0000
0000
0000
0100
0000
0001
0000
,
1000
0010
1000
0001
0001
1000
0100
0100
,
1000
0001
0010
0001
0010
0100
1001
0100
,
0010
0000
1000
0010
0100
0100
0010
1000
,
0100
0000
0010
0000
0100
0000
0100
0000
0010
0001
0010
0100
1000
0000
0000
0000
;
