#TITLE:MUST BE THE MOON;
#SUBTITLE:;
#ARTIST:!!!;
#TITLETRANSLIT:;
#SUBTITLETRANSLIT:;
#ARTISTTRANSLIT:CHK CHK CHK;
#CREDIT:;
#BANNER:moon.png;
#BACKGROUND:moon-bg.png;
#LYRICSPATH:moon.lrc;
#CDTITLE:!auraelogo_new.png;
#MUSIC:moon.mp3;
#OFFSET:-0.993;
#SAMPLESTART:39.940;
#SAMPLELENGTH:20.440;
#SELECTABLE:YES;
#BPMS:0.000=120.000,138.000=120.100,142.000=120.000,174.000=120.400,177.000=120.160,178.000=120.340,182.000=120.000;
#STOPS:;
#BGCHANGES:0.000=moon.avi=1.000=1=0=0,
99999=-nosongbg-=1.000=0=0=0 // don't automatically add -songbackground-
;

//---------------dance-single - aurae----------------
#NOTES:
     dance-single:
     aurae:
     Easy:
     3:
     0.195,0.219,0.055,0.164,0.000: // measure 1
0000
0000
0000
0000
,  // measure 2
0000
0000
0000
0000
,  // measure 3
0000
0000
0000
0000
,  // measure 4
0000
0000
0001
0000
,  // measure 5
1000
0001
0001
0000
,  // measure 6
0100
0000
0001
0001
,  // measure 7
0001
0000
1000
0000
,  // measure 8
1000
0001
1000
0000
,  // measure 9
0001
0000
0100
0000
,  // measure 10
0001
0001
0001
0000
,  // measure 11
0100
0100
0100
0000
,  // measure 12
0001
0000
2000
0000
,  // measure 13
0000
3000
0002
0000
,  // measure 14
0000
0003
2000
0000
,  // measure 15
0000
3000
0002
0000
,  // measure 16
0003
0001
0000
0110
,  // measure 17
0000
0100
0000
0110
,  // measure 18
0000
0010
0000
1001
,  // measure 19
0000
1000
0000
1001
,  // measure 20
0002
0003
0001
0001
,  // measure 21
0001
0001
0000
1000
,  // measure 22
1000
0000
0002
0003
,  // measure 23
0200
0300
0002
0003
,  // measure 24
2000
3000
1000
1000
,  // measure 25
1000
1000
0000
0010
,  // measure 26
0010
0010
0020
0030
,  // measure 27
0200
0300
2000
3000
,  // measure 28
0020
0030
1000
1000
,  // measure 29
0001
0001
1000
1000
,  // measure 30
0002
0003
0100
0000
,  // measure 31
0100
0000
0001
0000
,  // measure 32
1000
0000
0001
0001
,  // measure 33
1000
1000
0001
0001
,  // measure 34
2000
3000
0010
0000
,  // measure 35
1000
0000
0020
0000
,  // measure 36
0000
0030
0010
0010
,  // measure 37
0010
0000
0100
0100
,  // measure 38
0100
0000
0010
0010
,  // measure 39
1000
1000
0100
0000
,  // measure 40
0000
0000
1000
1000
,  // measure 41
1000
0000
0001
0001
,  // measure 42
0001
0000
0100
0100
,  // measure 43
0001
0001
1000
0001
,  // measure 44
1000
0001
2000
0000
,  // measure 45
0000
3000
0002
0000
,  // measure 46
0000
0003
0100
0001
,  // measure 47
0001
0000
1000
0000
,  // measure 48
1001
0000
0001
0100
,  // measure 49
0001
0100
0001
0000
,  // measure 50
0000
0000
0010
1000
,  // measure 51
1000
0000
0001
0000
,  // measure 52
0110
0000
1000
0010
,  // measure 53
1000
0010
0100
0000
,  // measure 54
0010
0010
0010
0000
;

//---------------dance-single - aurae----------------
#NOTES:
     dance-single:
     aurae:
     Medium:
     5:
     0.288,0.293,0.046,0.073,0.000: // measure 1
0000
0000
0000
0000
,  // measure 2
0000
0000
0000
0000
,  // measure 3
0000
0000
0000
0000
,  // measure 4
0000
0000
1000
0001
,  // measure 5
0100
0000
0001
0000
1000
0020
0000
0030
,  // measure 6
0000
1000
1000
0000
0001
0100
0000
0001
,  // measure 7
0000
0100
0001
0000
1000
0002
0000
0003
,  // measure 8
1000
1000
1000
0000
0001
0000
0100
0000
,  // measure 9
0010
0000
0100
0000
0001
2000
0000
3000
,  // measure 10
0000
0010
0010
0000
0100
0001
0000
1000
,  // measure 11
0000
0001
1000
0000
0010
0200
0000
0300
,  // measure 12
0000
0100
0010
0000
1000
0000
0001
0000
,  // measure 13
0100
0000
0001
1000
,  // measure 14
0100
0000
1000
0001
,  // measure 15
1000
0000
0001
1000
,  // measure 16
0001
0110
0100
1001
,  // measure 17
0100
0000
0010
1001
,  // measure 18
1000
0001
0000
0000
0010
0000
1001
0000
,  // measure 19
0100
0000
1000
0110
,  // measure 20
0001
2000
0000
3000
1000
0000
0100
0000
,  // measure 21
0010
0000
0001
0000
1000
0001
1000
0000
,  // measure 22
0000
0100
0001
0000
1000
0000
0000
0001
,  // measure 23
0000
0100
0001
0000
,  // measure 24
1000
1000
1000
0000
0001
0000
0010
0000
,  // measure 25
0100
0000
1000
0000
0001
1000
0001
0000
,  // measure 26
0000
0010
1000
0000
0001
0000
0000
1000
,  // measure 27
0000
0100
1000
0000
,  // measure 28
0010
1000
0010
1000
0010
0000
0100
0000
,  // measure 29
0010
1000
0010
0100
,  // measure 30
0010
0000
0100
1000
,  // measure 31
0001
0100
0001
0010
,  // measure 32
0100
0000
0000
0000
1000
0001
1000
0000
,  // measure 33
0001
1000
0001
0000
1000
0000
0100
0000
,  // measure 34
0010
0000
0000
0000
1000
0010
1000
0000
,  // measure 35
0001
0100
0001
0000
0200
0000
0000
0000
,  // measure 36
0000
0000
0000
0300
0000
0100
0000
0001
,  // measure 37
0000
1000
0001
1000
0000
0001
0000
1000
,  // measure 38
0000
0010
1000
0010
0000
0100
0000
0010
,  // measure 39
0000
1000
0010
1000
0100
0000
0000
0000
,  // measure 40
0001
1000
0001
0000
0000
0100
0000
0001
,  // measure 41
0000
1000
0001
1000
0000
0001
0000
0100
,  // measure 42
0000
0010
0100
0010
0000
1000
0000
0010
,  // measure 43
0000
0001
0010
0001
0100
0000
0010
0010
,  // measure 44
0010
0000
0100
0010
0200
0000
0000
0000
,  // measure 45
0000
0300
0020
0000
,  // measure 46
0000
0000
0030
0000
1000
0100
1000
0000
,  // measure 47
0001
0100
0001
0010
,  // measure 48
0000
0010
0100
0000
0001
1000
0000
0001
,  // measure 49
0000
0100
0001
0100
0001
0000
0100
0000
,  // measure 50
0001
1000
1000
0000
0010
1000
0010
0000
,  // measure 51
0100
0010
1000
0100
,  // measure 52
0000
0100
1000
0000
0100
0001
0000
0010
,  // measure 53
0000
0100
0010
1000
0010
0000
0100
0000
,  // measure 54
0001
0000
1000
1000
1000
0000
0000
0000
;

//---------------dance-single - aurae----------------
#NOTES:
     dance-single:
     aurae:
     Hard:
     7:
     0.419,0.415,0.091,0.274,0.009: // measure 1
0000
0000
0000
0000
,  // measure 2
0000
0000
0000
0000
,  // measure 3
0000
0000
0000
0000
,  // measure 4
0000
0000
0000
0000
1000
0100
0000
1000
,  // measure 5
0000
0001
0100
0001
1000
0010
0100
0000
,  // measure 6
0010
1000
0001
0000
0100
0001
0000
1000
,  // measure 7
0000
0001
0100
0001
1000
0100
1000
0000
,  // measure 8
0001
0010
0100
0000
0010
0001
0000
1000
,  // measure 9
0000
0010
1000
0001
1000
0100
0010
0000
,  // measure 10
0001
0010
1000
0000
0010
0001
0000
1000
,  // measure 11
0000
0001
0100
0010
1000
0010
0100
0000
,  // measure 12
0010
0000
0100
0000
1000
0010
1000
0000
,  // measure 13
1000
0010
0100
0000
0001
0100
0001
0000
,  // measure 14
0100
0001
0010
0000
0001
1000
0100
0001
,  // measure 15
1000
0010
0001
0000
1000
0010
0100
0000
,  // measure 16
0001
0000
0110
0000
1000
1000
1000
0000
,  // measure 17
0001
0010
0001
0000
1000
0010
0100
0000
,  // measure 18
0010
0000
0000
0000
0100
0100
0100
0000
,  // measure 19
0001
1000
0100
0000
1000
0100
0010
0000
,  // measure 20
0100
0020
0200
0330
1001
0000
0101
0000
,  // measure 21
0110
0000
1010
0000
0001
0100
0001
1000
,  // measure 22
0100
1000
0010
0000
0100
0010
1000
0200
,  // measure 23
0000
0300
0100
0000
1000
0000
0010
0000
2000
0000
0000
0000
3001
0000
0000
0000
,  // measure 24
0100
0001
0010
0000
0011
0000
0110
0000
,  // measure 25
1100
0000
1001
0000
1000
0001
0100
0010
,  // measure 26
1000
0100
0010
0000
0001
1000
0100
0020
,  // measure 27
0000
0030
0010
0000
0100
0000
1000
0000
0200
0000
0000
0000
0310
0000
0000
0000
,  // measure 28
0001
0000
0000
0001
1000
0000
0100
0000
1000
0000
1000
0000
0100
0000
0000
0000
,  // measure 29
0010
0000
0010
0000
0001
0000
0000
0000
0100
0000
0100
0000
0010
0000
0000
1000
,  // measure 30
0010
0010
1000
0001
0200
0000
0302
0000
,  // measure 31
2003
3001
0002
0203
,  // measure 32
0310
1000
0100
0000
0010
0010
0001
0000
,  // measure 33
1000
1000
0010
0000
0100
0100
0001
0000
,  // measure 34
0100
0001
1000
0001
0020
0000
0032
0000
,  // measure 35
2003
0000
3001
0000
1000
0001
1000
0001
,  // measure 36
1000
0001
1000
0100
0010
0002
0000
2003
,  // measure 37
0000
3001
0100
0001
0000
2000
0000
3002
,  // measure 38
0000
1003
0010
1000
0000
0002
0000
2003
,  // measure 39
0000
3001
1000
0001
0010
0000
0001
0000
,  // measure 40
1000
1000
0001
0000
0010
0002
0000
0203
,  // measure 41
0000
0310
1000
0010
0000
2000
0000
3002
,  // measure 42
0000
0103
0001
0010
0000
0200
0000
2300
,  // measure 43
0000
3010
1000
0100
0010
0000
0010
0001
,  // measure 44
0100
0000
0010
0100
0020
0000
0000
0000
,  // measure 45
0030
1001
0200
0000
,  // measure 46
0000
0000
1300
0100
1000
1000
0100
0000
,  // measure 47
0010
0000
0010
0000
0100
0010
0002
0000
,  // measure 48
0003
0100
0001
0000
1000
0001
1000
0000
,  // measure 49
0010
0000
1000
0010
1000
0010
1000
0000
,  // measure 50
0010
1000
1000
1000
0001
0001
0010
0000
,  // measure 51
0001
0000
0100
0000
0100
0010
2000
0000
,  // measure 52
3000
0001
0100
0000
0001
1000
0001
0000
,  // measure 53
0100
0010
0100
0001
1000
0000
0001
0000
,  // measure 54
0010
0000
0100
0010
0100
0000
0000
0000
;
