#TITLE:Midnight Black Earth;
#SUBTITLE:;
#ARTIST:Bohren & der Club of Gore;
#TITLETRANSLIT:;
#SUBTITLETRANSLIT:;
#ARTISTTRANSLIT:;
#CREDIT:aurae;
#BANNER:blackearth.png;
#BACKGROUND:blackearth-bg.png;
#LYRICSPATH:;
#CDTITLE:!auraelogo_new.png;
#MUSIC:blackearth.mp3;
#OFFSET:-0.033;
#SAMPLESTART:43.620;
#SAMPLELENGTH:17.520;
#SELECTABLE:YES;
#BPMS:0.000=27.500;
#STOPS:;
#BGCHANGES:;

//---------------dance-single - ----------------
#NOTES:
     dance-single:
     :
     Hard:
     6:
     0.144,0.147,0.058,0.242,0.142:
0000
0000
0000
0000
,
2002
0000
0000
0000
0000
0000
0000
0000
3000
0000
0000
0000
0003
1000
0001
1000
0020
0000
0000
0000
0030
0000
0000
0000
0010
0000
0010
1000
0001
1000
0100
1000
,
0002
0000
0100
0000
1000
0000
0003
0000
0001
0000
0000
0000
0000
0000
0001
1000
0100
0000
0000
0000
0000
0000
0000
0000
0010
0000
0100
1000
0001
0010
0100
1000
,
0200
0000
0000
0000
0000
0000
0000
0000
0300
0000
0000
0000
0000
0000
0010
0002
0010
0000
0000
0000
0000
0000
0000
0000
0003
0000
0000
0000
0001
0100
0010
1000
,
0200
0000
0000
0300
0100
0000
0000
0100
1000
0000
0000
0000
1001
0000
0000
0000
,
0202
0000
0000
0300
0100
0000
0000
0000
2003
0000
0000
0000
3001
0000
0200
0000
,
0320
0000
0000
0000
0000
0000
0000
0000
1000
0000
0000
0000
0000
0000
0000
0000
0130
0000
0000
0000
0000
0000
0000
0000
0110
0000
0000
0000
0000
0000
0010
2000
,
0200
0000
0000
0000
0300
0000
0000
0000
0002
0000
0000
0000
3003
0000
0000
0001
,
0200
0000
0310
0000
2000
0000
0000
3000
,
2002
0000
0000
0000
0000
0000
3000
0000
1000
0000
0000
0000
0203
0000
0000
0000
0020
0000
0000
0000
0000
0000
0000
0000
0330
0000
0000
0000
0000
0010
1000
0010
,
0200
0000
0000
0000
0000
0000
0000
0000
0000
0000
0000
0000
0001
0000
0000
0000
0000
0000
0302
0000
0000
0000
0000
0000
2000
0000
0000
0000
0000
0000
0000
0000
0000
0000
0000
0000
3003
0000
0000
0000
0000
0000
1000
0000
0000
0001
0100
0001
,
0200
0000
0000
0000
0000
0000
0000
0000
0320
0000
0000
0000
0000
0000
0000
0000
1030
0000
0000
0000
0000
0000
0000
0000
1001
0000
0000
0000
0001
0010
0100
1000
,
0200
0000
1000
0000
0310
0000
1001
0020
,
0032
0000
0003
0000
;

//---------------dance-single - ----------------
#NOTES:
     dance-single:
     :
     Medium:
     4:
     0.103,0.098,0.025,0.217,0.063: // measure 1
0000
0000
0000
0000
,  // measure 2
0020
0000
0000
0000
0030
0000
0000
0001
2000
0000
0000
0000
3000
0100
0010
0001
,  // measure 3
0200
0000
0000
0000
0300
0000
0000
0001
2000
0000
0000
0000
3000
1000
0010
0100
,  // measure 4
0020
0000
0000
0000
0000
0000
0000
0000
0030
0000
0000
0000
0000
0000
0100
0001
0020
0000
0000
0000
0000
0000
0000
0000
0030
0000
0000
0000
0001
0000
1000
0000
,  // measure 5
0200
2300
3002
0003
,  // measure 6
0200
0000
0010
0000
0320
0000
1000
2030
,  // measure 7
3002
0000
0000
0000
0000
0000
0000
0000
1000
0000
0000
0000
0000
0000
0000
0000
1003
0000
0000
0000
0000
0000
0000
0000
0100
0000
0000
0000
0000
0000
0010
0001
,  // measure 8
0020
0000
0000
0000
0000
0000
0000
0000
0230
0000
0000
0000
0300
0000
0000
0010
,  // measure 9
0002
0003
1000
0000
,  // measure 10
1020
0000
0000
0000
0030
0000
0200
0000
0302
0000
0000
0000
0003
0000
0000
0001
,  // measure 11
0020
0000
0000
0000
0030
0000
0200
0000
2300
0000
0000
0000
3000
0000
1000
0100
,  // measure 12
0012
0000
0000
0000
0203
0000
0000
0000
0320
0000
0000
0000
0030
0000
1000
0100
,  // measure 13
2000
0000
3001
0000
0100
0000
0001
1000
,  // measure 14
1001
0000
0000
0000
;

//---------------dance-single - ----------------
#NOTES:
     dance-single:
     :
     Easy:
     2:
     0.076,0.081,0.042,0.125,0.000: // measure 1
0000
0000
0000
0000
,  // measure 2
0200
0000
0000
0300
0001
0000
0001
0000
,  // measure 3
2000
0000
0000
3000
0010
0000
0010
0000
,  // measure 4
2200
0000
0000
3300
1000
0000
0100
0000
,  // measure 5
2002
0000
3003
0000
,  // measure 6
0002
0000
0003
0000
0020
0000
0030
0100
,  // measure 7
0200
0000
0300
0000
0001
0000
0010
0100
,  // measure 8
2000
0000
3000
0000
0020
0000
0030
0010
,  // measure 9
2000
0000
3000
1001
,  // measure 10
1001
0000
0001
0010
0100
0000
0100
0000
,  // measure 11
0100
0000
0001
1000
0010
0000
0010
1000
,  // measure 12
2000
3000
0200
0300
2000
3000
0001
0010
,  // measure 13
0100
0000
0010
0000
0001
0000
1001
1000
,  // measure 14
0001
0000
0000
0000
;
