#TITLE:INNOCENCE;
#SUBTITLE:;
#ARTIST:BJÖRK;
#TITLETRANSLIT:;
#SUBTITLETRANSLIT:;
#ARTISTTRANSLIT:BJORK;
#CREDIT:aurae;
#BANNER:innocence.png;
#BACKGROUND:innocence-bg.png;
#LYRICSPATH:;
#CDTITLE:!auraesimfilesmix.png;
#MUSIC:innocence.mp3;
#OFFSET:0.023;
#SAMPLESTART:34.920;
#SAMPLELENGTH:19.880;
#SELECTABLE:YES;
#DISPLAYBPM:117.000;
#BPMS:0.000=117.000,12.000=138.000,20.000=117.500,70.000=116.700,100.000=115.000,154.000=116.000,170.000=117.500,201.000=117.000;
#STOPS:182.000=0.520
;
#BGCHANGES:0.000=innocence.avi=1.000=1=1=0,
223.000=innocence-bg.png=1.000=1=0=0,
99999=-nosongbg-=1.000=0=0=0 // don't automatically add -songbackground-
;

//---------------dance-single - aurae----------------
#NOTES:
     dance-single:
     aurae:
     Hard:
     8:
     0.393,0.439,0.135,0.042,0.076:
0000
0000
0000
0000
,
0000
0000
0000
0000
,
0000
0000
0000
0000
,
0000
0000
0000
0000
,
0000
0000
0000
0000
,
0000
0000
0000
0001
0010
0001
1000
0100
,
1000
0000
0000
0001
0100
0001
1000
0010
,
1000
0000
0000
0010
0100
0001
0100
0010
,
1000
0000
0010
0000
1000
0000
0001
1000
,
0101
0000
0001
1000
0010
1000
0001
0100
,
0001
0000
0000
1000
0100
1000
0001
0010
,
0001
0000
0000
0100
0010
1000
0010
0100
,
0001
1000
0001
0010
,
0001
0000
0010
0002
0100
0000
1000
0000
,
1003
0000
0000
0001
1000
0010
1000
0000
,
0101
0000
0001
0100
0010
0000
1000
0000
,
1000
0000
0001
1000
0100
0000
1000
0001
,
0100
0000
0000
0001
0000
0000
1000
0000
0100
0000
1000
0000
0100
0000
1000
0000
,
1001
0000
0010
0001
0100
0001
0100
0001
,
1001
0000
0000
0100
0000
0000
0010
0000
0100
0000
0010
0000
0100
0000
0010
0000
,
1010
0000
1000
0001
0100
0010
0100
0001
,
0020
0000
0000
0032
0000
0000
1003
0000
0001
0000
1000
0000
0001
0000
0100
0000
,
0101
0000
0001
1000
0010
0100
0010
0100
,
0001
0000
0000
1000
0000
0000
0100
0000
0010
0000
0001
0000
0010
0000
0100
0000
,
1100
0000
0001
0100
0001
0100
0010
1000
,
0020
0000
0000
1000
0000
0030
0010
0000
,
0200
0000
0001
0001
0000
0300
0100
0001
,
1000
0000
0100
0010
0001
0000
0100
0000
,
0001
1000
0100
0000
1000
0000
1010
0000
,
1001
0000
0010
0001
0100
0001
1000
0100
,
0001
0000
0100
1000
0010
0001
0010
0100
,
0001
0000
0000
1000
0100
0000
1000
0000
0001
0000
1000
0000
0100
0000
0000
0000
,
1000
0000
0000
0001
0100
0000
0001
0000
0010
0000
0001
0000
0100
0000
0000
0000
,
0001
0000
0000
0010
0100
0000
1000
0000
0010
0000
0100
0000
0001
0000
1000
0000
,
0010
0000
0000
0000
0000
0000
1000
0000
0100
1000
0100
0000
0000
0000
0000
0000
,
0000
0000
0000
0000
0000
0000
1000
0000
0001
1000
0001
0000
0100
0000
0010
0000
,
0000
0000
0000
0000
0000
0000
1000
0000
0010
1000
0010
0000
0100
0000
0001
0000
,
1000
0001
0010
0001
,
0100
0000
0001
1000
0100
1000
0010
0100
,
0010
0000
1000
0100
1000
0001
0100
0000
,
0001
0000
0010
0001
0010
0000
0001
0000
1000
0000
0010
0000
0100
0000
0100
0000
,
0001
0000
0000
0000
,
1001
0000
0000
0001
0000
0000
1000
0000
0010
0000
1000
0000
0010
0000
1000
0000
,
1100
0000
0000
1000
0000
0000
0001
0000
0010
0000
0001
0000
0100
0000
0001
0000
,
0011
0000
0000
0100
0000
0000
1000
0000
0001
0000
0100
0000
0001
0000
1000
0000
,
0010
0000
0000
0100
0000
0000
0001
0000
0000
0000
0000
0000
1100
0000
0000
0001
,
0000
0000
0100
0000
0010
0000
1000
0000
0010
0000
0100
0000
0101
0000
0000
1000
,
0000
0000
0100
0000
1000
0000
0001
0000
1000
0000
0100
0000
1001
0000
0000
0001
,
0000
0100
0010
1000
0100
1000
0001
0000
,
0100
0001
1000
1000
0001
0001
1000
0000
,
0000
0001
0100
0001
1000
0000
0100
0000
,
1000
0010
1000
0100
0010
0001
0100
0000
,
0001
1000
0100
1000
0010
0100
0001
0001
,
1000
0100
0000
0100
1000
0010
0100
0000
,
0010
1000
0000
1000
0001
0100
0101
0000
;

//---------------dance-single - aurae----------------
#NOTES:
     dance-single:
     aurae:
     Medium:
     5:
     0.307,0.323,0.127,0.008,0.000: // measure 1
0000
0000
0000
0000
,  // measure 2
0000
0000
0000
0000
,  // measure 3
0000
0000
0000
0000
,  // measure 4
0000
0000
0000
0000
,  // measure 5
0000
0000
0000
0000
,  // measure 6
0000
0000
0000
1000
0100
0000
1000
0100
,  // measure 7
1000
0000
0000
0001
0100
0000
0001
0100
,  // measure 8
0001
0000
0000
0100
0010
0000
0100
0010
,  // measure 9
0100
0010
1000
0001
,  // measure 10
0101
0000
0001
1000
0100
1000
0001
0000
,  // measure 11
1000
0000
0010
0100
0001
0100
0010
0000
,  // measure 12
0100
0000
0010
1000
0100
1000
0001
0000
,  // measure 13
1000
0100
0010
0001
,  // measure 14
0100
0000
0001
1000
0100
0000
1000
0000
,  // measure 15
1000
0000
0001
0010
0001
0000
0010
0000
,  // measure 16
1001
0000
0000
0001
0100
0000
0001
0000
,  // measure 17
1100
0001
1100
0010
,  // measure 18
1001
0000
0000
0001
0100
0001
0100
0000
,  // measure 19
0001
0000
0000
1000
0100
1000
0100
0000
,  // measure 20
1000
0000
0000
0010
1000
0010
1000
0000
,  // measure 21
0010
0000
0100
0000
0001
1000
0001
0000
,  // measure 22
1001
0000
0000
0010
0001
0010
0001
0000
,  // measure 23
0010
0000
0000
0100
1000
0100
1000
0000
,  // measure 24
0100
0000
0000
1000
0001
1000
0001
0000
,  // measure 25
1000
0000
0001
0010
0001
0000
1000
0000
,  // measure 26
0010
0000
0000
1000
0000
0000
0001
0000
,  // measure 27
0100
0000
0000
0001
0000
0000
0010
0000
,  // measure 28
0100
0000
0000
1000
0000
0000
0001
0000
,  // measure 29
1000
0010
0100
0001
,  // measure 30
0010
0000
0000
0001
0000
0000
0100
0000
,  // measure 31
0010
0000
0000
1000
0000
0000
0100
0000
,  // measure 32
1000
0001
1000
0000
0001
0100
0001
0000
,  // measure 33
1000
0010
1000
0000
0010
0100
0001
0000
,  // measure 34
0010
0000
0001
0100
0001
1000
0010
0000
,  // measure 35
0100
0000
0000
0001
0100
0000
0001
0000
,  // measure 36
1000
0000
0000
0010
1000
0000
0100
0000
,  // measure 37
0010
0000
0000
0001
0100
0000
0001
0000
,  // measure 38
1000
1010
0011
1010
,  // measure 39
1001
0000
0001
0100
0010
0000
0100
0000
,  // measure 40
0001
0000
1000
0010
0100
0000
0010
0000
,  // measure 41
2000
0000
0000
3001
0000
0001
1000
0001
,  // measure 42
0000
0000
0000
0000
,  // measure 43
0100
0000
0001
0100
0001
0100
0001
0000
,  // measure 44
1000
0000
0010
1000
0010
1000
0010
0000
,  // measure 45
0100
0000
0001
0010
0100
1000
0100
0000
,  // measure 46
1000
0000
0001
0100
0010
0000
0010
0000
,  // measure 47
1000
0100
1000
0001
0100
0000
0001
0000
,  // measure 48
1000
0010
1000
0001
0010
0000
0001
0000
,  // measure 49
0100
0001
0010
0100
1000
0000
0010
1000
,  // measure 50
0100
1000
0010
0100
0001
0000
0100
0000
,  // measure 51
0000
0001
0000
0001
0010
0000
0011
0000
,  // measure 52
0001
1000
0000
1000
0100
0000
1100
0000
,  // measure 53
1000
0010
0000
0010
0100
0000
0110
0000
,  // measure 54
0100
0001
0010
0001
0100
0000
0101
0000
,  // measure 55
0001
1000
0000
1000
0001
0000
1001
0000
;

//---------------dance-single - aurae----------------
#NOTES:
     dance-single:
     aurae:
     Easy:
     2:
     0.136,0.162,0.025,0.025,0.000: // measure 1
0000
1001
1001
1001
0000
0000
0000
0000
,  // measure 2
0000
0000
0000
0000
,  // measure 3
0000
0000
0000
0000
,  // measure 4
0000
0000
0000
0000
,  // measure 5
0000
0000
0000
0000
,  // measure 6
0000
0000
0001
0001
,  // measure 7
0001
0000
1000
1000
,  // measure 8
1000
0000
0100
0100
,  // measure 9
0100
0000
1000
0000
,  // measure 10
0001
0000
0010
0010
,  // measure 11
0010
0000
0001
0001
,  // measure 12
0001
0000
0100
0100
,  // measure 13
0100
0000
0010
0000
,  // measure 14
1000
0000
0100
0000
,  // measure 15
0100
0000
0010
0000
,  // measure 16
0010
0000
0001
0000
,  // measure 17
0001
0001
0001
0000
,  // measure 18
1000
0000
0100
0100
,  // measure 19
0000
0000
0010
0010
,  // measure 20
0000
0000
1000
1000
,  // measure 21
0000
0000
0001
1000
,  // measure 22
0001
0000
0100
0100
,  // measure 23
0000
0000
0010
0010
,  // measure 24
0000
0000
1000
1000
,  // measure 25
0000
0001
1000
0001
,  // measure 26
1000
0000
0100
0000
,  // measure 27
2000
0000
0000
0000
0000
3000
0000
0000
,  // measure 28
0001
0000
0100
0000
,  // measure 29
0002
0000
0000
0000
0000
0003
0000
0000
,  // measure 30
0010
0000
0001
0000
,  // measure 31
0020
0000
0000
0000
0000
0030
0000
0000
,  // measure 32
0100
0000
1000
0000
,  // measure 33
0100
0000
0100
0000
,  // measure 34
0010
0000
0001
0000
,  // measure 35
0010
0000
0000
0000
,  // measure 36
0001
0000
0000
0000
,  // measure 37
1000
0000
0000
0000
,  // measure 38
0100
1000
0100
1000
,  // measure 39
0100
0000
1000
1000
,  // measure 40
0000
0000
0001
0001
,  // measure 41
0000
0000
1000
1000
,  // measure 42
0000
0000
0000
0000
,  // measure 43
0001
0000
0001
0001
,  // measure 44
0000
0000
0010
0010
,  // measure 45
0000
0000
0100
0100
,  // measure 46
0000
0000
0000
0000
,  // measure 47
0000
1000
1000
0000
,  // measure 48
0000
0100
0100
0000
,  // measure 49
0000
0010
0010
0000
,  // measure 50
0000
0001
0001
0001
,  // measure 51
0000
0001
0000
1000
,  // measure 52
0000
0100
0000
1000
,  // measure 53
0000
0010
0000
0100
,  // measure 54
0000
0001
0000
0100
,  // measure 55
0000
0001
0000
0010
;
