#TITLE:Hell Broke Luce;
#SUBTITLE:;
#ARTIST:TOM WAITS;
#TITLETRANSLIT:;
#SUBTITLETRANSLIT:;
#ARTISTTRANSLIT:;
#CREDIT:;
#BANNER:hell.png;
#BACKGROUND:hell-bg.png;
#LYRICSPATH:;
#CDTITLE:!auraelogo_new.png;
#MUSIC:hell.mp3;
#OFFSET:-1.533;
#SAMPLESTART:46.575;
#SAMPLELENGTH:15.120;
#SELECTABLE:YES;
#DISPLAYBPM:160.000;
#BPMS:0.000=159.770,224.000=79.885,228.000=159.770;
#STOPS:;
#BGCHANGES:;

//---------------dance-single - aurae----------------
#NOTES:
     dance-single:
     aurae:
     Easy:
     2:
     0.147,0.241,0.072,0.027,0.000:
0000
0000
0000
0000
,
0000
0000
0000
0000
,
0000
0000
0000
0000
,
0000
0000
0000
0000
,
1000
0000
1000
0000
,
1000
0000
0000
0000
,
0001
0000
0001
0000
,
1000
0000
0001
0000
,
1000
0000
0000
0000
,
0010
0000
0010
0000
,
0010
0000
0010
0000
,
0000
0000
0000
0000
,
0100
0000
0001
0000
,
0100
0000
0100
0000
,
0010
0000
1000
0000
,
0010
0000
0010
0000
,
1001
0000
1001
0000
,
1001
0000
0000
0000
,
0101
0000
0101
0000
,
0101
0000
0000
0000
,
0001
0000
1000
0000
,
1000
0000
0000
0000
,
1000
0000
0010
0000
,
0010
0000
0000
0000
,
1000
0000
0100
0000
,
0100
0000
1000
0000
,
0100
0000
0100
0000
,
0100
0000
0000
0000
,
1000
0000
0001
0000
,
1000
0000
1000
0000
,
1000
0000
0001
0000
,
0000
1000
0000
0001
,
0000
0000
0001
0000
,
0100
0000
0001
0000
,
0100
0000
0010
0000
,
1000
0000
0010
0000
,
0001
0000
0001
0000
,
1000
0000
0000
0000
,
1001
0000
0000
0000
,
0000
0000
0000
0000
,
0010
0010
0010
0010
,
0010
0000
0000
0000
,
0100
0000
0100
0000
,
1000
0000
1000
0000
,
0001
0000
0100
0000
,
0000
0000
0001
0000
,
0100
0000
0010
0000
,
1000
0000
1000
0000
,
0001
0000
1000
0000
,
0000
0000
0001
0000
,
0001
0000
0100
0000
,
0100
0000
0000
0000
,
0100
0000
0000
0000
,
0110
0000
1000
0000
,
0001
0000
1000
0000
,
0000
0000
0000
0000
,
0001
0000
0000
0000
,
1000
1000
1000
0000
,
0001
0000
0000
0000
,
0001
0001
0001
0000
,
0001
0000
0000
0000
,
1000
1000
1000
0000
,
1000
0000
0000
0000
,
0020
0000
0030
0000
,
0200
0000
0300
0000
,
0002
0000
0003
0000
,
0100
0000
0010
0000
,
0100
0000
0000
0000
;

//---------------dance-single - aurae----------------
#NOTES:
     dance-single:
     aurae:
     Medium:
     6:
     0.400,0.481,0.198,0.377,0.000:
0000
0000
0000
0000
,
0000
0000
0000
0000
,
0000
0000
0000
0000
,
0000
0000
0000
1000
,
1000
0001
0001
1000
,
0001
0000
0000
0001
,
1000
0010
0100
0010
,
2000
3000
0002
0003
,
2000
3001
1001
0001
,
0100
0000
0001
0100
0001
0000
0100
0001
,
0200
0300
0202
0303
,
0001
0000
1000
0000
0010
0000
1000
0010
,
0100
0000
0010
1000
0100
1000
0001
0010
,
0001
0010
0011
0000
,
0001
0000
1000
0001
1000
0000
0001
0100
,
0001
0100
0001
0000
1000
0000
0010
0000
,
0200
0300
0020
0030
,
0200
0300
0001
1000
,
0200
0300
0020
0030
,
0200
0300
0010
0001
,
1000
0000
0001
0100
0001
0100
0001
0000
,
1000
0010
1000
0010
1000
0000
0001
0000
,
1000
0100
1000
0100
1000
0000
0001
0010
,
0001
0010
0001
0000
2002
0000
3003
0000
,
0001
0100
0010
1000
0100
0000
1000
0000
,
0100
1100
1001
0000
,
1000
0100
0010
0001
0010
0000
0001
0100
,
0001
1001
0110
1001
,
2000
3000
0002
0003
,
0010
0100
2000
3000
,
2000
3000
0002
0003
,
1000
0001
2000
3000
0001
1000
0002
0003
,
0200
0300
0020
0030
,
0200
0300
0100
0101
,
1001
0020
0030
0200
,
0320
1030
0200
0300
,
0020
0030
0200
0300
,
0010
0100
1000
0010
,
1000
0010
1000
0010
0100
0010
1000
0000
,
1000
0001
0100
0001
0100
0000
0101
0000
,
2002
3003
0100
0001
,
0100
0000
0001
0100
0001
1000
0100
1000
,
0010
1000
0100
0000
1100
0000
1001
0000
,
1001
1000
0020
0030
,
0200
0300
0020
0030
,
1000
0010
0200
0300
,
0001
0020
0030
0200
,
0300
0100
2000
3000
,
0002
0003
2000
3000
,
0010
0000
1000
0000
0001
0000
0100
0001
,
0100
0000
0001
1000
0001
0000
1000
0000
,
0010
0000
0000
0000
0010
1000
0010
1000
,
0100
0000
0100
1000
,
1000
0000
0001
0100
0001
1000
0100
0000
,
1100
0000
1001
0000
,
0101
0001
1000
0001
,
0100
0000
0000
0000
,
0100
0001
0100
0001
0100
0000
0001
0000
,
2000
0000
0000
3000
,
1000
0010
1000
0010
1000
0000
0010
0000
,
0110
0000
0000
0000
0100
0001
0100
0000
,
0001
1000
0001
1000
0001
0000
1001
0000
,
1001
0000
0000
0000
0001
0000
0100
0010
,
1000
0000
0000
0000
0010
0000
1000
0001
,
0010
0000
0000
0000
0001
0000
0010
0001
,
1000
0000
0001
0000
,
0100
0000
0010
0000
,
0100
0000
0000
0000
;

//---------------dance-single - aurae----------------
#NOTES:
     dance-single:
     aurae:
     Hard:
     8:
     0.540,0.549,0.584,0.395,0.000: // measure 1
0000
0000
0000
0000
,  // measure 2
0000
0000
0000
0000
,  // measure 3
0000
0000
0000
0000
,  // measure 4
0000
0000
0000
0110
,  // measure 5
1001
1000
0001
0000
0100
0000
0001
0100
,  // measure 6
0010
0000
0110
1010
,  // measure 7
1100
1000
0001
0000
0010
0000
0001
0100
,  // measure 8
2000
3000
0002
0003
,  // measure 9
2000
0000
3010
0000
1010
0000
1000
0001
,  // measure 10
0100
0000
0001
0010
0001
0000
0010
0001
,  // measure 11
0100
1001
0100
1001
,  // measure 12
1000
0010
0100
0000
0100
0010
1000
0100
,  // measure 13
0010
0000
0010
0001
1000
0000
0001
0010
,  // measure 14
0100
0010
0001
0000
0101
0000
0001
0010
,  // measure 15
0001
0000
1000
0001
0010
0001
1000
0000
,  // measure 16
0100
0010
0001
0000
0101
0000
0110
0000
,  // measure 17
2002
3003
0220
0330
,  // measure 18
1001
1000
0001
0001
,  // measure 19
0220
0330
2002
3003
,  // measure 20
0110
0010
0100
0100
,  // measure 21
0001
0000
1000
0001
0001
1000
1000
0010
,  // measure 22
0100
0010
1000
0100
2000
0000
3000
1000
,  // measure 23
0010
0000
0010
0100
0010
1000
0001
0001
,  // measure 24
0010
1100
1001
0011
,  // measure 25
0101
0001
0100
0001
1000
0010
1000
0000
,  // measure 26
0010
0100
0202
0303
,  // measure 27
0001
0000
1000
0010
0100
0000
0010
0100
,  // measure 28
0001
1000
1000
0000
0001
0000
0100
0000
,  // measure 29
2200
3300
0202
0303
,  // measure 30
0001
1000
2200
3300
,  // measure 31
2020
3030
0022
0033
,  // measure 32
0001
1000
1010
0000
1000
0001
0011
0000
,  // measure 33
2001
3010
0210
0301
,  // measure 34
1002
0000
1003
0000
1000
0001
0100
0001
,  // measure 35
0010
0210
1300
1001
,  // measure 36
0101
0000
0001
1000
2001
0000
3001
0000
,  // measure 37
0120
1030
1002
0103
,  // measure 38
0100
0001
0100
0001
0100
0000
0001
0000
,  // measure 39
1001
0001
0000
1000
,  // measure 40
0000
0001
0101
0011
,  // measure 41
1100
0000
1000
0100
0010
0001
0100
0010
,  // measure 42
0100
0000
0001
0100
0010
1000
0010
0000
,  // measure 43
0100
0010
0100
0010
1000
0000
0010
0000
,  // measure 44
0110
0000
0010
0000
1002
0000
0103
0001
,  // measure 45
0210
0000
0310
0100
1000
0000
0100
0000
,  // measure 46
0001
0100
0010
0000
0210
0000
0301
0100
,  // measure 47
0001
0000
0011
0010
0001
1000
1000
0010
,  // measure 48
0100
0010
1100
0010
,  // measure 49
0101
0000
0010
0000
1100
0000
1000
0001
,  // measure 50
0100
0100
0001
1000
0010
0000
0100
0100
,  // measure 51
0010
1000
1000
0001
0100
0000
0001
1000
,  // measure 52
0001
0000
0101
0000
1001
0000
1000
0001
,  // measure 53
0100
0000
0100
0001
1000
0010
0010
0000
,  // measure 54
1010
0000
0010
1000
1001
0001
0100
0000
,  // measure 55
0101
0000
0001
1000
0010
0000
0010
1000
,  // measure 56
0100
0011
0100
1010
,  // measure 57
1001
0000
0000
0000
,  // measure 58
1001
0010
0010
1000
0001
0001
0100
0001
,  // measure 59
2000
0000
0000
0000
3001
0100
0100
0001
,  // measure 60
1000
0000
1000
0010
0100
0010
1000
1000
,  // measure 61
0001
0000
0101
1001
,  // measure 62
1010
0000
0010
1000
0001
0001
0010
0100
,  // measure 63
1000
0000
0000
0000
0100
1000
0010
0100
,  // measure 64
2000
0000
3000
0000
1000
0100
0001
1000
,  // measure 65
0200
0000
0300
0000
0010
0001
1000
0100
,  // measure 66
2000
3000
0001
0100
,  // measure 67
2002
3003
0220
0330
,  // measure 68
2002
0000
0000
0000
,  // measure 69
3003
0000
0000
0000
;
