#TITLE:FAKE IT;
#SUBTITLE:;
#ARTIST:Perfume;
#TITLETRANSLIT:;
#SUBTITLETRANSLIT:;
#ARTISTTRANSLIT:;
#CREDIT:aurae;
#BANNER:fakeit.png;
#BACKGROUND:fakeit-bg.png;
#LYRICSPATH:;
#CDTITLE:!auraelogo_new.png;
#MUSIC:fakeit.mp3;
#OFFSET:-0.053;
#SAMPLESTART:16.760;
#SAMPLELENGTH:15.380;
#SELECTABLE:YES;
#DISPLAYBPM:125.000;
#BPMS:0.000=125.000;
#STOPS:148.000=1.430
;
#BGCHANGES:0.000=fakeit.avi=1.000=1=0=0,
246.000=fakeit-bg.png=1.000=1=0=0,
99999=-nosongbg-=1.000=0=0=0 // don't automatically add -songbackground-
;

//---------------dance-single - aurae----------------
#NOTES:
     dance-single:
     aurae:
     Hard:
     8:
     0.522,0.461,0.184,0.059,0.054:
0000
0000
0000
0000
,
0001
0001
1000
1000
0001
0001
1000
1000
,
0100
0100
0010
0010
0001
0001
1000
1000
,
0010
0100
0001
0100
0010
1000
0001
1000
,
0100
0000
0100
0010
0001
0010
0100
0000
,
0012
0000
0103
0020
0100
0000
1030
0001
,
0100
0000
0001
1000
0100
1000
0010
0000
,
1020
0000
0130
0002
0100
0000
1003
0000
,
0010
1000
0100
1000
0001
0000
0110
0000
,
1001
0000
0000
0000
0100
0000
0001
0000
0010
0000
0000
0001
0000
0000
0100
0000
,
0010
0000
1000
0000
0100
0000
1000
0000
0001
0000
0000
1000
0000
0000
0100
0000
,
1000
0000
0001
0000
0010
0000
0001
0000
0100
0000
0000
0010
0000
0000
1000
0000
,
0100
0000
0010
0000
0001
0000
0100
0000
0001
0000
0000
0001
0100
0000
0000
0000
,
0110
0000
0010
1000
0100
0000
0100
1000
,
0001
0000
1100
0000
1000
0001
0010
0001
,
0100
0000
0001
1000
0010
0000
0010
0100
,
0001
0000
1001
0000
0001
0100
0010
0100
,
0001
0000
1000
0100
0010
0000
0001
1000
,
0100
0000
1100
0000
1000
0010
0100
0010
,
1000
0001
0001
0100
0010
1000
0100
0001
,
0100
1000
0100
0000
1100
0000
1001
0000
,
0101
0000
0001
0000
0010
0000
0001
0100
,
0001
0000
0001
1000
0100
1000
0100
0000
,
1100
0000
0010
0000
0010
0000
0001
0100
,
0001
0000
0100
0000
0010
1000
0010
0000
,
0110
0000
0100
0000
0100
0000
0001
0100
,
0001
0000
1000
0000
0100
1000
0100
0000
,
0010
1000
0010
1000
0100
1000
0100
0000
,
0010
0001
0010
0001
2000
0000
3001
0100
,
0010
0100
0001
0100
0010
0100
0001
0100
,
0001
1000
0010
1000
0001
0000
0001
1000
,
0100
0010
0001
0010
0100
0010
0001
0100
,
0010
0100
0001
0100
0010
0000
0010
1000
,
0200
1000
0000
1300
,
1001
0000
0010
0001
0100
0001
0010
0000
,
1100
1000
0001
1000
0001
1000
0001
0000
,
0011
0001
1000
0001
0100
0010
0100
0001
,
2000
3000
0000
0000
0000
0000
0000
0000
0000
0000
0000
0000
0000
0000
0000
0000
0010
0000
0000
0000
0000
0000
0000
0000
0000
0000
0000
0000
0000
0000
0000
0000
1010
0000
0000
0000
0000
0000
0000
0000
1000
0000
0000
0000
0000
0000
0000
0000
0001
0000
0000
0000
0000
0000
0000
0000
0100
0000
0000
0000
0000
0000
0000
0000
,
0001
1000
0100
1000
0010
0100
0010
1000
,
0100
1000
0001
0000
0100
0001
0010
0001
,
1000
0100
1000
0010
0100
0010
0010
1000
,
0001
0100
0001
0000
0011
0010
0100
1000
,
0001
1000
0100
0000
0100
1000
0001
0100
,
0100
0000
0001
1000
0001
1000
0100
1000
,
0010
0000
0100
0010
1000
0001
0100
0000
,
0101
0000
0000
0000
1001
0000
1000
0000
0010
0000
0100
0000
0010
0000
0000
1000
,
0010
0000
0100
0000
0001
0000
0000
0000
0010
0000
0001
0000
0100
0000
0000
0001
,
0100
0000
0010
0000
1000
0000
0100
0000
0010
0000
0001
0000
0100
0000
0000
0001
,
0100
0000
0010
0000
0100
0000
0001
0000
1000
0000
0100
0000
1000
0000
0000
0001
,
0010
0000
0001
0000
0000
0000
0000
0000
1001
0000
0001
0000
0100
0000
0000
0001
,
1000
0000
0001
0000
0010
0000
0100
0000
1000
0000
0010
0000
0100
0000
0000
0001
,
1000
0000
0100
0000
1000
0000
0010
0000
0100
0000
0001
0000
0100
0000
0000
0010
,
0100
0010
1000
0001
1000
0001
1000
0000
,
0101
0000
1000
1000
0001
0001
1000
1000
,
0001
0001
0100
0100
0010
0010
1000
1000
,
0001
0001
1000
1000
0001
0001
0100
0100
,
0001
0000
0001
0000
0010
0000
0010
0000
0100
0000
0100
0000
1000
0000
0100
1000
,
0100
0010
0001
0100
0100
0001
0001
1000
,
1000
0010
0100
0001
0001
1000
1000
0010
,
0010
0100
0001
1000
0000
0001
0000
0100
,
0000
0000
0001
0000
1000
0000
1000
0000
0001
1000
0001
0000
0010
0000
0100
0000
,
1000
1000
0000
0000
0000
0000
0000
0000
;

//---------------dance-single - aurae----------------
#NOTES:
     dance-single:
     aurae:
     Medium:
     6:
     0.400,0.410,0.201,0.126,0.000: // measure 1
0000
0000
0000
0000
,  // measure 2
1000
1000
1000
0000
0001
0000
0100
0000
,  // measure 3
0010
0010
0010
0000
1000
0000
0001
0000
,  // measure 4
0100
0001
0100
0000
0001
1000
0100
0000
,  // measure 5
0010
0010
0010
0010
,  // measure 6
0002
0000
0000
0203
0000
0000
0300
0000
,  // measure 7
0020
0000
0000
0230
0000
0000
0300
0000
,  // measure 8
0002
0000
0000
2003
0000
0000
3000
0000
,  // measure 9
0100
1000
0100
1000
0100
0000
1100
0000
,  // measure 10
0110
0000
0010
0001
0100
0000
0100
0000
,  // measure 11
0001
1000
0010
0000
1000
0000
1000
0000
,  // measure 12
0100
0010
0001
0000
0100
0000
0100
0000
,  // measure 13
0001
1000
0001
1000
0010
0000
1010
0000
,  // measure 14
1001
0000
0002
0000
0023
0000
0031
0010
,  // measure 15
0001
0010
0100
1000
,  // measure 16
0100
0000
2000
0000
3200
0000
1300
0100
,  // measure 17
1000
0010
0100
0001
,  // measure 18
0100
0000
0010
1000
0100
0000
0010
0000
,  // measure 19
0001
0100
0100
0001
,  // measure 20
1000
0001
1000
0001
1000
0000
0010
1000
,  // measure 21
0001
0010
0100
0010
,  // measure 22
0002
1000
1000
1000
,  // measure 23
0203
0010
0010
0010
,  // measure 24
0302
0100
0100
0100
,  // measure 25
0023
0001
0001
0031
,  // measure 26
0010
0000
0100
0000
1000
0000
0100
1000
,  // measure 27
0100
1000
0001
0000
,  // measure 28
0001
0100
0001
0100
0001
0000
0100
0000
,  // measure 29
0010
1000
0010
1000
0100
0000
0010
0001
,  // measure 30
0100
0000
0101
0000
0101
0000
1000
0001
,  // measure 31
0100
0001
0101
0000
,  // measure 32
0001
0000
1001
0000
1001
0000
0010
1000
,  // measure 33
0001
1000
1001
0000
,  // measure 34
0100
0000
1000
0000
0001
0000
0100
0001
,  // measure 35
1000
0010
0001
0000
,  // measure 36
0010
1000
0010
1000
0010
1000
0010
0000
,  // measure 37
1000
0100
1000
0000
0001
1000
0001
1000
,  // measure 38
0001
0000
0001
0000
1100
0000
0010
0100
,  // measure 39
1000
0001
0010
0000
0100
0000
1000
0100
,  // measure 40
1000
0000
0010
0000
0101
0000
1000
0001
,  // measure 41
0100
0010
1000
0000
0001
0000
0100
0010
,  // measure 42
0100
0010
1000
0000
0011
0000
0100
0010
,  // measure 43
1000
0001
0010
0100
1000
0000
0001
1000
,  // measure 44
0001
1000
0110
0001
,  // measure 45
1100
0000
1000
0001
1000
0001
2000
0000
,  // measure 46
3000
0000
0100
0000
0010
0001
0100
0001
,  // measure 47
0010
0001
0100
0000
0001
0000
0001
0000
,  // measure 48
0000
0000
1000
0000
0010
1000
0100
1000
,  // measure 49
0010
1000
0100
0000
0010
0000
0001
0000
,  // measure 50
0000
0000
0100
0000
0001
0100
1000
0100
,  // measure 51
0001
0100
1000
0000
0100
0000
0001
0000
,  // measure 52
0010
0000
0100
0000
1000
0010
0001
0010
,  // measure 53
1000
0010
0001
0010
1000
0010
0001
0000
,  // measure 54
0010
1010
1010
1100
,  // measure 55
1001
0101
0001
0010
,  // measure 56
0100
1000
0001
1000
,  // measure 57
0001
0000
1000
0001
1000
0001
0100
0001
,  // measure 58
0010
0100
1000
0000
0101
0000
0011
0000
,  // measure 59
1001
1100
1000
0010
,  // measure 60
0100
0001
0100
0010
,  // measure 61
1000
0000
0001
0100
0001
1000
0100
1000
,  // measure 62
0001
0001
0000
0000
0000
0000
0000
0000
;

//---------------dance-single - aurae----------------
#NOTES:
     dance-single:
     aurae:
     Easy:
     5:
     0.316,0.461,0.235,0.000,0.000: // measure 1
0000
0000
0000
0000
,  // measure 2
0001
0001
0001
0001
,  // measure 3
0001
0001
0001
0001
,  // measure 4
1000
1000
0001
0001
,  // measure 5
1001
0000
0000
0000
,  // measure 6
0010
0000
0000
0010
0000
0000
0000
0000
,  // measure 7
1000
0000
0000
1000
0000
0000
0000
0000
,  // measure 8
0100
0000
0000
0100
0000
0000
0000
0000
,  // measure 9
1000
0100
1000
1100
,  // measure 10
1001
0001
0010
0010
,  // measure 11
0001
0001
0010
0010
,  // measure 12
0100
0100
1000
1000
,  // measure 13
0001
0001
0001
0000
,  // measure 14
1000
0000
0100
1000
0100
0000
1000
0000
,  // measure 15
1000
0000
1000
0000
,  // measure 16
0010
0000
1000
0100
1000
0000
0010
0000
,  // measure 17
0010
0010
0010
0000
,  // measure 18
1000
0000
0001
0100
0001
0000
0100
0000
,  // measure 19
0100
0000
0001
0000
,  // measure 20
0001
0000
1000
0000
0001
1000
0001
0000
,  // measure 21
1000
0001
1001
0000
,  // measure 22
0010
0010
0010
0010
,  // measure 23
1000
1000
0100
0100
,  // measure 24
0010
0010
0010
0010
,  // measure 25
0001
0001
0100
0100
,  // measure 26
0010
0010
1000
1000
,  // measure 27
0100
0100
1000
1000
,  // measure 28
0001
0000
0100
0000
0001
0100
0001
0000
,  // measure 29
1000
0000
0001
0000
1000
0001
1000
0000
,  // measure 30
1001
0001
0001
0001
,  // measure 31
1000
0000
1000
0000
1000
0000
1000
0100
,  // measure 32
1000
0100
0100
0100
,  // measure 33
0100
0010
0010
0001
,  // measure 34
0101
0000
0000
0000
,  // measure 35
1010
0000
0000
0000
,  // measure 36
0001
0000
0100
0000
0001
0100
0001
0000
,  // measure 37
1000
0001
1000
0000
0001
0000
1000
0000
,  // measure 38
0001
1001
1000
1000
,  // measure 39
1000
0100
0100
1000
,  // measure 40
0001
0100
0100
0001
,  // measure 41
0001
0000
0010
0000
0010
0000
0001
0010
,  // measure 42
0001
0010
0001
0000
0100
0000
0100
0000
,  // measure 43
0100
0000
0001
0000
0001
0000
1000
0100
,  // measure 44
1000
0100
0100
0100
,  // measure 45
1000
0000
0100
1000
0100
1000
0100
0000
,  // measure 46
1100
1001
0001
0100
,  // measure 47
0100
0001
0001
0010
,  // measure 48
0010
0100
0100
1000
,  // measure 49
1000
0001
0001
0100
,  // measure 50
0001
0000
1001
0001
,  // measure 51
0100
0100
0001
0010
,  // measure 52
0010
0001
1000
1000
,  // measure 53
0100
1000
0001
1000
,  // measure 54
1001
0101
0101
0101
,  // measure 55
0101
0101
0101
0101
,  // measure 56
0101
1001
1001
1001
,  // measure 57
1001
1001
1001
1001
,  // measure 58
1001
0000
0100
0000
1000
0000
0100
1000
,  // measure 59
0100
1000
0100
0000
1000
0000
0001
0100
,  // measure 60
0001
0100
0001
0000
1000
0000
0001
0000
,  // measure 61
1000
0001
0000
0010
,  // measure 62
0100
0100
0000
0000
0000
0000
0000
0000
;
