#TITLE:Aped;
#SUBTITLE:;
#ARTIST:Tera Melos;
#TITLETRANSLIT:;
#SUBTITLETRANSLIT:;
#ARTISTTRANSLIT:;
#CREDIT:aurae;
#BANNER:aped.png;
#BACKGROUND:aped-bg.png;
#LYRICSPATH:aped.lrc;
#CDTITLE:!auraelogo_new.png;
#MUSIC:aped.mp3;
#OFFSET:-0.083;
#SAMPLESTART:40.220;
#SAMPLELENGTH:14.620;
#SELECTABLE:YES;
#DISPLAYBPM:154.000:178.000;
#BPMS:0.000=154.000,20.000=155.000,30.000=157.000,32.000=154.000,33.000=147.000,35.000=152.000,37.000=156.000,40.000=157.000,41.000=154.400,53.000=152.000,57.000=156.000,63.000=155.020,68.000=155.000,74.000=153.000,77.000=152.000,78.000=154.000,86.000=155.000,88.000=152.000,89.000=150.000,95.000=155.000,97.000=160.000,98.000=151.000,102.000=152.000,116.000=150.000,120.000=154.000,123.000=159.000,124.000=160.000,127.000=150.000,130.000=150.000,132.000=160.000,134.000=147.000,135.000=144.000,137.000=148.000,140.000=159.000,142.000=154.000,145.000=150.000,148.000=159.000,151.000=151.000,152.000=143.000,154.000=150.000,156.000=160.000,158.000=152.000,160.000=149.000,162.000=142.000,164.000=160.000,166.000=152.000,168.000=148.000,170.000=142.000,173.000=150.000,179.000=148.000,182.000=155.000,183.000=160.000,185.000=148.000,189.000=136.000,195.000=89.000,201.000=178.000,216.000=185.000,219.000=176.000,223.000=179.000,235.000=182.000,245.000=184.000,259.000=176.000,267.000=172.000,271.000=171.000;
#STOPS:;
#BGCHANGES:;

//---------------dance-single - ----------------
#NOTES:
     dance-single:
     aurae:
     Hard:
     8:
     0.539,0.530,0.405,0.193,0.235: // measure 1
0000
0000
0000
0000
,  // measure 2
0000
0000
0000
0000
,  // measure 3
0000
0000
0000
1000
,  // measure 4
0010
1000
0100
0010
0001
0000
0100
0001
,  // measure 5
1000
0000
0010
0000
0100
0010
0100
0000
,  // measure 6
0101
0000
0011
0000
0100
0000
0010
0001
,  // measure 7
0100
0010
1000
0000
0100
1000
0001
0000
,  // measure 8
0010
0000
0001
0100
0001
0000
2000
0000
,  // measure 9
3002
0003
0000
1001
,  // measure 10
1000
0000
1010
0000
0010
0100
0001
0000
,  // measure 11
0100
0001
1000
0010
1000
0010
0100
0000
,  // measure 12
0001
0010
1000
1001
,  // measure 13
0101
0000
0001
0100
0001
0100
0001
0000
,  // measure 14
0100
0110
0010
1010
,  // measure 15
1000
0001
0010
0000
0001
0000
1000
0100
,  // measure 16
0010
0001
0010
0000
0001
0000
0101
0000
,  // measure 17
1001
0000
1100
0000
1000
0000
0100
1000
,  // measure 18
0100
1000
0100
0000
1000
0000
0001
0000
,  // measure 19
1000
0000
0100
0000
0010
0010
0010
0010
,  // measure 20
0010
0010
0010
0000
1100
0000
1001
0000
,  // measure 21
0001
0100
0001
0100
0010
0100
0001
0000
,  // measure 22
0101
0000
0000
0101
0000
0000
1001
0000
0000
1000
0010
1000
,  // measure 23
0100
1000
0001
0020
0000
0000
0031
0000
0000
0010
0000
0000
,  // measure 24
0001
1000
0100
1000
0100
1000
0001
0000
,  // measure 25
1001
0000
1001
0000
0001
0000
0100
0100
,  // measure 26
0100
0100
0100
0100
0100
0000
0101
0000
,  // measure 27
1001
0000
1000
0010
1000
0010
0100
0010
,  // measure 28
1000
0001
0010
0011
,  // measure 29
0001
1000
0001
1000
0001
1000
0001
0000
,  // measure 30
1100
0000
1010
0000
0100
0010
0100
0001
,  // measure 31
1000
0100
0010
0000
0100
0000
1100
0000
,  // measure 32
1002
0000
0000
1003
0001
1000
0010
0000
0000
0100
0000
0001
,  // measure 33
0100
0000
0000
0000
0001
0000
0000
0000
0010
0000
0000
0001
0000
0000
1000
0000
,  // measure 34
0200
0000
0000
1300
0100
1000
0001
0010
0000
0001
0000
0010
,  // measure 35
0001
0000
0000
0000
0000
0000
0000
0000
0100
0000
0000
0000
0000
0000
0000
0000
0000
0000
0000
0000
0001
0000
0000
0000
0100
0000
0000
0000
0000
0000
0000
0000
0000
0010
0000
0000
0000
0000
0000
0000
0000
0000
1000
0000
0000
0000
0000
0000
,  // measure 36
0020
0000
0000
1030
0010
0100
0010
0000
0000
1000
0000
0010
,  // measure 37
1000
0000
0000
0000
0000
0000
0000
0000
0001
0000
0000
0000
0000
0000
0000
0000
0000
0000
0000
0000
0000
0000
0000
0000
0010
0000
0000
0000
0000
0000
0000
0000
0000
0001
0000
0000
0000
0000
0000
0000
0000
0000
0001
0000
0000
0000
0000
0000
,  // measure 38
2000
0000
0000
3001
1000
0100
1000
0001
0000
0010
0000
0001
,  // measure 39
0010
0000
0000
0000
0000
0000
0000
0000
0001
0000
0000
0000
0000
0000
0000
0000
0000
0000
0000
0000
0100
0000
0000
0000
0010
0000
0000
0000
0000
0000
0000
0000
0000
1000
0000
0000
0000
0000
0000
0000
0000
0000
0001
0000
0000
0000
0000
0000
,  // measure 40
0200
0000
0000
0301
0100
0001
0100
0000
0000
0010
0000
1000
,  // measure 41
0010
0000
0000
0000
1000
0000
0000
0000
0001
0000
0000
0010
0000
0000
0100
0000
,  // measure 42
2000
0000
0000
3001
1000
0001
0010
0000
0000
0001
0000
0010
,  // measure 43
0001
0000
0000
0000
0010
0000
0000
0000
0100
0000
0000
1000
0000
0000
0010
0000
,  // measure 44
0000
0000
0000
0100
0000
0000
0000
0000
0000
0000
0000
0000
0002
0000
0000
0000
0000
0000
0000
0000
0000
0000
0000
0000
1003
0000
0000
0000
0001
0000
0000
0000
0100
0000
0000
0000
0001
0000
0000
0000
0000
0000
0000
0000
0000
0000
0000
0000
,  // measure 45
1000
0000
0000
0000
0000
0000
0000
0000
0001
0000
0000
0000
0100
0000
0000
0000
0000
0000
0000
0000
0000
0000
0000
0000
0001
0000
0000
0000
0000
0000
0000
0000
0000
0000
0000
0000
1000
0000
0000
0000
0000
0000
0000
0000
0000
0100
0000
0000
,  // measure 46
0000
0000
0010
0000
0000
0001
0000
0000
1001
0000
0000
0000
0120
0000
0000
0000
,  // measure 47
0130
0010
0100
1000
0000
0000
0001
0000
1000
0001
0000
0100
,  // measure 48
0000
0000
0000
0000
0000
0000
0000
0000
0100
0000
0000
0000
0001
0000
0000
0000
0000
0000
0000
0000
0000
0100
0000
0000
0000
0000
0000
0000
0000
0000
0001
0000
0000
0000
0000
0000
0000
0000
0000
1000
0000
0000
0000
0000
0000
0000
0000
0000
,  // measure 49
0010
0000
0000
0100
0000
0000
0010
0000
0000
1000
0000
0000
0200
0000
1000
0000
,  // measure 50
1300
0000
0100
0000
0100
0000
1000
0000
1000
0000
0001
0010
0200
0000
0000
0000
,  // measure 51
0000
0310
0001
0011
,  // measure 52
1001
2200
3300
0001
,  // measure 53
1000
1000
0001
0000
0100
0000
0100
0000
,  // measure 54
0001
1000
0100
0000
1000
0000
1001
0000
,  // measure 55
0001
0100
0020
0000
1030
0000
0200
0000
,  // measure 56
0300
0002
0003
1001
,  // measure 57
1001
0110
1001
1100
,  // measure 58
1000
0000
0001
0000
0010
0010
0001
0000
,  // measure 59
0010
0000
0100
0000
1000
0100
0020
0000
,  // measure 60
0031
0200
0301
2000
,  // measure 61
3010
1000
0001
0101
,  // measure 62
1001
1001
0000
0001
,  // measure 63
1000
1000
0001
1000
0001
0000
0100
0000
,  // measure 64
0001
1000
0010
0000
0010
0000
1000
0100
,  // measure 65
1000
0000
1010
0000
1000
0001
0100
0000
,  // measure 66
0001
0011
0001
0101
,  // measure 67
0000
0000
0000
1001
,  // measure 68
0000
0000
0000
1100
;

//---------------dance-single - ----------------
#NOTES:
     dance-single:
     aurae:
     Medium:
     5:
     0.387,0.441,0.101,0.239,0.120:
0000
0000
0000
0000
,
0000
0000
0000
0000
,
0000
0000
0000
1000
,
0010
1000
0000
0010
1000
0000
1000
0100
,
1000
0001
1000
0001
,
0100
0000
0100
0000
0001
0000
0010
0001
,
0000
0010
0001
0000
0001
0100
0001
0000
,
1000
0010
1000
0100
,
0100
0000
0000
0010
,
0001
0010
0100
1000
,
0100
0000
1000
0001
1000
0001
1000
0000
,
0001
0000
2002
0000
3003
0000
0001
0010
,
0001
0010
0001
0000
0010
0000
0001
0000
,
0010
0100
1000
0001
,
0100
0000
0010
0000
1000
0000
0001
1000
,
0001
1000
0001
0000
1000
0000
2002
0000
,
3003
0000
1000
0010
1000
0010
1000
0000
,
0010
0100
0001
1000
,
0001
1000
0020
0000
,
0000
0030
1010
1001
,
0001
0100
0001
0100
0001
0000
1000
0000
,
0100
0010
0001
0200
,
0000
0300
0101
1001
,
1000
0100
1000
0100
1000
0000
0001
0000
,
0010
0001
1000
0002
,
0000
0000
0003
1001
,
0011
0000
0100
0010
0100
0010
0100
0000
,
1000
0010
1000
0001
,
2000
0000
0000
3000
,
1001
0000
1010
0000
0010
1000
0010
1000
,
0010
0000
1000
0001
1000
0000
0001
0000
,
2002
0000
0000
0000
0000
0000
3003
0000
0000
0001
0000
0001
,
1000
0000
0000
0000
0000
0000
0000
0000
0000
0000
0000
0000
0000
0000
0000
0000
0010
0000
0000
0000
0000
0000
0000
0000
0000
0000
0000
0000
0000
0000
0000
0000
0100
0000
0000
0000
0000
0000
0000
0000
0000
0000
0000
0000
0100
0000
0000
0000
0000
0000
0000
0000
0000
0000
0000
0100
0000
0000
0000
0000
0000
0000
0000
0000
,
0002
0000
0000
0000
0000
0000
1003
0000
0000
0010
0000
0010
,
1000
0000
0000
0000
0000
0000
0000
0000
0000
0000
0000
0000
0000
0000
0000
0000
0001
0000
0000
0000
0000
0000
0000
0000
0000
0000
0000
0000
0000
0000
0000
0000
1000
0000
0000
0000
0000
0000
0000
0000
0000
0000
0000
0000
0001
0000
0000
0000
0000
0000
0000
0000
0000
0000
0000
1000
0000
0000
0000
0000
0000
0000
0000
0000
,
0020
0000
0000
0000
0000
0000
1030
0000
0000
0010
0000
0010
,
1000
0000
0000
0000
0000
0000
0000
0000
0000
0000
0000
0000
0000
0000
0000
0000
0001
0000
0000
0000
0000
0000
0000
0000
0000
0000
0000
0000
0000
0000
0000
0000
0100
0000
0000
0000
0000
0000
0000
0000
0000
0000
0000
0000
0001
0000
0000
0000
0000
0000
0000
0000
0000
0000
0000
1000
0000
0000
0000
0000
0000
0000
0000
0000
,
0200
0000
0000
0000
0000
0000
0310
0000
0000
0001
0000
0001
,
0010
0000
0000
0000
0000
0000
0000
0000
0000
0000
0000
0000
0000
0000
0000
0000
0100
0000
0000
0000
0000
0000
0000
0000
0000
0000
0000
0000
0000
0000
0000
0000
0010
0000
0000
0000
0000
0000
0000
0000
0000
0000
0000
0000
0001
0000
0000
0000
0000
0000
0000
0000
0000
0000
0000
1000
0000
0000
0000
0000
0000
0000
0000
0000
,
0002
0000
0000
0000
0000
0000
1003
0000
0000
0001
0000
0001
,
1000
0000
0000
0000
0000
0000
0000
0000
0000
0000
0000
0000
0000
0000
0000
0000
0010
0000
0000
0000
0000
0000
0000
0000
0000
0000
0000
0000
0000
0000
0000
0000
1000
0000
0000
0000
0000
0000
0000
0000
0000
0000
0000
0000
0001
0000
0000
0000
0000
0000
0000
0000
0000
0000
0000
1000
0000
0000
0000
0000
0000
0000
0000
0000
,
0020
0000
0000
0000
0000
0000
1030
0000
0000
0010
0000
0010
,
1000
0000
0000
0000
0100
0000
0000
0000
1000
0000
0000
0001
0000
0000
1000
0000
,
0000
0001
0000
0000
2000
0000
0000
0000
0000
0000
0000
0000
3001
0000
0000
0000
,
1000
0000
0000
0000
0000
0000
0000
0000
1000
0000
0000
0000
0001
0000
0000
0000
0000
0000
0000
0000
0000
0000
0000
0000
0010
0000
0000
0000
0000
0000
0000
0000
0000
0000
0000
0000
0100
0000
0000
0000
0000
0000
0000
0000
0000
0010
0000
0000
,
0000
0000
0100
0000
0000
0010
0000
0000
0100
0000
0000
0000
0020
0000
0000
0000
,
0000
0000
0000
0031
0000
0000
0010
0000
0010
0001
0000
0000
,
1000
0000
0000
0000
0001
0000
0000
0100
0000
0000
0010
0000
0000
0100
0000
0000
,
0010
0000
0000
1000
0000
0000
0100
0000
0000
0010
0000
0000
0001
0000
0000
0000
,
0000
0000
0000
0000
,
0000
1000
0001
1000
,
0001
2000
0000
3001
,
1000
0010
0100
0010
,
1000
0001
0100
0100
,
0001
0100
0002
0000
0003
0000
2000
0000
,
3000
0002
0003
1000
,
0001
1000
0001
2000
,
0000
3001
1000
0001
,
0100
0000
0010
0000
1000
0010
1000
0000
,
0010
1000
1000
0001
,
1000
0001
0000
0001
,
0100
0020
0000
1030
,
0010
0010
1000
0001
,
0000
0001
1000
0100
,
0000
1000
0001
1000
,
0001
0010
0001
0200
,
0000
0000
0300
0002
,
0000
0000
0003
2000
,
0000
0000
3000
0000
;

//---------------dance-single - ----------------
#NOTES:
     dance-single:
     aurae:
     Easy:
     2:
     0.183,0.221,0.037,0.092,0.000:
0000
0000
0000
0000
,
0000
0000
0000
0000
,
0000
0000
0000
1000
,
0000
0001
0100
0000
,
0001
0001
0000
0001
,
1000
0000
0001
0000
,
0001
1000
0000
1000
,
0100
0000
1000
0010
,
0000
1000
0000
0001
,
0000
0010
0000
0100
,
0000
1000
0000
0100
,
0000
0010
0000
0001
,
0000
0001
0000
1000
,
0000
1000
0000
1000
,
0000
0010
0000
0001
,
0000
0010
0000
0100
,
0000
1000
0000
1000
,
0000
0001
0000
0001
,
0000
0020
0000
0000
,
0000
0030
0100
0001
,
0000
1000
0000
0100
,
0000
1000
0020
0000
,
0000
0030
1000
0000
,
0001
0000
0100
0000
,
0001
0000
2000
0000
,
0000
0000
3000
0001
,
0100
0000
0001
0000
,
1000
0000
0001
0200
,
0000
0000
0000
0000
,
0300
1000
0000
0010
,
0000
1000
0100
0000
,
2000
0000
0000
3000
,
0100
0000
0010
0000
,
1000
0000
0100
0000
,
1001
0000
0000
0000
,
0001
0000
0010
0000
,
0100
0000
0010
0000
,
0001
0000
1000
0000
,
0110
0000
0000
0000
,
0010
0000
0100
0000
,
0010
0000
1000
0000
,
0001
0000
0100
0000
,
0001
0000
2000
0000
,
3000
0001
0000
0100
,
0000
0010
0000
0200
,
0000
0000
0300
0001
,
0000
1000
0000
0100
,
0000
2000
0000
0000
,
0000
3000
0000
1001
,
0000
0000
0000
0000
,
0000
0010
0000
0010
,
0000
0100
0000
0000
,
0000
0100
0000
0001
,
0001
0001
0000
1000
,
0000
0010
0000
0100
,
0000
0010
0000
1000
,
0000
1000
0000
1000
,
0000
0001
0000
0100
,
0000
0001
0001
0001
,
0000
1000
0000
0100
,
0000
1000
0000
0010
,
0010
0010
0000
1000
,
0000
0100
0000
1000
,
0000
0001
0000
0001
,
0000
0001
1000
1000
,
1000
1000
0001
1000
,
0000
0000
0000
0001
,
0000
0000
0000
2002
,
0000
0000
3003
0000
;
