#TITLE:ALL WE NEED IS A LITTLE ENERGON,;
#SUBTITLE:AND A LOT OF LUCK;
#ARTIST:Meet me in St. Louis;
#TITLETRANSLIT:;
#SUBTITLETRANSLIT:;
#ARTISTTRANSLIT:;
#GENRE:;
#CREDIT:aurae;
#BANNER:energon.png;
#BACKGROUND:energon-bg.png;
#LYRICSPATH:energon.lrc;
#CDTITLE:!auraelogo_new.png;
#MUSIC:energon.mp3;
#OFFSET:-0.286;
#SAMPLESTART:53.680;
#SAMPLELENGTH:25.640;
#SELECTABLE:YES;
#BPMS:0.000=196.000
,8.000=173.000
,17.000=181.000
,20.000=173.000
,26.000=186.000
,28.000=198.000
,36.000=194.000
,44.000=160.000
,53.000=184.000
,56.000=165.000
,62.000=175.000
,64.000=199.000
,69.000=195.000
,72.000=173.000
,74.000=197.000
,90.000=198.000
,114.000=176.000
,138.000=180.000
,140.000=185.000
,162.500=154.000
,164.000=185.000
,168.000=192.000
,180.000=196.000
,202.000=190.000
,240.000=198.000
,245.000=193.000
,246.000=195.000
,274.000=197.000
,286.000=199.000
,292.000=193.000
,318.000=180.000
;
#STOPS:
;
#BGCHANGES:-0.100=energon.avi=1.000=1=0=1===CrossFade==,
330.000=energon-bg.png=1.000=0=0=1=====,
99999=-nosongbg-=1.000=0=0=0 // don't automatically add -songbackground-
;
#KEYSOUNDS:;
#ATTACKS:;

//---------------dance-single - ----------------
#NOTES:
     dance-single:
     :
     Hard:
     9:
     0.602,0.615,0.335,0.252,0.000,389.000,36.000,27.000,0.000,0.000,0.000,0.602,0.615,0.335,0.252,0.000,389.000,36.000,27.000,0.000,0.000,0.000:
0000
0000
0000
0000
,
0000
0000
0000
0000
,
0001
0000
0000
0010
0000
0000
0001
0000
,
0000
0010
0000
0000
0001
0000
0000
0010
,
0000
0000
0001
0100
0010
1000
0100
1000
,
0010
0000
0000
1000
0000
0000
0010
0000
,
0000
1000
0000
0000
0010
0000
1000
0000
,
1010
0000
0010
0100
0010
0100
0001
0100
,
0001
1000
0200
0000
0000
0000
0300
0000
,
0100
1000
0001
0010
0001
0100
0010
1000
,
0001
0000
0001
0100
0010
0000
0100
0000
,
0102
0000
0000
2003
0000
0000
3020
0000
,
0000
0230
0000
0000
0302
0000
0000
0103
,
0000
0000
0001
1000
0100
0010
0001
1000
,
0200
0000
0000
2300
0000
0000
3002
0000
,
0000
0013
0000
0000
0010
0000
0011
0000
,
1001
1000
0001
1000
,
0001
0000
0010
0100
1000
0100
0001
0100
,
0001
0000
0000
0000
0110
0000
0001
0010
,
1000
0010
0100
1000
0001
0000
0100
0000
,
0001
0101
1002
0100
,
1003
0000
0001
0000
1000
0010
0100
0000
,
0010
1000
0100
1000
0001
0000
0100
0000
,
0001
0010
0001
1000
0100
0000
1000
0000
,
1000
0000
0010
0000
0100
0010
1000
0100
,
1000
0001
0100
0010
0100
0000
0010
0000
,
0100
0000
0100
0000
0101
0000
0001
1000
,
0001
0100
0001
1000
,
1001
0000
0110
0000
1001
0000
0000
1000
,
0000
0000
0001
0000
0000
0010
0000
0000
,
0010
0000
0010
0001
0000
0001
1000
0000
,
1000
0010
0000
0010
0100
0000
0100
0010
,
0000
1000
0010
0100
0010
1000
0000
1000
,
0001
0100
0001
0010
0000
0010
0100
0000
,
0100
1000
0000
1000
0100
0000
1001
0000
,
0001
0100
0001
0100
0010
0100
0001
1000
,
0001
1000
0100
1000
0100
1000
0010
0100
,
0010
0100
0001
1000
0001
1000
0100
1000
,
1100
0000
1000
0001
0000
0000
0101
0000
,
0001
0010
0000
0000
0011
0000
0001
1000
,
0000
0000
1010
0000
1000
0010
0000
0000
,
0100
0101
0101
1001
,
0001
1000
0010
0000
1010
0000
0100
0000
,
0010
1010
1010
1001
,
1000
0100
0001
0000
0100
0010
0001
0000
,
0001
0010
0001
0010
0001
0010
0100
0010
,
0100
0000
0010
0000
0100
0010
0001
0000
,
1000
0100
1000
0100
1000
0100
1000
0000
,
0010
1000
0100
0000
1000
0001
0100
0000
,
0001
1000
0100
0000
1000
0100
1000
0010
,
0100
0010
0100
0000
0020
0000
0030
0000
,
1000
0001
0001
0001
,
0010
0001
0001
0010
,
0001
0001
0001
0001
,
0100
0001
0001
1000
,
0010
0010
0010
0010
,
0100
0001
0001
0100
,
0010
0010
0010
0010
,
1000
0100
0100
1000
,
0001
0001
0001
0001
,
0010
0000
0011
1001
,
1000
0001
1000
0000
0101
0000
0101
0000
,
0001
0010
0001
0100
0010
1000
0100
1000
,
0001
0100
0001
1000
0100
0000
1100
0000
,
1001
0000
0011
0000
1001
0000
1000
0100
,
0010
0001
0010
0001
0200
0001
0000
0000
,
0301
0000
0002
1000
0000
0000
1003
0000
,
2000
0010
0000
0000
3010
0000
0200
1000
,
0000
0000
1300
0000
2000
0001
0000
0000
,
3001
0000
0002
0010
0000
0000
0013
0000
,
0200
0300
0100
0001
,
1000
0000
0001
0000
0010
0001
0000
0001
,
0010
0001
0010
0001
0000
1000
0100
1000
,
0020
0000
0000
0000
1030
0000
2000
0001
,
0000
0000
3001
0000
0002
0010
0000
0000
,
0013
0000
0020
0100
0000
0000
0130
0000
,
2000
0100
0000
0000
3100
0000
0020
0001
,
0000
0031
2000
3000
,
1000
0001
0100
0010
,
1010
1000
0001
0100
0101
0000
0001
0000
,
0001
0000
0001
0000
0011
0001
1000
0100
,
1100
0000
1000
0100
0010
0001
1000
0000
,
2002
0000
3003
0000
;

//---------------dance-single - ----------------
#NOTES:
     dance-single:
     :
     Medium:
     6:
     0.493,0.538,0.289,0.354,0.000,301.000,31.000,38.000,0.000,0.000,0.000,0.493,0.538,0.289,0.354,0.000,301.000,31.000,38.000,0.000,0.000,0.000:
0000
0000
0000
0000
,
0000
0000
0000
0000
,
1000
0000
0000
0001
0000
0000
1000
0000
,
0000
0001
0000
0000
1000
0000
0000
0001
,
0000
0001
0010
0100
,
1000
0000
0000
0010
0000
0000
0100
0000
,
0000
0010
0000
0000
1000
0000
0010
0000
,
1000
0000
0100
1000
0100
1000
0100
1000
,
0100
1100
0000
0000
,
1001
0001
0010
0001
,
0100
0010
1000
0100
,
0020
0000
0000
0030
0000
0000
0002
0000
,
0000
0003
0000
0000
0200
0000
0000
0300
,
0000
0000
0100
0001
0100
0001
0010
0000
,
0200
0000
0000
0300
0000
0000
2000
0000
,
0000
3000
0000
0000
0010
0000
1000
0000
,
1010
1001
0001
1000
,
0001
0000
0000
0000
0000
0000
0001
1000
,
0001
0000
0000
0000
1000
0000
0010
0100
,
0001
0000
0001
1000
0010
0000
0010
1000
,
0001
0010
0020
0000
,
0031
0000
0001
0010
0100
0000
2000
0000
,
3000
0000
0002
0000
0103
0000
0001
1000
,
0010
0000
0010
0100
0001
0000
0001
1000
,
0100
0100
2000
0000
,
3001
0000
0001
0010
0100
0000
2000
0000
,
3000
0000
0002
0000
0013
0000
0001
1000
,
0100
0000
0100
0010
0100
0000
0010
0100
,
1000
0000
0001
0000
1001
0000
0000
1010
,
0000
0000
0110
0000
0000
1010
0000
0000
,
2000
0000
0000
0100
0000
0000
0010
0000
,
0000
0001
0000
0000
0100
0000
0000
3010
,
0000
0000
0002
0000
0000
0100
0000
0000
,
0010
0000
0000
1000
0000
0000
0100
0000
,
0000
1003
0000
0000
1001
0000
0110
0000
,
1001
0010
0100
0001
,
1000
0100
1000
0001
,
0010
1000
0001
0010
,
0101
0000
0000
1001
0000
0000
1010
0000
,
0000
0110
0000
0000
0101
0000
0000
1001
,
0000
0000
1100
0000
0000
1001
0000
0000
,
0001
0010
0010
0010
,
0001
0010
0100
0000
0010
0000
0010
0000
,
0001
1000
0001
0000
1000
0000
1000
0000
,
0100
1000
0100
0000
1000
0000
0000
0000
,
0010
1000
0010
0000
1000
0000
0001
0000
,
0100
0001
0100
0000
0001
0000
0010
0000
,
0100
1000
0100
0000
1000
0000
0001
1000
,
0001
1000
0100
0000
1100
0000
1001
0000
,
0101
0001
0100
0010
,
1000
0100
0010
0000
0001
0000
0010
0000
,
0002
0000
0013
0001
,
0001
1000
0100
0000
1000
0000
0020
0000
,
0000
0000
1030
0000
0010
0000
0010
0100
,
0001
1000
0010
0200
,
0000
0000
0301
0000
0100
0000
0100
0010
,
1000
0001
1000
0020
,
0000
0000
1030
0000
0010
0000
0010
1000
,
0001
1000
0100
2000
,
0000
3001
1000
0001
,
0100
0000
0001
0100
,
0001
0100
0001
0000
0101
0000
1001
0000
,
1001
0000
1100
0000
1000
0100
0010
0000
,
0001
0010
0100
1000
0100
0000
1100
0000
,
1001
0000
1001
0000
0011
0000
0001
0100
,
0001
1000
0020
0000
,
1030
0200
0000
1300
,
0002
0000
0013
2000
,
0000
3001
0200
0000
,
1300
0020
0000
0130
,
0002
0000
1003
0002
,
0000
0000
0103
0000
0001
0100
0000
0100
,
0001
0100
0001
0100
0000
0001
1000
0001
,
2000
0000
3010
0200
,
0000
0301
2000
0000
,
3100
0002
0000
1003
,
0020
0000
0031
2000
,
0000
3010
0200
0000
,
0301
2000
0000
3001
,
1000
0001
1000
0001
1000
0000
0020
0000
,
0000
0000
0030
0000
0100
0010
0100
0010
,
0100
0002
0000
0003
,
2200
0000
3300
0000
;

//---------------dance-single - ----------------
#NOTES:
     dance-single:
     :
     Easy:
     4:
     0.241,0.267,0.019,0.280,0.000,149.000,2.000,30.000,0.000,0.000,0.000,0.241,0.267,0.019,0.280,0.000,149.000,2.000,30.000,0.000,0.000,0.000:
0000
0000
0000
0000
,
0000
0000
0000
0000
,
0002
0000
0000
0003
0000
0000
2000
0000
,
0000
3000
0000
0000
0002
0000
0000
0003
,
0000
1000
0001
1000
,
0002
0000
0000
0003
0000
0000
2000
0000
,
0000
3000
0000
0000
0001
0000
0001
0000
,
0001
0100
0000
0000
,
0000
0001
0000
0000
,
1000
0000
1000
0000
,
0010
0000
1000
0000
,
0002
0000
0000
0000
0000
0003
2000
0000
,
0000
0000
0000
3000
0002
0000
0000
0000
,
0000
0003
1000
0000
1000
0000
1000
0000
,
0002
0000
0000
0000
0000
0003
2000
0000
,
0000
0000
0000
3000
0001
0000
0001
0000
,
0001
0100
0001
0100
,
0001
0100
0000
0001
,
0000
0000
0001
0000
,
1000
0000
1000
0000
,
0010
0000
0200
0000
,
0000
0300
0001
0000
,
0000
0000
0001
0000
,
0100
0000
0010
0000
,
1000
0000
0020
0000
,
0000
0030
1000
0000
,
0000
0000
0001
0000
,
1000
0000
1000
0000
,
0001
0000
0000
0000
2000
0000
0000
3000
,
0000
0000
0002
0000
0000
0003
0000
0000
,
1000
0000
0000
1000
0000
0000
1000
0000
,
0000
1000
0000
0000
1000
0000
0000
1000
,
0000
0000
0001
0000
0000
0001
0000
0000
,
0001
0000
0000
0001
0000
0000
0001
0000
,
0000
0001
0000
0000
0100
0000
0000
0000
,
0100
0000
0100
0000
,
0001
0000
0001
0000
,
1000
0000
1000
0000
,
0010
0000
0000
0010
0000
0000
1000
0000
,
0000
1000
0000
0000
0010
0000
0000
0010
,
0000
0000
1000
0000
0000
1000
0000
0000
,
0001
0000
0001
0000
,
0100
0000
0100
0000
,
0001
0000
0001
0000
,
1000
0000
1000
0000
,
0001
0000
0010
0000
,
0100
0000
0010
0000
,
0001
0000
1000
0000
,
0100
0000
1000
0000
,
0010
0000
0100
0000
,
0010
0000
1000
0000
,
0001
0000
0000
0000
,
0001
0000
0000
1000
,
0000
0000
0000
0000
,
1000
0000
0000
0100
,
0000
0000
0000
0000
,
0100
0000
0000
0010
,
0000
0000
0000
0000
,
0010
0000
0000
0001
,
0000
0000
0000
0000
,
1001
0000
0001
1000
,
0001
0000
0001
0000
,
0001
0000
1000
0000
,
1000
0000
0100
0000
,
0100
0000
1000
1000
,
0001
0001
2000
0000
,
3000
0002
0000
0003
,
0200
0000
0300
0020
,
0000
0030
2000
0000
,
3000
2000
0000
3000
,
0002
0000
0003
0200
,
0000
0300
0001
0000
,
0001
0000
1000
1000
,
0002
0000
0003
2000
,
0000
3000
0020
0000
,
0030
0200
0000
0300
,
0002
0000
0003
0020
,
0000
0030
0200
0000
,
0300
2000
0000
3000
,
0001
0001
0001
0000
,
0000
0000
1000
1000
,
1000
0000
0000
0000
,
1001
0000
0000
0000
;
