#TITLE:ARIEL;
#SUBTITLE:;
#ARTIST:STATELESS;
#TITLETRANSLIT:;
#SUBTITLETRANSLIT:;
#ARTISTTRANSLIT:;
#CREDIT:aurae;
#BANNER:ariel.png;
#BACKGROUND:ariel-bg.png;
#LYRICSPATH:;
#CDTITLE:!auraesimfilesmix.png;
#MUSIC:ariel.mp3;
#OFFSET:0.003;
#SAMPLESTART:34.960;
#SAMPLELENGTH:18.660;
#SELECTABLE:YES;
#DISPLAYBPM:103.000;
#BPMS:0.000=103.000,90.000=102.000,92.000=103.000,120.000=102.000,124.000=103.000;
#STOPS:;
#BGCHANGES:-0.250=ariel.avi=1.000=1=0=0,
188.000=ariel-bg.png=1.000=1=0=0,
99999=-nosongbg-=1.000=0=0=0 // don't automatically add -songbackground-
;

//---------------dance-single - aurae----------------
#NOTES:
     dance-single:
     aurae:
     Hard:
     8:
     0.515,0.499,0.027,0.037,0.264: // measure 1
0000
0000
0000
0000
,  // measure 2
0000
0000
0000
0000
,  // measure 3
0000
0000
0000
0000
,  // measure 4
0001
0100
0000
0001
0010
0000
0100
1000
,  // measure 5
0001
0010
0010
0001
1000
0100
0100
1000
,  // measure 6
0001
0100
0000
0001
0010
0000
0001
1000
,  // measure 7
0100
1000
1000
0010
0100
0001
1000
0001
,  // measure 8
0100
0000
0001
1000
0010
0000
0100
0010
,  // measure 9
1000
0001
0100
0100
0001
1000
0100
1000
,  // measure 10
0010
0000
0100
0001
0010
0001
0000
0100
,  // measure 11
0010
1000
1000
0001
0100
0010
1000
0100
,  // measure 12
1000
0000
0001
0010
0001
0100
0010
1000
,  // measure 13
0001
0100
0100
0001
0010
0001
0100
0010
,  // measure 14
2000
0000
3001
0000
0001
1000
0100
0010
,  // measure 15
0100
1000
1010
0000
,  // measure 16
0100
0000
0001
0000
1000
0001
1000
0001
1000
0000
0100
0000
0010
0000
0100
0000
,  // measure 17
0010
0000
0000
0001
0010
0000
0001
0000
0001
0000
0000
0000
1000
0000
0000
0000
,  // measure 18
0001
0000
0100
0000
0001
0010
0001
0010
0001
0000
1000
0000
0010
0000
0100
0000
,  // measure 19
0001
0000
0000
1000
0100
0000
1000
0000
1000
0000
0001
0000
0100
0000
0000
0000
,  // measure 20
0010
0000
0000
0000
0100
0010
0100
0010
0100
0000
0001
0000
1000
0000
0100
0000
,  // measure 21
0010
0000
0000
0100
0010
0000
0100
0000
1000
0000
0010
0000
0010
0000
0000
0000
,  // measure 22
0100
0000
0000
0000
0001
0100
0001
0100
0001
0000
0010
0000
0001
0000
1000
0000
,  // measure 23
0001
0000
0000
0001
1000
0000
0000
1000
0001
0000
0000
0000
0100
0000
0000
0000
,  // measure 24
0001
0010
0100
1000
0000
0001
0010
0100
,  // measure 25
1000
0010
0100
0001
2000
0000
3100
1000
,  // measure 26
0010
1000
0100
0010
0000
0010
0001
0100
,  // measure 27
0010
0000
1000
0100
1100
0000
0000
0001
,  // measure 28
1000
0000
0100
1000
0100
0000
1000
0000
0010
0000
0000
0000
0010
0000
0100
0000
,  // measure 29
0001
0000
0010
0001
0010
0000
0100
0000
1000
0000
0000
0000
0001
0000
0100
0000
,  // measure 30
0010
0000
0100
0001
0100
0000
0010
0000
1000
0000
0100
0000
1000
0000
0001
0000
,  // measure 31
0100
0000
0000
0000
,  // measure 32
0001
0000
0000
1000
0000
0000
0010
0000
0000
1000
0000
0000
1000
0000
0000
0000
0000
0000
0001
0000
0100
0000
0001
0000
,  // measure 33
0100
0010
1000
1000
0001
0000
0100
0001
,  // measure 34
0010
0000
0000
0000
0000
0000
0100
0000
0000
1000
0000
0000
0001
0000
0000
0100
0000
0000
0001
0000
1000
0000
0001
0000
,  // measure 35
1000
0100
0010
0001
0001
0000
0010
0001
,  // measure 36
2200
0000
0000
3300
0000
0000
1000
0000
0000
0100
0000
0000
0010
0000
0000
0100
0000
0000
1000
0000
0010
0000
1000
0000
,  // measure 37
0010
0100
0001
0010
0010
0000
0001
0100
,  // measure 38
0010
0000
1000
0001
0100
0100
0001
1000
,  // measure 39
0100
0000
0000
0000
,  // measure 40
1000
0000
0001
0000
0010
0001
0010
0001
0010
0000
0001
0000
0100
0000
0010
0000
,  // measure 41
1000
0000
0000
0010
0000
1000
0010
0000
0100
0000
0001
0000
0001
0000
0000
0000
,  // measure 42
1000
0000
0001
0000
0100
0010
0100
0010
0100
0000
0010
0000
1000
0000
0001
0000
,  // measure 43
0100
0000
0000
0001
0000
0100
0001
0000
0010
0000
0001
0000
1000
0000
0100
0000
,  // measure 44
0010
0000
0000
0000
0001
0100
0001
0100
0001
0000
1000
0000
0010
0000
0010
0000
,  // measure 45
0100
0000
0000
0010
0000
1000
0100
0000
0010
0000
0001
0000
1000
0000
1000
0000
,  // measure 46
0100
0000
0000
0000
1000
0001
1000
0001
1000
0000
0001
0000
0010
0000
0001
0000
,  // measure 47
0100
0000
0000
0000
;

//---------------dance-single - aurae----------------
#NOTES:
     dance-single:
     aurae:
     Medium:
     5:
     0.300,0.294,0.027,0.018,0.000:
0000
0000
0000
0000
,
0000
0000
0000
0000
,
0000
0000
0000
0000
,
1000
0001
1000
0000
0001
0000
0100
0001
,
0100
0000
0000
0000
0001
0010
0100
1000
,
0010
1000
0010
0000
1000
0000
0001
0100
,
0001
0000
0000
0000
1000
0100
1000
0100
,
0010
0000
0001
0100
0010
0000
1000
0100
,
0010
0000
0001
0000
0010
0001
0010
0001
,
0100
0000
0001
1000
0010
0000
1000
0001
,
0100
0000
0001
0000
1000
0001
1000
0001
,
0100
0000
0010
1000
0100
0000
0100
1000
,
0001
0010
0010
0000
0001
0100
0010
0000
,
1000
1000
0001
0001
,
0100
0100
0001
0000
,
1000
0001
0010
0000
0001
0100
0100
0001
,
1000
0100
0010
0001
,
1000
0100
1000
0000
0010
0000
0100
0010
,
1000
1000
0001
0001
,
1001
0000
0100
0001
0010
0001
0100
0000
,
0010
1000
0100
0010
0001
0000
0100
0000
,
0010
0000
1000
0010
1000
0010
0100
0010
,
1000
0010
0100
0100
,
0002
0010
0000
0010
,
0003
0000
0010
0001
0100
0000
0010
1000
,
0100
1000
0020
0000
1000
0000
0000
0000
,
1030
0000
1010
0000
,
0010
0100
0001
0010
0100
0000
0010
0000
,
0001
0100
0001
0000
1000
0000
0010
1000
,
0010
1000
0100
0000
1000
0000
0001
0100
,
0010
0000
0000
0000
,
1000
0100
0010
0000
0001
0000
0010
0100
,
1000
0010
0100
0001
,
1000
0001
1000
0001
1000
0000
0001
0000
,
0100
0000
0100
0000
0001
0000
0010
0001
,
0100
0000
0000
0000
0001
0100
0001
1000
,
0100
0000
1000
0000
0001
0000
0010
0001
,
0100
0000
0001
0000
0010
0001
0100
0010
,
1000
1000
0010
0010
1000
0000
0010
0000
,
1010
0000
1000
0001
0100
0000
0001
0000
,
0100
0000
0001
1000
0100
1000
0001
0000
,
0100
0000
0010
1000
0100
0000
1000
0000
,
0001
0000
0010
0001
0100
0001
0010
0100
,
1000
0000
0001
0100
0001
0000
1000
0000
,
0010
0000
0100
0010
1000
0100
1000
0000
,
0010
0000
0100
0001
0010
0000
0001
0000
,
1000
0000
0000
0000
;

//---------------dance-single - aurae----------------
#NOTES:
     dance-single:
     aurae:
     Easy:
     2:
     0.141,0.168,0.055,0.000,0.000:
0000
0000
0000
0000
,
0000
0000
0000
0000
,
0000
0000
0000
0000
,
0001
0000
1000
0000
,
0100
0000
0000
0000
,
1000
0000
0001
0000
,
0100
0000
0000
0000
,
0001
0000
0010
0000
,
0001
0000
0010
0000
,
0001
0000
1000
0000
,
0100
0000
1000
0000
,
0010
0000
0100
0000
,
0010
0000
1000
0000
,
0001
0000
0001
0000
,
0001
0000
0001
0000
,
1001
0000
1000
0000
,
0100
0100
0100
0000
,
1000
0000
0001
0000
,
0010
0010
0010
0010
,
0010
0000
0010
0000
,
0001
0001
0100
0100
,
0001
0000
1000
1000
,
1000
0000
0001
0000
,
1000
0000
0000
0000
,
0000
0000
0001
0001
,
0001
0000
0000
0000
,
0100
0000
0001
0000
,
1001
0000
0100
0000
,
1001
0000
0010
0000
,
1001
0000
0100
0000
,
1001
0000
0000
0000
,
0010
0010
0010
0000
,
0001
0001
0001
0000
,
1000
0001
1000
0000
,
0001
1000
0001
0000
,
1100
0000
0001
0000
,
1000
0100
1000
0000
,
0010
0000
0100
0000
,
0001
0001
0001
0001
,
0001
0000
0010
0001
,
0010
0000
0001
1000
,
0100
0000
1000
1000
,
0001
0000
0010
0001
,
0100
0000
0100
0001
,
1000
0000
0100
1000
,
0010
0000
0010
1000
,
0001
0000
0000
0000
;
