#TITLE:ultraviolent junglist;
#SUBTITLE:;
#ARTIST:VENETIAN SNARES;
#TITLETRANSLIT:;
#SUBTITLETRANSLIT:;
#ARTISTTRANSLIT:;
#GENRE:;
#CREDIT:;
#MENUCOLOR:;
#METERTYPE:DDR;
#BANNER:ultraviolentjunglist.png;
#BACKGROUND:ultraviolentjunglist-bg.png;
#LYRICSPATH:;
#CDTITLE:!auraesimfilesmix2.png;
#MUSIC:ultraviolentjunglist.mp3;
#OFFSET:0.010;
#SAMPLESTART:25.235;
#SAMPLELENGTH:16.780;
#SELECTABLE:YES;
#LISTSORT:;
#DISPLAYBPM:200.000;
#BPMS:0.000=200.000;
#STOPS:163.000=1.200
;
#BGCHANGES:;
#ATTACKS:;

//---------------dance-single - aurae----------------
#NOTES:
     dance-single:
     aurae:
     Easy:
     6:
     0.446,0.676,0.186,0.195,0.060: // measure 1
0000
0000
0000
0000
,  // measure 2
0000
0000
0000
0000
,  // measure 3
0000
0000
0000
0000
,  // measure 4
0000
0000
0000
0000
,  // measure 5
0000
0000
0000
0000
,  // measure 6
0000
0000
0000
0000
,  // measure 7
0000
0000
0000
0000
,  // measure 8
0001
1000
1000
0100
,  // measure 9
1000
0010
0010
0100
,  // measure 10
0010
1000
1000
0001
,  // measure 11
0000
0001
0100
0100
,  // measure 12
0001
1000
0010
0100
,  // measure 13
0010
1000
0100
0010
,  // measure 14
0001
1000
0000
0000
,  // measure 15
0001
0001
0010
0010
,  // measure 16
0001
1000
0100
1000
,  // measure 17
1000
0100
1000
0010
,  // measure 18
0000
0010
1000
1000
,  // measure 19
0100
1000
0001
0100
,  // measure 20
0001
1001
0000
1001
,  // measure 21
0000
0000
0000
0000
,  // measure 22
0001
0010
0010
0001
,  // measure 23
0100
0000
0100
0000
0001
1000
0001
0000
,  // measure 24
1000
1000
1000
0010
,  // measure 25
0100
0000
0010
1000
0010
0000
1000
0000
,  // measure 26
0100
0000
1000
0000
0001
1000
0001
0000
,  // measure 27
0100
0000
0010
0000
1000
0001
1000
0000
,  // measure 28
0000
0001
0001
0001
,  // measure 29
1001
0000
1000
0000
0100
1000
0010
0000
,  // measure 30
1000
0000
0100
0000
0100
0000
1000
0001
,  // measure 31
1000
0001
1000
0001
1000
1000
0001
0000
,  // measure 32
0100
0001
0100
0100
,  // measure 33
0020
0000
1030
0010
,  // measure 34
0001
0000
0000
0000
0100
0000
0000
0001
0000
0000
0100
0000
0001
0000
0000
0000
,  // measure 35
0001
0100
0000
0000
,  // measure 36
1001
0000
0001
0100
0001
0000
0100
0000
,  // measure 37
1001
0000
0000
0110
0000
0000
1001
0000
,  // measure 38
1000
0001
0100
0100
,  // measure 39
0100
0001
2000
0000
,  // measure 40
0000
0000
0000
0000
,  // measure 41
0000
0000
3000
0000
,  // measure 42
0001
0100
0001
0100
0001
0000
0010
0000
,  // measure 43
0100
0000
1000
0000
0010
0000
1000
0001
,  // measure 44
1000
0001
1000
0000
0010
0000
0100
0000
,  // measure 45
0001
0100
0010
1000
,  // measure 46
0001
0000
0000
0100
0000
0000
0001
0000
1000
0000
0000
0000
0002
0000
0000
0000
,  // measure 47
0000
0000
0000
0000
,  // measure 48
0000
0003
0000
0000
,  // measure 49
1000
0000
0010
1000
0010
0000
1000
0000
,  // measure 50
0001
0000
0100
0000
0100
0000
0010
1000
,  // measure 51
0000
0001
0010
0000
0001
0100
0000
0001
,  // measure 52
2000
0000
3001
0200
,  // measure 53
0000
0310
0010
1010
,  // measure 54
1001
0000
0000
0000
0001
0000
0000
1000
0000
0000
0010
0000
0100
0000
0000
0001
,  // measure 55
0000
1000
0020
0000
0000
0000
0030
0000
,  // measure 56
1001
0000
0001
0100
0001
0000
1000
0000
,  // measure 57
0010
0000
0000
0000
0010
0000
0000
0000
0100
0000
0000
0000
0001
0000
0000
0010
,  // measure 58
0000
0000
0100
0000
1000
0000
0000
0100
0000
0000
0010
0000
0001
0000
0000
0000
,  // measure 59
0100
0010
1000
1002
,  // measure 60
0003
2001
0000
3000
1002
0000
0003
2001
,  // measure 61
0000
3000
0001
1000
0100
0000
1000
0001
,  // measure 62
0100
0010
1000
0001
,  // measure 63
0010
0000
0000
0000
0100
0000
0000
0000
1000
0000
0000
0010
0000
0000
0100
0000
,  // measure 64
0001
0000
0000
1000
,  // measure 65
0010
0000
1000
0100
1000
0000
0001
0000
,  // measure 66
0000
0000
0000
0000
0100
0000
0000
0000
0001
0000
0000
1000
0000
0000
0010
0000
,  // measure 67
0000
1000
0000
0000
0001
0000
0000
0000
0100
0000
0000
0000
0010
0000
0000
0000
,  // measure 68
1000
0100
0010
0002
,  // measure 69
0000
0003
0000
0000
0000
0000
0000
0000
,  // measure 70
2001
0000
0000
0000
3000
0000
0001
0000
0000
0100
0000
0000
0020
0000
0000
0000
,  // measure 71
0000
0000
0000
0000
0000
0000
0000
0000
0000
0000
0000
0000
1030
0000
0000
0010
,  // measure 72
0000
0100
0010
0000
0000
0000
2200
0000
,  // measure 73
0000
0000
3300
0000
2002
0000
0000
3000
,  // measure 74
0200
0000
0000
0000
,  // measure 75
0303
0000
1001
0000
0000
0011
0000
0000
,  // measure 76
0001
0100
0001
0000
1000
0000
0100
1000
,  // measure 77
0010
0000
0000
1000
0000
0000
0100
0000
0000
1000
0000
0000
0100
0000
0000
0000
,  // measure 78
0010
0001
0010
1001
,  // measure 79
0000
0000
0000
0000
,  // measure 80
0000
0000
0000
0000
1000
0010
1000
0001
,  // measure 81
1000
0001
0100
0010
0100
0001
1000
0001
,  // measure 82
2000
0000
3001
1000
0001
0100
0010
0100
,  // measure 83
0001
0010
0001
1000
0100
1000
0020
0000
,  // measure 84
1030
0001
1000
0001
,  // measure 85
1000
0001
1000
0020
,  // measure 86
0000
0000
0030
0000
;

//---------------dance-single - aurae----------------
#NOTES:
     dance-single:
     aurae:
     Medium:
     9:
     0.633,0.676,0.297,0.223,0.181: // measure 1
0000
0000
0000
0000
,  // measure 2
0000
0000
0000
0000
,  // measure 3
0000
0000
0000
0000
,  // measure 4
0000
0000
0000
0000
,  // measure 5
0000
0000
0000
0000
,  // measure 6
0000
0000
0000
0000
,  // measure 7
0000
0000
0000
0000
,  // measure 8
0001
0010
0001
1000
0010
1000
0001
0100
,  // measure 9
0100
0010
1000
0100
1000
0000
0020
0000
,  // measure 10
2030
0000
3001
1000
0100
1000
0001
0000
,  // measure 11
0100
0000
0101
0000
1001
0000
1000
0010
,  // measure 12
0100
0010
1000
0001
0010
0100
1000
0000
,  // measure 13
0100
0010
0001
0000
0100
0000
0010
0000
,  // measure 14
1000
0000
0001
0001
1000
1000
0001
0001
,  // measure 15
0100
0000
0010
1000
0100
1000
0001
0010
,  // measure 16
0001
0100
0010
1000
0100
0000
1100
0000
,  // measure 17
1000
0001
0010
0010
0001
1000
0010
1000
,  // measure 18
1000
0000
1010
0000
1001
0000
0001
0010
,  // measure 19
0001
0010
0001
1000
0010
0000
1000
0000
,  // measure 20
0001
0100
0010
0000
0010
0000
0010
0000
,  // measure 21
0010
0000
0000
0000
,  // measure 22
1001
0000
0001
0100
0010
0100
0001
1000
,  // measure 23
0010
0100
0010
1000
0100
0100
1000
0000
,  // measure 24
0001
0000
0000
0010
0000
0000
0001
0000
0000
0100
0000
0000
0011
0000
0000
0000
,  // measure 25
1001
0000
0110
0000
0010
1000
0100
1000
,  // measure 26
0001
0000
1000
0000
1000
0000
0010
0000
0200
0000
0000
0000
0301
0000
0000
0100
,  // measure 27
0000
0001
1000
0100
2000
0000
0000
0000
,  // measure 28
3000
1001
0110
1001
,  // measure 29
0001
0100
0001
0010
0001
1000
0100
1000
,  // measure 30
0010
1000
0100
0010
0001
0010
0200
0000
,  // measure 31
2300
3002
0203
0310
,  // measure 32
0110
0000
0101
0000
1001
0000
1000
0010
,  // measure 33
0100
0000
0000
0001
0000
0000
1000
0000
0010
0000
1000
0000
0001
0000
0000
0000
,  // measure 34
0100
0000
0000
0000
0010
0000
0000
1000
0000
0000
0010
0000
2000
0000
0000
0000
,  // measure 35
3100
0100
0100
0000
0000
0000
0000
0000
,  // measure 36
1100
0000
1010
0000
1001
0000
0001
0010
,  // measure 37
0001
0100
0010
1000
0100
1000
0001
0100
,  // measure 38
0020
0000
1030
1000
,  // measure 39
1000
0000
0000
0000
0100
0000
0010
0000
0100
0000
0000
0010
0000
0000
0100
0000
,  // measure 40
0000
0010
0000
0000
0100
0000
0000
0010
0000
0100
0000
0000
0010
0000
0000
0100
,  // measure 41
0000
0000
0010
0000
0100
0000
0000
0010
0000
0000
0100
0000
0010
0000
0000
0000
,  // measure 42
0011
0000
0000
0000
0001
0000
1000
0000
0100
0000
0000
1000
0000
0000
0010
0000
,  // measure 43
0100
0001
1000
1000
0001
0010
0001
0000
,  // measure 44
0100
0000
0000
0000
0101
0000
0000
0001
0000
0000
1000
0000
0010
0000
1000
0000
,  // measure 45
0010
0010
0100
0000
0001
0000
1000
0000
,  // measure 46
0100
0000
0000
0010
0000
0000
0001
0000
0010
0000
0100
0000
1000
0000
0010
0000
,  // measure 47
0100
0001
0100
0000
0000
0000
0000
0000
,  // measure 48
0000
0000
0000
0000
,  // measure 49
0001
0100
1000
0100
0001
0010
0100
1000
,  // measure 50
0010
0001
0010
1000
0200
0000
1300
0000
,  // measure 51
1100
0000
1000
0001
0010
0000
0011
0000
,  // measure 52
0001
0100
0001
0100
0001
0100
0010
0000
,  // measure 53
0000
0000
1000
0010
1000
0100
1000
0000
,  // measure 54
0001
0000
0100
0000
0010
0000
0000
0100
0000
0000
0010
0000
0100
0000
0000
0001
,  // measure 55
0000
1000
0200
0000
0300
1000
0001
0000
,  // measure 56
1001
0000
0001
1000
0001
0010
0200
0000
,  // measure 57
2300
0000
0000
0000
3010
0000
0100
0000
0001
0000
0000
0000
1000
0000
0000
0010
,  // measure 58
0000
0000
0100
0000
0010
0000
0000
1000
0000
0000
0001
0000
0100
0000
0000
0000
,  // measure 59
0001
0000
0000
1000
0000
0000
0001
0000
0000
0000
0000
0000
0100
0000
0000
0010
0000
0000
1000
0000
0000
0000
0010
0000
,  // measure 60
1000
0000
0000
0000
0000
0000
0010
0000
0000
0000
0000
0000
0000
0000
1000
0000
0000
0000
0010
0000
0000
0000
0000
0000
0100
0000
0000
0000
0000
0000
0000
0000
0000
0001
0000
0000
0000
0000
0000
0000
0000
0000
1000
0000
0000
0000
0000
0000
,  // measure 61
0000
0001
0000
0000
0020
0000
0000
0000
0130
0000
0000
0000
1000
0000
0000
0000
,  // measure 62
0010
1000
0001
0000
0101
0000
1100
0000
,  // measure 63
1000
0010
0100
0010
1000
0001
0010
0001
,  // measure 64
0200
0000
0000
0000
0000
0000
0000
0000
0000
0000
0000
0000
0310
0000
0000
0100
,  // measure 65
0000
0000
0001
0000
1000
0000
0000
0010
0000
0000
1000
0000
0002
0000
0000
0000
,  // measure 66
0000
0000
0000
0000
1003
0000
1000
0000
0010
0000
0000
0100
0000
0000
0001
0000
,  // measure 67
0000
1000
0000
0000
0010
0000
0000
0000
0100
0000
0100
0000
0001
0000
0000
0000
,  // measure 68
1100
0000
0000
0000
0010
0000
0000
1000
0000
0000
0001
0000
0010
0000
0000
0100
,  // measure 69
0000
0000
1000
0000
0000
0010
0000
0000
1000
0000
0000
0010
0000
0000
0100
0000
,  // measure 70
0002
0000
0000
0000
1003
0000
0001
0000
0000
1000
0000
0000
0001
0000
1000
0000
,  // measure 71
0000
0010
0000
0000
0100
0000
0000
0010
0000
0000
1000
0000
0100
0000
0000
1000
,  // measure 72
0000
0002
0200
0000
0000
0000
0300
0000
,  // measure 73
0000
0000
0000
0000
0000
0000
0000
0000
0000
0000
0000
0000
0000
0000
0000
0000
0000
0000
0000
0000
0000
0000
0000
0000
0000
0000
0000
0000
0000
0000
0000
0000
0000
0000
0000
0000
0000
0000
0000
0000
0000
0000
0000
0000
0000
0000
0000
0000
1003
0000
0000
0000
0000
0000
0000
0000
0000
0000
0000
0000
0000
0000
0000
0000
0000
0000
0000
0000
0000
0000
0000
0000
0000
0000
0000
0000
0000
0000
0000
0000
0000
0000
0000
0000
0000
0000
0000
0000
0000
0000
0000
0000
0000
0000
0000
0000
0001
0000
0000
0000
0000
0000
0000
0000
0000
0000
0000
0000
0000
0000
0000
0000
0000
0000
1000
0000
0000
0000
0000
0000
0000
0000
0000
0000
0000
0000
0000
0000
0000
0000
0000
0000
0001
0000
0000
0000
0000
0000
0000
0000
0000
0000
0000
0000
0000
0000
0000
0000
0000
0000
0000
0000
1000
0000
0000
0000
0000
0000
0000
0000
0000
0000
0000
0000
0000
0000
0000
0000
0001
0000
0000
0000
0000
0000
0000
0000
0000
0000
0000
0000
0000
0000
0000
0000
0000
0000
0000
0000
0000
0000
0000
0000
,  // measure 74
0100
0000
0000
0000
,  // measure 75
0000
0000
0101
0000
0000
1001
0000
0000
,  // measure 76
1010
0000
1000
0100
0010
0001
1000
0010
,  // measure 77
0100
0000
0000
0010
0000
0000
1000
0000
0000
0001
0000
0000
0200
0000
0000
0000
,  // measure 78
0302
0203
0000
0300
,  // measure 79
0000
0000
0000
0000
,  // measure 80
0000
0000
0000
0000
0001
1000
0100
1000
,  // measure 81
1000
1000
0010
0010
0010
0100
0100
0100
,  // measure 82
0001
1100
0110
1001
,  // measure 83
0001
0010
0001
0010
0100
1000
0100
1000
,  // measure 84
0001
1000
0001
0100
0010
1000
0100
1000
,  // measure 85
0001
0100
0010
1000
0100
1000
0002
0000
,  // measure 86
0000
0000
0003
0000
;

//---------------dance-single - aurae----------------
#NOTES:
     dance-single:
     aurae:
     Hard:
     11:
     0.894,1.000,0.539,0.056,0.632: // measure 1
0000
0000
0000
0000
,  // measure 2
0000
0000
0000
0000
,  // measure 3
0000
0000
0000
0000
,  // measure 4
0000
0000
0000
0000
,  // measure 5
0000
0000
0000
0000
,  // measure 6
0000
0000
0000
0000
,  // measure 7
0000
0000
0000
0000
,  // measure 8
1000
0100
1000
0010
0010
1000
0001
0100
,  // measure 9
0001
0010
0100
1000
0010
0100
1000
0000
,  // measure 10
0101
0000
0001
0010
0100
0010
0001
1000
,  // measure 11
0001
0100
0010
0000
1000
0010
0100
0010
,  // measure 12
1000
0001
0010
0001
0100
0010
1000
0100
,  // measure 13
1000
0000
0011
0000
1001
0000
1000
0100
,  // measure 14
0000
0001
0100
0010
0001
1000
0010
0001
,  // measure 15
0010
0000
1010
0000
1001
0000
0001
0100
,  // measure 16
0001
0000
1000
0100
1000
0010
0100
0010
,  // measure 17
1000
0100
1000
0001
0100
1000
0100
0001
,  // measure 18
0100
0000
0101
0000
1001
0000
0001
0010
,  // measure 19
0001
0000
0100
0010
1000
0100
1000
0001
,  // measure 20
0010
0001
0100
0001
0001
1000
0001
0000
,  // measure 21
1000
0001
0000
0000
,  // measure 22
1001
0000
0001
0000
0100
0000
0001
1000
0000
0001
1000
0000
0010
1000
0010
1000
,  // measure 23
0010
0100
0001
1000
0001
0100
0001
1000
,  // measure 24
1100
0000
0000
1001
0000
0000
0011
0000
0000
0101
0000
0000
1001
0000
0100
0000
,  // measure 25
1001
0000
0001
0010
0100
1000
1100
1000
,  // measure 26
0001
0000
0100
0000
1001
0000
0001
0000
0100
0000
0100
0000
0010
0000
0000
1010
,  // measure 27
0000
0000
1001
0000
0100
0000
0001
0000
1000
0000
0010
0100
0000
0010
0100
0000
,  // measure 28
0001
1000
0001
1000
0100
0000
0000
0000
0011
0000
0000
0000
1001
0000
0000
0000
,  // measure 29
0110
0000
0100
0000
0001
0000
0010
0001
0000
0010
0001
0000
1000
0001
1000
0001
,  // measure 30
1000
0100
0010
0001
1000
0010
1010
0100
,  // measure 31
1001
0000
0100
0000
1001
0000
0100
0000
0100
0000
0100
0000
0001
0100
0001
0000
,  // measure 32
1000
0000
0100
0000
1000
0000
0010
0000
1000
0010
1000
0010
0100
0000
0001
0000
,  // measure 33
1000
0000
0000
1001
0000
0000
0100
0001
0100
0001
0100
0000
0010
0000
1000
0000
,  // measure 34
0100
0000
0000
0000
1100
0000
0000
1000
0000
0000
0001
0100
0020
0000
0000
0000
,  // measure 35
1030
0000
1000
0000
0101
0000
0000
0000
0001
0000
0100
0000
0001
1000
0001
1000
,  // measure 36
0001
0000
0010
0000
0100
0000
1000
0000
0010
0000
0100
0000
0010
1000
0010
1000
,  // measure 37
0100
0000
1000
0100
1000
0000
0001
0000
0100
0010
0100
0000
0101
0000
0001
0000
,  // measure 38
1001
0000
0000
1000
0000
0001
1000
0000
0011
0000
0100
0000
0011
0000
0100
0000
,  // measure 39
0011
0000
0100
0000
0001
0100
0001
0100
0010
0000
1000
0100
0000
1000
0100
0000
,  // measure 40
1000
0010
0000
1000
0010
0000
1000
0010
0000
1000
0000
0001
0100
0000
0001
0100
,  // measure 41
0010
0000
0100
0000
0001
0000
1000
0010
0000
1000
0010
0000
1000
0000
0000
0000
,  // measure 42
0101
0000
0001
0100
0010
0000
1000
0000
1010
0000
0000
0100
0000
0000
0001
0000
,  // measure 43
1000
0000
0010
0000
0010
0000
1000
0000
0001
0000
1100
0000
1000
0000
0001
0100
,  // measure 44
0001
0000
0100
0001
0100
0000
0000
0011
0000
0000
1001
0000
1000
0000
0100
0000
,  // measure 45
0100
0000
1000
0000
0010
0000
0101
0000
0010
0000
1000
0001
0100
0001
1000
0000
,  // measure 46
1100
0000
0000
1001
0000
0000
0101
0000
0001
0100
0001
0100
0010
0100
0010
0100
,  // measure 47
0010
0100
0010
0100
0001
0000
0100
0000
0001
0000
0000
0000
0000
0000
0000
0000
,  // measure 48
0000
0000
0000
1001
,  // measure 49
1000
0000
0100
0000
1000
0000
0010
1000
0000
0010
1000
0000
0001
1000
0001
1000
,  // measure 50
0100
0010
0001
0100
0010
1000
0100
0010
,  // measure 51
1100
0000
1000
0000
0001
0000
0100
0000
0001
1000
0001
0000
1000
0000
1000
0001
,  // measure 52
0100
0010
1000
0001
0100
0010
1001
0000
,  // measure 53
0000
0000
0000
0000
0001
0010
0001
0010
0001
0000
1000
0000
0100
0000
1000
0010
,  // measure 54
1000
0010
1000
0010
0100
0000
0001
0100
0000
1000
0100
0000
0001
0000
0100
1000
,  // measure 55
0000
0100
0001
0000
0200
0000
0000
0000
0300
0000
0010
1000
0010
0000
0000
0000
,  // measure 56
1000
0000
0001
0000
0010
0001
0100
0000
0101
0000
0001
0000
1000
0000
0100
0000
,  // measure 57
0010
0000
0100
0000
1000
0001
1000
0001
0100
0000
0100
0000
0001
0000
0000
1100
,  // measure 58
0000
0000
1001
0000
0010
0000
0000
0010
0000
0000
0010
0000
0001
0010
0100
0000
,  // measure 59
0010
0000
0000
0001
0000
0000
0100
0000
0000
0010
0000
0000
1000
0000
0000
0001
0000
0000
0100
0000
0000
0000
0001
0000
,  // measure 60
0100
0000
0000
0000
0000
0000
0001
0000
0000
0000
0000
0000
0000
0000
1000
0000
0000
0000
0100
0000
0000
0000
0000
0000
0010
0000
0000
0000
0000
0000
0000
0000
0000
0001
0000
0000
0000
0000
0000
0000
0000
0000
0100
0000
0000
0000
0000
0000
,  // measure 61
0000
0001
0000
0000
1100
0000
1000
0001
1000
0001
1000
0000
0100
0000
1000
0001
,  // measure 62
1000
0001
0010
0000
0100
0000
1000
0001
0010
0000
0001
0000
0100
0000
0000
0000
,  // measure 63
0010
0000
0100
0000
0001
1000
0001
0000
0100
0000
0000
1001
0000
0000
0100
0000
,  // measure 64
0010
0000
0001
0000
0100
0000
0010
0000
1000
0000
0001
0000
0100
0000
0001
0010
,  // measure 65
0000
0000
0001
0000
0100
0000
0000
0000
0010
0000
0000
0000
0000
0000
1100
0000
0000
0000
0000
0000
1001
0000
0000
0000
0100
0000
0000
0001
0000
0000
1000
0000
,  // measure 66
0000
0000
0001
0000
0000
0000
1000
0000
0000
0001
0000
0000
0100
0000
0000
0000
0000
0000
0100
0000
0000
0000
0000
0000
0001
0000
0000
0000
0000
0000
0001
0000
0000
1000
0000
0000
0000
0000
0000
0100
0000
0000
2000
0000
0000
0000
0000
0000
,  // measure 67
0000
3002
0000
0000
0103
0000
0000
0001
0100
0000
0001
0000
1001
0000
0000
0000
,  // measure 68
0110
0000
0000
0000
1001
0000
0000
1000
0001
0000
0100
0000
0010
0000
0000
1000
,  // measure 69
0000
0000
0001
0000
0000
0100
0000
0000
0010
0000
0000
1000
0000
0000
0001
0010
,  // measure 70
0001
0100
0010
0100
0001
0000
1000
0000
0000
0001
1000
0000
0010
0000
0100
0000
,  // measure 71
0001
1000
0000
0001
1000
0000
0010
0100
0000
0000
0001
0100
0010
0000
0000
1010
,  // measure 72
0000
1001
0010
0000
0001
1000
0100
0000
,  // measure 73
0100
0000
0000
0000
0000
0000
0000
0000
0000
0000
0000
0000
0000
0000
0000
0000
0000
0000
0000
0000
0000
0000
0000
0000
0000
0000
0000
0000
0000
0000
0000
0000
0000
0000
0000
0000
0000
0000
0000
0000
0000
0000
0000
0000
0000
0000
0000
0000
1000
0000
0000
0000
0000
0000
0000
0000
0000
0000
0000
0000
0000
0000
0000
0000
0000
0000
0000
0000
0000
0000
0000
0000
0001
0000
0000
0000
0000
0000
0000
0000
0000
0000
0000
0000
0000
0000
0000
0000
0000
0000
0000
0000
0000
0000
0000
0000
0100
0000
0000
0000
0000
0000
0000
0000
0000
0000
0000
0000
0000
0000
0000
0000
0000
0000
0001
0000
0000
0000
0000
0000
0000
0000
0000
0000
0000
0000
0000
0000
0000
0000
0000
0000
1000
0000
0000
0000
0000
0000
0000
0000
0000
0000
0000
0000
0000
0000
0000
0000
0000
0000
0000
0000
0001
0000
0000
0000
0000
0000
0000
0000
0000
0000
0000
0000
0000
0000
0000
0000
0100
0000
0000
0000
0000
0000
0000
0000
0000
0000
0000
0000
0000
0000
0000
0000
0000
0000
0000
0000
0000
0000
0000
0000
,  // measure 74
0002
0000
0000
0000
,  // measure 75
0000
0000
0013
0001
1000
0010
1000
0001
,  // measure 76
0100
0000
0010
0000
1000
0000
0001
0000
0100
0000
0010
0000
1000
0001
1000
0000
,  // measure 77
0010
0000
0100
0001
0100
0000
0010
0000
1000
0100
1000
0000
0001
0000
0000
0000
,  // measure 78
0100
0100
0000
0101
,  // measure 79
0000
0000
0000
0000
,  // measure 80
0000
0000
0000
0000
1001
1000
0010
0010
,  // measure 81
0010
1000
0001
0100
0010
0100
0001
0010
,  // measure 82
0001
1000
0001
1000
0100
0000
1000
0000
1000
0000
0001
0000
0100
0000
0010
0000
,  // measure 83
1000
0000
0100
0000
0010
0000
0001
0000
0010
0000
0010
0000
0001
0100
0001
0100
,  // measure 84
0010
1000
0000
0001
0000
0100
0000
0001
0000
1000
0000
0100
0000
1000
0000
0001
,  // measure 85
1000
0000
0001
0000
1000
0100
0010
0001
1000
0100
0010
0001
0200
0000
0000
0000
,  // measure 86
0000
0000
0300
0000
;
