#TITLE:rainbow road;
#SUBTITLE:;
#ARTIST:THREE TRAPPED TIGERS;
#CREDIT:;
#MUSIC:rainbowroad.mp3;
#SELECTABLE:YES;
#BACKGROUND:rainbowroad-bg.png;
#BANNER:rainbowroad.png;
#CDTITLE:!auraesimfilesmix2.png;
#DISPLAYBPM:*;
#OFFSET:-0.361542;
#SAMPLESTART:19.844;
#SAMPLELENGTH:21.919;
#BPMS:0=174.01,3=173.999,9=174.01,12=173.999,15=180.061,17=176.978,18=186.561,19=180.086,20=163.031,21=155.656,22=174.01,23=173.999,29=174.01,32=173.999,39=174.01,40=173.999,41=174.01,42=173.999,43=174.01,44=173.999,48=174.01,49=173.999,50=174.01,51=173.999,52=174.01,53=173.999,58=174.01,59=173.999,60=174.01,61=173.999,62=174.01,63=173.999,68=174.01,69=173.999,72=174.01,73=173.999,76=174.01,77=173.999,78=174.01,79=173.999,82=174.01,83=173.999,86=174.01,88=173.999,91=174.01,92=173.999,95=174.01,96=173.999,97=174.01,98=173.999,101=174.01,102=173.999,105=165.634,106=171.118,107=180.074,108=180.061,109=168.331,110=165.634,111=176.99,112=173.999,113=176.978,114=171.118,115=173.999,116=174.01,117=171.118,118=165.634,119=186.561,120=174.01,121=186.561,122=163.021,123=180.061,124=173.999,125=180.061,126=174.01,127=163.021,128=173.999,129=180.061,130=174.01,131=180.061,132=158.036,133=180.061,134=186.561,135=173.999,137=174.01,138=173.999,141=168.331,142=160.49,143=183.254,144=171.118,145=190.004,146=160.5,147=180.061,148=176.978,149=171.118,150=173.999,151=183.254,152=171.118,153=168.331,154=163.031,155=186.561,156=176.99,157=171.118,158=173.999,159=183.254,160=176.978,161=160.49,162=186.561,163=173.999,164=174.01,166=173.999,173=174.01,174=173.999,175=174.01,176=173.999,180=163.021,181=173.999,182=171.118,183=180.074,184=168.331,185=190.004,186=173.999,193=174.01,194=173.999,195=173.394,201=168.256,203=173.394,210=182.583,211=173.394,212=179.414,213=170.534,215=165.086,216=173.394,217=179.414,218=173.394,219=176.353,220=173.394,222=176.353,223=170.534,224=165.086,225=85.7643,226=84.1603,227=57.8335,228=174.182,229=174.01,230=173.999,237=174.01,239=173.999,246=174.01,247=173.999,248=174.01,249=173.999,256=174.01,257=83.5069,260=83.5096,261=83.5069,263=354.787,264=354.739,265=354.787,266=354.739,267=354.787,268=354.739,269=354.787,270=354.739,271=354.787,272=354.739,273=354.787,274=354.739,275=354.787,278=354.739,279=354.787,280=354.739,281=354.787,282=354.739,283=354.787,284=354.739,285=354.787,286=354.739,287=354.787,288=354.739,289=354.787,290=354.739,291=354.787,292=354.739,293=354.787,294=354.739,295=354.787,296=354.739,297=354.787,298=354.739,299=354.787,300=354.739,301=354.787,302=354.739,303=354.787,304=354.739,305=354.787,306=354.739,307=354.787,308=354.739,309=354.787,310=354.739,311=354.787,312=354.739,313=354.787,314=354.739,315=354.787,316=354.739,317=354.787,318=354.739,319=354.787,320=354.739,321=354.787,322=354.739,323=354.787,326=354.739,327=360.392,328=360.343,329=360.392,330=360.343,331=360.392,332=360.343,333=360.392,334=360.343,335=360.392,336=360.343,337=360.392,338=360.343,339=354.787,340=354.739,341=354.787,342=354.739,343=354.787,344=354.739,345=354.787,346=354.739,347=354.787,348=354.739,349=354.787,350=354.739,351=354.787,354=354.739,355=354.787,356=354.739,357=354.787,358=354.739,359=354.787,360=354.739,361=354.787,362=354.739,363=354.787,364=354.739,365=354.787,366=354.739,367=348.8,368=348.754,369=348.8,370=348.754,371=348.8,372=348.754,373=348.8,374=348.754,375=348.8,376=348.754,377=348.8,378=348.754,379=348.8,380=348.754,381=354.787,382=354.739,383=374.046,384=373.993,385=367.398,386=367.347,387=344.486,388=344.442,389=364.362,390=364.312,391=371.838,393=357.133,394=72.6026,395=60.1063;
#STOPS:;

//---------------dance-single - ----------------
#NOTES:
     dance-single:
     :
     Easy:
     7:
     0.000,0.000,0.000,0.000,0.000:
0000
0000
0000
0000
,
0000
0000
0000
0000
,
0000
0000
0000
0000
,
0000
0000
0000
0000
,
0000
0000
0001
0000
0000
0001
0000
0000
,
0001
1000
0010
0100
,
0000
0010
0000
0000
1000
0000
0010
0000
,
0100
0000
0001
0000
0000
0001
0000
0000
,
0001
1000
0100
1000
,
0010
0100
0100
0010
,
1000
0000
0001
1000
0001
1000
0001
0000
,
0100
0001
1000
0010
,
0100
2002
0000
0000
,
0000
0000
0000
0000
0000
0000
0000
3003
,
0000
1001
0000
0000
1001
0000
0000
0000
,
0000
0101
0000
0000
0110
0000
0000
0000
,
0000
0011
0000
0000
1100
0000
1000
0000
,
0110
0000
0000
0101
0000
0000
0001
0000
,
0101
0000
0000
0110
0000
0000
0010
0000
,
0000
1010
0000
0000
1100
0000
1000
0000
,
0000
0011
0000
0000
0110
0000
0100
0000
,
1100
0000
0000
1001
0000
0000
0001
0000
,
0011
0000
0000
0101
0000
0000
0001
0000
,
0000
1010
0000
0000
1100
0000
1000
0100
,
0010
0000
0000
0011
0000
0000
0001
0100
,
0001
0000
0000
0110
0000
0000
0100
1000
,
0010
1000
0100
0000
0000
0000
0010
0000
,
0000
1001
0000
0000
0000
0000
0001
0000
,
0000
0110
0000
0000
0110
0000
1001
0000
,
0110
0000
0000
1100
0000
0000
1001
0000
,
0110
0000
0000
0000
0000
0001
1000
0001
,
1000
0100
0000
0000
1100
0000
1000
0000
,
0000
0011
0000
0000
0101
0000
0001
0000
,
1100
0000
0000
0101
0000
0000
1001
0000
,
0000
0010
0000
0001
,
0000
1000
0000
0100
,
0000
1000
0000
0010
,
0000
0100
0000
0000
,
1001
0000
0000
0000
,
0000
0110
0000
0000
1001
0000
0100
0000
,
0000
1100
0000
0000
1010
0000
0000
0000
,
0101
0000
0000
0101
0000
0000
0000
0000
,
0000
0000
0000
0001
,
0100
0010
0010
1000
,
0100
1000
0001
0010
,
0100
1000
1000
0010
,
0100
0010
0100
0100
,
0001
1000
0100
1000
,
0010
1000
0100
1000
,
0001
0010
0010
0001
,
0100
0000
0010
0100
0010
0100
0010
0000
,
1000
0001
0001
0100
,
0010
0000
1000
0000
0100
0000
1000
0001
,
1000
0001
1000
0000
0001
0000
0010
0000
,
0010
0001
0100
0010
,
1000
0100
1000
0001
,
0010
0000
0000
0000
0000
0000
0001
0000
0000
1000
0000
0001
,
0000
1000
1000
0001
,
0001
0100
0100
0010
,
0010
0100
0100
0001
,
0001
1000
0001
0010
,
0100
1000
0010
0100
,
0001
0100
0010
1000
,
0100
0000
1000
0100
0000
1000
0001
0000
,
0100
0001
0100
0000
0000
0000
0000
0000
,
0000
0000
0000
0001
,
0000
0001
0000
1000
,
0000
0100
1000
0000
,
0001
1000
0001
0100
,
0010
1000
0000
0010
,
0100
0000
0001
1000
,
0010
0010
0100
0001
,
0000
1000
0100
0000
,
1000
0010
0100
0001
,
0010
0001
0010
0100
,
0000
1000
0010
0000
,
1000
0001
0000
0100
,
0010
1000
0000
0100
,
1000
0000
0001
0100
,
0010
0100
0001
0000
,
0010
0100
1000
0001
,
0100
0010
1000
0100
,
0010
0001
1000
0010
,
0000
0100
0001
0000
,
1000
0100
1000
0010
,
0100
0010
0000
0100
,
0001
0010
0001
1000
,
1000
0001
0001
1000
,
1000
0001
0001
1100
,
0000
0101
0000
1001
,
1001
1001
0000
0001
,
0100
0001
0100
0010
,
1000
0100
1000
0010
,
0010
1000
0100
1000
,
1000
0001
0100
0010
,
1000
0100
0010
0001
,
0100
0010
1000
0100
,
1000
0010
0100
0001
,
1000
0010
1001
0000
,
0000
0000
0000
0000
;

//---------------dance-single - ----------------
#NOTES:
     dance-single:
     :
     Medium:
     9:
     0.000,0.000,0.000,0.000,0.000:
0000
0000
0000
0000
,
0000
0000
0000
0000
,
0000
0000
0000
0000
,
0000
0000
0000
0000
,
0000
0000
0001
0100
0100
0010
1000
1000
,
0100
0010
0001
0100
0010
1000
0100
0100
,
0010
0001
0001
1000
0010
0100
0001
1000
,
1001
0000
0100
0010
0010
0001
0010
0010
,
0100
1000
0001
0100
0010
2000
0000
3002
,
0000
0203
0000
0310
0100
0002
1000
0000
,
0100
0000
0013
0001
0100
0001
1000
1000
,
0010
0200
0000
0320
0000
2030
0000
3001
,
0100
0020
1000
0000
0000
0000
0000
0000
,
0000
0000
0000
0000
0000
0000
0000
0030
,
0000
1001
0000
0001
0101
0000
1000
0010
,
1000
0010
0000
1000
1100
0000
0100
0010
,
0001
0010
0000
0001
0101
0000
0001
0100
,
0110
0000
0010
1010
0000
1000
0100
0010
,
0001
0000
0010
0011
0000
0010
0100
1000
,
0100
1100
0000
1000
1001
0001
0000
0100
,
0000
0101
0000
0010
1010
1000
0010
0100
,
0001
0000
1000
0100
0000
1000
0010
1000
,
0100
0000
0010
0011
0000
0001
1000
0001
,
1000
0100
0000
0010
0110
0000
0010
0001
,
0100
0000
0010
1010
0000
1000
0100
0010
,
0001
0000
1000
1100
0100
0010
0001
0101
,
0000
0110
1001
0000
0000
0000
0100
0010
,
0001
0100
0000
0000
0000
0000
0100
0010
,
1000
0100
0000
0000
0100
0000
0010
0001
,
2000
0000
3000
0002
0000
0003
0110
0000
,
1100
0000
0000
0000
0000
1000
0100
0010
,
0001
0100
0000
0000
0100
0000
0010
1000
,
0001
0100
0000
0000
0100
0000
0010
1000
,
0002
0000
0003
2000
0000
3000
0100
0010
,
0001
0100
2002
0000
0003
0000
0020
0000
,
3000
0200
0030
0002
,
0300
2000
0003
0200
,
3000
0002
0000
0303
,
1100
0000
0000
0000
0000
0000
1000
0100
,
0010
0001
0000
0000
0101
0000
0010
0100
,
0001
1000
0000
0000
0010
0000
1000
0010
,
0100
0000
0001
0010
0100
1000
0010
0100
,
0001
0100
0010
1000
0100
0010
0002
0000
,
0100
0100
0010
0010
,
1000
1000
0100
1000
,
0010
0010
0100
0013
,
0001
0000
1000
0000
0100
1000
0010
0000
,
1000
1000
0001
0100
,
0010
0000
1000
0000
0100
0000
1000
0001
,
0100
0001
0100
0000
0010
0000
1000
0000
,
0001
0000
0010
0100
1000
0100
0010
0000
,
0100
1000
0001
0010
,
0100
0000
0001
0000
0100
1000
0010
1000
,
0100
2000
0001
0100
,
0100
0010
0100
0010
,
0010
0000
3001
0000
1000
0001
0100
0001
,
0010
0000
0000
0000
0000
0000
0100
0000
0000
1000
0000
0001
,
1000
0000
0001
0100
0001
0100
0001
1000
,
0001
1000
0010
1000
0010
1000
0100
1000
,
0100
0010
0001
0100
0001
0100
0010
1000
,
0010
1000
0100
1000
0100
1000
0001
0010
,
0100
1000
0001
0010
0001
0010
0100
1000
,
0010
0100
0001
1000
0100
1000
0001
0010
,
0001
0000
1000
1100
0000
1000
0001
0100
,
0001
1000
1001
0000
0000
0000
0000
0000
,
0000
0000
0000
1000
,
0001
1000
0001
0100
,
0000
0010
0000
0000
0100
0000
0000
0010
,
0000
1000
0100
1000
,
0001
0000
0010
0000
0000
0100
0000
0000
,
0010
0000
0000
0100
0000
0000
1000
0000
,
0010
0100
0001
0010
,
0100
1000
0001
1000
,
0001
0100
0010
0100
,
0001
1000
0010
1010
,
0000
0100
0101
0000
,
0001
0011
0010
0100
,
1000
0010
1000
0001
,
1000
0100
1000
0010
,
0010
0100
0001
1000
,
0001
1000
0100
0010
,
0001
0100
0000
0110
,
0110
1001
1001
0001
,
0000
0100
0101
0000
,
0001
1001
1000
0010
,
0100
0010
1000
0001
,
0100
0001
0000
1000
,
1000
0001
0100
0001
,
0010
0000
0001
1000
0001
1000
0001
1000
,
0001
1000
0001
1000
0001
1000
0001
0000
,
1000
0100
1000
0010
,
0000
1000
0000
0000
0001
0000
0000
0100
,
0000
0001
1000
0010
,
0100
0000
0010
0000
0000
1000
0000
0000
,
0001
0000
0000
0100
0000
0000
0010
0000
,
1000
0100
1000
0001
,
0100
0001
0010
0100
,
1000
0010
0100
0010
,
1000
0001
0010
0000
,
0000
0000
0000
0000
;

//---------------dance-single - ----------------
#NOTES:
     dance-single:
     :
     Hard:
     10:
     0.000,0.000,0.000,0.000,0.000:
0000
0000
0000
0000
,
0000
0000
0000
0000
,
0000
0000
0000
0000
,
0000
0000
0000
0000
0000
0000
0100
0100
,
0100
0000
0100
0000
0001
0000
0000
0001
0100
0000
0010
0000
0000
0010
1000
0000
,
0010
1000
0001
0010
0100
1000
0010
0010
,
0100
0001
0001
1000
0010
0100
0001
1000
,
0100
0000
0010
0000
0001
0000
0000
0001
1000
0000
0010
0000
0000
0010
1000
0000
,
0100
0100
1000
0001
0010
0001
0000
1000
,
1000
0100
0010
0010
0100
1000
0010
0100
,
0001
1000
0001
1000
0100
0010
0001
0100
,
0010
1000
0100
0100
1000
0001
0100
0010
,
0100
0002
2000
0000
0000
0000
0000
0000
,
0000
0000
0000
0000
0000
0000
0000
0000
0000
0000
0000
0000
0000
0000
0000
3003
,
0000
0000
0101
0000
0000
0001
0100
0000
0010
0000
0000
1000
0100
0000
1000
0000
,
1000
0000
0010
0000
0000
1000
0010
0000
0100
0000
0000
0001
0100
0000
0001
0000
,
0001
0000
1000
0000
0000
0010
1000
0000
0100
0000
0000
0010
0001
0000
1000
0000
,
0010
0000
0000
0010
1000
0000
0100
0000
0000
0100
0010
0000
0001
0000
0100
0000
,
0010
0000
0000
1000
0010
0000
0100
0000
0000
0001
0100
0000
0010
0000
0010
0000
,
0010
0000
1000
0000
0000
0100
1000
0000
0001
0000
1000
0001
0010
0001
0010
0000
,
0010
0000
0100
0000
0000
0100
1000
0000
0010
0000
0000
1000
0001
0000
0100
0000
,
0010
0000
0000
1000
0100
0000
1000
0000
0000
1000
0001
0000
0010
0000
0100
0000
,
1000
0000
0000
1000
0001
0000
0100
0000
0000
0001
1000
0000
0010
0000
0100
0000
,
0100
0000
0001
0000
0000
0001
1000
0000
0010
0000
0000
0010
0100
0000
0001
0000
,
0001
0000
1000
0001
1000
0000
0010
0000
0100
0010
0100
0000
0010
0000
1000
0000
,
1000
0000
0001
0100
0001
0000
1000
0000
0010
1000
0010
0000
0100
0000
0001
0000
,
0010
0100
2002
0000
0003
0000
3001
1000
,
0100
0022
0000
0000
0030
0000
0103
0001
,
1000
2020
0000
3000
1000
0000
0130
0010
,
0200
0000
0301
2000
0000
0100
3010
0000
,
2002
0000
0003
0000
0000
3001
0100
0010
,
0100
0102
0000
0003
2100
0000
3001
1000
,
0001
0020
0000
0000
0230
0000
1300
0100
,
0010
0000
0000
0000
1000
0000
0010
0000
0100
0000
0001
0000
0100
0001
0100
0001
,
0100
0000
0001
1000
0020
0000
0000
0000
0000
0000
0000
0000
0030
0000
1000
0000
,
0010
0200
0000
0000
0000
0000
0310
0100
,
0001
2000
0000
0000
3002
0000
1003
0001
,
0200
0000
0000
0000
0310
0000
2000
0000
0000
0000
3001
0000
0100
0001
0100
0001
,
0020
0000
0000
0000
0032
0000
1003
0001
,
0100
0000
0020
0000
0000
0000
0000
0000
2030
0000
0000
0000
3010
0000
1000
0001
,
1000
0001
0200
0000
0000
0000
0000
0000
0310
0000
0000
0000
1000
0000
0001
0000
,
0100
0000
0100
0001
0000
0011
0000
0001
,
1000
0000
0010
0000
0010
0000
1000
0000
1000
0000
0001
0000
0100
0000
0000
0100
,
0001
0000
1000
0000
0000
1000
0010
0000
0100
0000
0001
0100
0010
0000
0100
0000
,
0100
0001
1000
0010
1000
0100
1000
0001
,
0001
0000
0001
0000
0010
0000
0000
0010
0100
0000
1000
0000
0000
1000
0001
0000
,
0100
0000
0010
0000
1000
0000
1000
0000
0001
0000
0100
0000
0100
0000
0000
0100
,
0010
0000
1000
0000
0000
1000
0001
0000
0010
0000
0001
0000
0100
0000
0100
0000
,
0010
0000
0000
0010
1000
0000
0001
0000
0000
0001
0100
0000
0010
0000
1000
0000
,
0100
0000
0100
0000
1000
0000
0000
0001
0100
0000
0001
0000
0000
1000
0010
0000
,
0100
0000
0001
0100
0001
0000
1000
0000
1000
0000
0010
0000
0100
0000
0000
0001
,
0100
0000
0010
0000
0000
1000
0100
0000
1000
0000
0100
0000
1000
0000
0001
0000
,
0001
0000
0000
0100
0001
0000
0010
0000
0000
0100
0010
0000
0001
0000
1000
0000
,
0010
0000
0010
0000
1000
0000
0000
0010
0100
0000
0001
0000
0000
0010
0001
0000
,
0100
0000
0001
0000
1000
0000
1000
0000
0010
0000
0100
0000
0010
0000
0000
1000
,
0100
0000
1000
0000
0000
0001
0010
0000
0001
0000
0100
0000
0010
0000
1000
0000
,
0100
0000
0000
0000
,
1000
0001
1000
0001
1000
0000
0001
0000
0100
0000
0001
0000
0010
0000
0001
0000
,
1000
0010
0100
0010
1000
0100
1000
0001
,
0010
0001
0100
0010
1000
0100
1000
0010
,
0100
0010
1000
0001
0100
0001
1000
0010
,
0100
0010
1000
0100
1000
0001
0010
0100
,
1000
0010
0100
0001
1000
0100
0010
0001
,
1000
0000
0000
0001
0100
0000
0010
0000
0000
1000
0100
1000
0100
0000
1000
0000
,
1000
0002
2000
0000
0000
0000
0000
0000
,
0000
0000
3003
0001
,
0010
0001
1000
0010
,
1000
0010
1000
0010
1000
0000
0100
1000
,
0100
1000
0100
0000
1000
0000
0100
0000
,
0010
0000
0001
0000
0100
0000
0001
1000
,
0010
0000
1000
0010
0100
0010
1000
0000
,
0010
1000
0010
1000
0010
0000
0100
0000
,
0001
0100
0001
0100
0001
0010
0001
0010
,
0001
0100
0010
0100
0010
1000
0100
0000
,
1000
1000
0001
0100
,
0010
1000
0010
1000
0010
0000
0100
0001
,
0100
0001
0100
0000
0001
0000
0010
0000
,
0001
0000
1000
0000
0100
1000
0001
1000
,
0100
0000
1000
0010
0100
0010
1000
0000
,
0100
0000
0100
0000
0010
0000
0001
0010
,
0001
0010
0001
0000
0100
0001
0100
0001
,
1000
0001
1000
0100
1000
0100
1000
0000
,
0010
0010
0100
0100
,
0001
1000
0001
1000
0001
0000
0100
0010
,
0100
0010
0100
0000
0010
1000
0100
1000
,
0100
0000
0010
0000
0001
0100
0001
1000
,
0100
0000
1000
0010
0100
0010
1000
0100
,
1000
0100
1000
0001
1000
0001
0100
0001
,
0100
0001
0100
0010
0100
0010
1000
0010
,
1000
0010
1000
0001
0100
0001
0100
0000
,
0001
0100
0100
0001
,
0010
0100
0010
0100
0010
0000
0100
1000
,
0100
1000
0100
0000
1000
0000
0010
0100
,
0010
0100
0001
0010
,
0001
0000
1000
0000
0001
1000
0100
0000
,
1000
0000
0100
0000
1000
0000
0010
0100
,
0010
1000
0010
0100
,
0001
0100
0001
0000
1000
0100
1000
0010
,
0100
0010
1000
0001
1000
0000
0000
0000
,
0000
0000
0000
0000
;
